
//----- song ID: polk -----//
#TITLE:ポルカドット・ダンス・ガール;
#ARTIST:KE!JU;
#TITLETRANSLIT:Polka dot dance girl;
#BANNER:Polka dot dance girl.png;
#BACKGROUND:Polka dot dance girl-bg.png;
#CDTITLE:./CDTitles/DDR WORLD.png;
#MUSIC:Polka dot dance girl.ogg;
#SAMPLESTART:7.697;
#SAMPLELENGTH:15;
#BPMS:0=150;
#NOTES:
     dance-single:
     :
     Beginner:
     2:
     :
0000
0000
0000
0000
,
0000
0000
0000
0000
,
0000
0000
0000
0000
,
0000
0000
0000
0000
,
0000
0000
0000
0000
,
0001
0000
0000
0000
,
0001
0000
0000
0000
,
0010
0000
0000
0000
,
0000
0000
0000
0000
,
1000
0000
0000
0000
,
1000
0000
0000
0000
,
0010
0000
0000
0000
,
0000
0000
0000
0000
,
0001
0000
0000
0000
,
0010
0000
0000
0000
,
0001
0000
0000
0000
,
0000
0000
0000
0000
,
1000
0000
0000
0000
,
0010
0000
0000
0000
,
1000
0000
0000
0000
,
0000
0000
0000
0000
,
0010
0000
0000
0000
,
0010
0000
0000
0000
,
0000
0000
0000
0000
,
1001
0000
0000
0000
,
0001
0000
0000
0000
,
1000
0000
0000
0000
,
1001
0000
0000
0000
,
0000
0000
0000
0000
,
1000
0000
0000
0000
,
1000
0000
0000
0000
,
0010
0000
0000
0000
,
0100
0000
0000
0000
,
0001
0000
0000
0000
,
0001
0000
0000
0000
,
0010
0000
0000
0000
,
0000
0000
0000
0000
,
0010
0000
0000
0000
,
0010
0000
0000
0000
,
0001
0000
0000
0000
,
1000
0000
0000
0000
,
0010
0000
0000
0000
,
0010
0000
0000
0000
,
1000
0000
0000
0000
,
1000
0000
0000
0000
,
0002
0000
0000
0000
,
0003
0000
0000
0000
,
2000
0000
0000
0000
,
3000
0000
0000
0000
,
0010
0000
0000
0000
,
0010
0000
0000
0000
,
1000
0000
0000
0000
,
0000
0000
0000
0000
,
0001
0000
0000
0000
,
0010
0000
0000
0000
,
1000
0000
0000
0000
,
0000
0000
0000
0000
,
1000
0000
0000
0000
,
1000
0000
0000
0000
,
0010
0000
0000
0000
,
0000
0000
0000
0000
,
0010
0000
0000
0000
,
0010
0000
0000
0000
,
0001
0000
0000
0000
,
0000
0000
0000
0000
,
1000
0000
0000
0000
,
1000
0000
0000
0000
,
0001
0000
0000
0000
,
0000
0000
0000
0000
,
1001
0000
0000
0000
,
0000
0000
0000
0000
;
#NOTES:
     dance-single:
     :
     Easy:
     7:
     :
0000
0000
0000
0000
,
0000
0000
0000
0000
,
0000
0000
0000
0000
,
0000
0000
0000
0000
,
0000
0000
0000
0000
,
1001
0001
1000
0001
,
0010
0100
0010
0000
,
0001
0010
0100
1000
,
0001
0001
1000
0000
,
1001
1000
0001
1000
,
0010
0100
0010
0000
,
1000
0010
0100
0002
,
1000
2000
3003
0000
,
0001
0100
0010
0000
,
1000
0100
0010
0000
,
0001
0010
0100
0001
,
0100
0010
0001
0000
,
1000
0100
0010
0000
,
0001
0100
0010
0000
,
1000
0100
0010
0001
,
0200
0000
0300
0000
,
0001
0001
1000
1000
,
0100
0010
0001
1000
,
0010
0010
0100
0100
,
0001
1000
0002
0003
,
1000
1000
0001
0001
,
0100
0010
1000
0001
,
1000
0100
0010
0002
,
2000
0000
3003
0000
,
1001
1000
0001
1000
,
0010
0100
0010
0000
,
1000
0010
0100
0001
,
1000
1000
0001
0000
,
1001
0001
1000
0001
,
0010
0100
0010
0000
,
0001
0010
0100
2000
,
0001
0002
3003
0000
,
0001
0100
0010
0100
,
1000
0100
0001
0000
,
1000
0100
0010
0100
,
0001
0100
1000
0000
,
0001
0100
1000
0000
,
1000
0100
0001
0000
,
1000
0100
0001
0100
,
2000
0002
0000
3003
,
2000
0000
0000
0000
,
3200
0000
0000
0000
,
0302
0000
0000
0000
,
0023
0000
0000
0000
,
1030
1000
0100
0100
,
0010
0010
0001
0001
,
1000
0001
1000
0001
,
2000
0000
3000
1001
,
1000
0010
1000
0001
,
1000
0100
2000
3000
,
0001
0010
0001
1000
,
0001
0200
0000
0301
,
1000
0100
0010
0001
,
0100
0010
0200
0300
,
0001
0100
0010
1000
,
0002
2000
3003
0000
,
0002
1003
2000
3001
,
0001
0010
0100
0010
,
0002
1003
2000
3001
,
0001
0100
0010
0000
,
2000
3001
0002
1003
,
1000
0010
0100
0010
,
2000
3001
0002
1003
,
1000
0100
0010
0000
,
2002
0000
0000
3003
,
0000
0000
0000
0000
;
#NOTES:
     dance-single:
     :
     Medium:
     11:
     :
0000
0000
0000
0000
,
0000
0000
0000
0000
,
0000
0000
0000
0000
,
0000
0000
0000
0000
,
2000
0000
0000
0000
0000
0000
3000
0010
,
1000
0000
0001
0010
0001
0000
1000
0010
,
1000
0001
0000
0100
0000
0010
0000
1001
,
0000
0001
1000
0000
1100
0000
0110
0000
,
0010
0001
0000
1000
0000
0001
0000
0100
,
0001
0000
1000
0100
1000
0000
0001
0100
,
0001
1000
0000
0010
0000
0100
0000
1001
,
0000
0001
1000
0000
0010
1000
0001
0002
,
0000
1000
1000
0000
0000
0000
0103
0000
,
0000
0001
0010
0000
0100
1000
0001
2000
,
3000
0100
0010
0001
0000
1000
0000
0001
,
0000
1000
0010
0000
0100
0001
0010
0002
,
0003
0100
0010
1000
0000
1000
0001
1000
,
0000
0001
0010
0000
0100
1000
0001
2000
,
3000
0100
0010
0001
0000
0001
0000
1000
,
0000
0010
1000
0000
1000
0010
0100
0002
,
1000
1003
0110
1001
,
1000
0000
0001
0000
0100
0000
0010
0000
1000
0000
0000
0001
0000
0000
0000
0000
,
0001
0000
0100
0000
0010
0000
1000
0000
0100
0000
0000
0010
0000
0000
0000
0000
,
0001
0010
0001
1000
0001
0100
0001
0020
,
0000
0031
0010
0001
2000
0001
3001
0000
,
0001
0000
1000
0000
0100
0000
0010
0000
0001
0000
0000
1000
0000
0000
0000
0000
,
1000
0000
0100
0000
0010
0000
0001
0000
0100
0000
0000
0001
0000
0000
0000
0000
,
0001
0010
0100
1000
0010
0100
0001
2000
,
0001
0000
0010
0000
3001
0000
0000
1000
,
0001
0000
1000
0010
1000
0000
0001
0010
,
0001
1000
0000
0100
0000
0010
0000
1001
,
0000
1000
0001
0000
0101
0000
0110
0000
,
0010
1000
0000
0001
0000
1000
0000
0100
,
1000
0000
0001
0100
0001
0000
1000
0100
,
1000
0001
0000
0010
0000
0100
0000
1001
,
0000
1000
0001
0000
0010
0001
1000
2000
,
0000
0001
0001
3000
0000
1000
0002
0003
,
1000
0100
0001
0000
0001
0100
1000
0000
,
0001
0100
1000
0100
0010
0100
0001
0000
,
1000
0010
0001
0000
0001
0010
1000
0000
,
0001
0010
1000
0010
0100
0010
0001
0000
,
1000
0100
0001
0000
0001
0100
1000
0000
,
0001
0100
1000
0100
0010
0100
0001
0000
,
1000
0010
0001
0010
1000
0010
0010
1000
,
0000
0001
2000
0000
0000
0000
3000
0000
,
2000
0000
0000
0010
0000
0000
0001
0000
,
3002
0000
0000
0010
0000
0000
1000
0000
,
2003
0000
0000
0100
0000
0000
0001
0000
,
3002
0000
0000
0100
0000
0000
1003
0000
,
0001
0100
0010
0000
1000
0100
0010
0000
,
0001
0010
0100
0000
1000
0010
0100
0000
,
0001
0010
0100
0010
0001
1000
0010
0100
,
0001
0000
1000
0010
0000
0000
0000
0000
,
0010
1000
0010
1000
0100
0010
0001
0000
,
1000
0001
1000
0010
0100
0001
1000
0000
,
0001
1000
0001
0100
0010
1000
0001
0000
,
1000
0100
1000
0100
0010
0100
1000
0000
,
0010
1000
0100
1000
0100
0010
0001
0000
,
1000
0001
0010
0200
0000
1300
0001
0000
,
0010
0001
0100
0010
1000
0100
0010
0001
,
0200
0010
0010
0310
,
2002
3003
0001
0100
0001
1000
0001
0010
,
0100
0001
0100
0010
0100
1000
0001
0000
,
2002
3003
1000
0010
1000
0001
1000
0000
,
0001
1000
0100
0010
0001
1000
0001
0000
,
2002
3003
0001
0100
0001
0100
0010
1000
,
0010
0100
0001
0010
0100
1000
0010
0000
,
2002
3003
1000
0010
1000
0010
0100
0001
,
0100
0010
1000
0100
0010
0001
0100
0000
,
2002
0000
0000
3003
,
0000
0000
0000
0000
;
#NOTES:
     dance-single:
     :
     Hard:
     14:
     :
0000
0000
0000
0000
,
0000
0000
0000
0000
,
0000
0000
0000
0000
,
0000
0000
0000
0000
,
2000
0000
0000
0000
0000
0000
3000
0010
,
1000
0000
0011
0010
0001
0000
1010
0010
,
1000
0001
0000
0101
0000
0011
0000
1001
,
0000
0001
0010
0100
0001
0100
0010
0100
,
1000
0001
0000
0101
0000
1001
0000
1000
,
0001
0000
1010
0010
1000
0000
0011
0010
,
0001
1000
0000
1100
0000
1010
0000
1001
,
0000
0001
1000
0000
0010
1000
0001
0002
,
0000
0000
0010
0000
0010
0000
0003
0000
0001
0010
0100
1000
0100
0000
0000
0000
,
1000
0001
0010
0100
0010
1000
0010
0002
,
1003
0000
0001
0000
0100
0000
0010
0000
0000
0000
1000
0100
0000
0000
0010
0100
,
0000
1000
0010
0100
0010
0001
0010
2000
,
3001
0100
0010
1000
0000
1000
0001
1000
,
1000
0001
0010
0100
0010
1000
0010
0002
,
1003
0000
0001
0000
0100
0000
0010
0000
0000
0000
1000
0100
0000
0000
0001
0100
,
0000
1000
0010
0000
0001
1000
0100
0200
,
0010
0000
0000
0000
0001
0000
0300
0000
0001
0100
0001
0000
1000
0001
1000
0000
,
0010
1000
0010
0000
0100
0000
0010
0000
1000
0000
0001
1000
0000
0000
2000
3000
,
0001
1000
0001
0000
0010
0000
0001
0000
0100
0000
0010
1000
0000
0000
2000
3000
,
0001
1000
0010
0100
0001
0010
0100
0020
,
0000
0031
0010
0100
2000
0001
3001
0000
,
1000
0010
1000
0000
0010
0000
0100
0000
0001
0000
0010
0001
0000
0000
0002
0003
,
1000
0001
1000
0000
0010
0000
0100
0000
0001
0000
0010
0001
0000
0000
2000
3000
,
0001
0010
0100
1000
0010
0100
0001
2000
,
0001
0000
0010
0000
0001
0000
3100
0010
,
0001
0000
1010
0010
1000
0000
0011
0010
,
0100
0001
0000
0101
0000
0110
0000
1001
,
0000
0001
0010
0100
0001
1000
0010
0100
,
1000
0001
0000
1100
0000
1001
0000
0001
,
1000
0000
0011
0010
0001
0000
1010
0010
,
0100
1000
0000
1100
0000
0110
0000
1001
,
0000
1000
0001
0000
0010
0001
1000
2000
,
0000
0000
0010
0000
0010
0000
3000
0000
0000
0000
1000
0001
2000
3000
0001
0000
,
1000
0000
0100
0000
0001
0000
0100
0000
1000
0100
1000
0000
0001
0000
1000
0000
,
0001
0000
0100
0000
1000
0000
0100
0000
0001
0100
0001
0000
1000
0000
0001
0000
,
1000
0000
0010
0000
0001
0000
0010
0000
1000
0010
1000
0000
0001
0000
1000
0000
,
0001
0000
0010
0000
1000
0000
0010
0000
0001
0010
0001
0000
1000
0000
0000
0000
,
1000
0000
0010
0000
0001
0000
1000
0000
0100
1000
0100
0000
0001
0000
1000
0000
,
0001
0000
0010
0000
1000
0000
0001
0000
0100
0001
0100
0000
1000
0000
0001
0000
,
1000
0000
0010
0000
0001
0000
1000
0000
0100
1000
0100
0000
0001
0000
2000
0000
,
0000
0000
0001
0000
0002
0000
3003
0000
1000
0100
1000
0000
0001
1000
0001
0000
,
2000
0000
0000
0001
0000
0000
0100
0000
0000
0100
0000
0000
0010
0000
0000
0000
,
3002
0000
0000
1000
0000
0000
0100
0000
0000
0100
0000
0000
0010
0000
0000
0000
,
2003
0000
0000
0010
0000
0000
0100
0000
0000
0100
0000
0000
0001
0000
0000
0000
,
3002
0000
0000
1000
0000
0000
0010
0000
0000
0010
0000
0000
0103
0000
0000
0000
,
0001
0000
0100
0000
1000
0000
0100
0000
0010
0100
0001
0000
1000
0000
0001
0000
,
1000
0000
0100
0000
0001
0000
0100
0000
0010
0100
1000
0000
0001
0000
1000
0000
,
2000
3200
0302
2003
3020
0032
0203
2300
,
3001
0000
0010
0100
0000
0001
2000
0000
0000
0000
3000
0000
0001
0100
0001
0100
,
0002
0000
1003
0010
0000
1000
0000
0020
0000
0000
0130
0000
0001
1000
0002
0000
,
1003
0000
0100
1000
0000
0001
0020
0000
0000
0000
0030
0000
0001
1000
0001
1000
,
0002
0000
0103
0000
0001
0000
0010
0200
0000
0000
1300
0000
0001
0000
0100
0000
,
0001
0000
0100
0020
0000
0000
0000
0000
1000
0000
0030
0000
1000
0010
1000
0010
,
2000
0000
3001
0100
0000
0001
0000
2000
0000
0000
3001
0000
0100
0001
0100
0000
,
0020
0030
1000
0002
0003
0010
0200
0000
0000
0300
0000
0000
0020
0000
0130
2000
,
0000
0000
3001
0000
0001
0000
0010
0000
0100
0000
0010
0000
1000
0000
0010
0001
,
0000
2000
0002
0000
0000
0000
0000
0000
0000
0000
0000
0000
3003
0000
0000
0000
,
0022
0000
0033
0000
0001
0010
0100
1000
0100
0000
0000
0000
1000
0000
0010
0000
,
0100
0001
0010
0100
2000
3001
0002
1003
,
0200
0000
0300
0000
1000
0100
0010
0001
0010
0000
0000
0000
0001
0000
0010
0000
,
0100
0000
1000
0000
0001
0000
1000
0000
0001
0010
0001
0010
0000
0100
1000
0000
,
2200
0000
3300
0000
1000
0100
0010
0001
0010
0000
0100
0000
0010
0000
0001
0000
,
1000
0001
1000
0010
0100
0001
1000
0001
,
0200
0000
0300
0000
0001
0010
0100
1000
0100
0000
1000
0000
0001
0000
1000
0000
,
0200
0000
0310
0000
0002
0000
1003
0000
0010
0100
0010
0100
0000
0001
1000
0000
,
2002
0000
0000
3003
,
0000
0000
0000
0000
;
#NOTES:
     dance-double:
     :
     Easy:
     7:
     :
00000000
00000000
00000000
00000000
,
00000000
00000000
00000000
00000000
,
00000000
00000000
00000000
00000000
,
00000000
00000000
00000000
00000000
,
00000000
00000000
00000000
00000000
,
00011000
00001000
00010000
00000010
,
00001000
00000001
00001000
00000000
,
00000001
00000010
00000100
00001000
,
00000100
00000100
00010000
00000000
,
00011000
00010000
00001000
00100000
,
00010000
10000000
00010000
00000000
,
10000000
00010000
01000000
00002000
,
00010000
00020000
00033000
00000000
,
00010000
00000100
00001000
00000000
,
00000010
00000100
00000001
00000000
,
00000010
00000000
00001000
00000000
,
00010000
00001000
00010000
00000000
,
00001000
01000000
00010000
00000000
,
00100000
01000000
10000000
00000000
,
00100000
00000000
00010000
00000000
,
00002000
00000000
00003000
00000000
,
00010000
00010000
00000010
00000010
,
00001000
00001000
00000001
00000001
,
00000100
00001000
00010000
00100000
,
10000000
00010000
00200000
00300000
,
00001000
00001000
00010000
00010000
,
00000010
00000010
00001000
00001000
,
00000001
00000100
00001000
00020000
,
00002000
00000000
00033000
00000000
,
00011000
00010000
00001000
00100000
,
00010000
10000000
00010000
00000000
,
10000000
00100000
01000000
00010000
,
01000000
01000000
00001000
00000000
,
00011000
00001000
00010000
00000010
,
00001000
00000001
00001000
00000000
,
00000001
00001000
00000100
00020000
,
00001000
00002000
00033000
00000000
,
00001000
00100000
00010000
00100000
,
01000000
00100000
00010000
00000000
,
10000000
00100000
01000000
00001000
,
00010000
00002000
00003000
00000000
,
00010000
00000010
00001000
00000010
,
00000100
00000010
00001000
00000000
,
00000001
00000010
00000100
00001000
,
00002000
00000002
00000000
00003003
,
00000002
00000000
00000000
00000000
,
00000023
00000000
00000000
00000000
,
00002030
00000000
00000000
00000000
,
00023000
00000000
00000000
00000000
,
00031000
00001000
00100000
00100000
,
00010000
00010000
10000000
10000000
,
00010000
00100000
00001000
00010000
,
00002000
00000000
00003000
00011000
,
00010000
00000010
00001000
00000001
,
00001000
00000100
00002000
00003000
,
00000001
00000010
00000001
00001000
,
00000010
00020000
00000000
00031000
,
00001000
00100000
00010000
10000000
,
00010000
00100000
00020000
00030000
,
10000000
00100000
01000000
00010000
,
20000000
00020000
30030000
00000000
,
20000000
31000000
02000000
03010000
,
00010000
00001000
00000010
00000001
,
00002000
00003010
00000020
00010030
,
00010000
00000010
00001000
00000000
,
00000002
00000103
00000200
00001300
,
00001000
00010000
00100000
10000000
,
00020000
10030000
20000000
30010000
,
00010000
00100000
00001000
00000000
,
00022000
00000000
00000000
00033000
,
00000000
00000000
00000000
00000000
;
#NOTES:
     dance-double:
     :
     Medium:
     11:
     :
00000000
00000000
00000000
00000000
,
00000000
00000000
00000000
00000000
,
00000000
00000000
00000000
00000000
,
00000000
00000000
00000000
00000000
,
00021000
00000000
00000000
00000000
00000000
00000000
00030000
00001000
,
00100000
00000000
00010000
10000000
00010000
00000000
10000000
00100000
,
10000000
00010000
00000000
01000000
00000000
00001000
00000000
00011000
,
00000000
00010000
00001000
00000000
00010010
00000000
00001010
00000000
,
00001000
00000010
00000000
00010000
00000000
00001000
00000000
00010000
,
00000010
00000000
00001000
00000001
00001000
00000000
00000001
00000010
,
00000001
00001000
00000000
00000100
00000000
00010000
00000000
00011000
,
00000000
00001000
00100000
00000000
00010000
10000000
00010000
00200000
,
00000000
00001000
00001000
00000000
00000000
00000000
00300000
00000000
,
00000000
00001000
00100000
00000000
00010000
00100000
00010000
20000000
,
30000000
01000000
00100000
00010000
00000000
00100000
00000000
00001000
,
00000000
00010000
00000010
00000000
00001000
00000010
00001000
00000002
,
00000003
00000100
00000010
00001000
00000000
00000010
00010000
00001000
,
00000000
00010000
00001000
00000000
01000000
00001000
01000000
00020000
,
00030000
01000000
00100000
10000000
00000000
00010000
00000000
00100000
,
00000000
00001000
00010000
00000000
00000010
00001000
00000010
00002000
,
00000001
00003010
00020010
00031000
,
00010000
00000000
00001000
00000000
01000000
00000000
00010000
00000000
10000000
00000000
00000000
00010000
00000000
00000000
00000000
00000000
,
00010000
00000000
01000000
00000000
00100000
00000000
10000000
00000000
01000000
00000000
00000000
00100000
00000000
00000000
00000000
00000000
,
00010000
00100000
00001000
00010000
00000010
00001000
00000010
00000020
,
00000000
00001030
00000010
00001000
00000002
00001000
00001003
00000000
,
00000001
00000000
00001000
00000000
00000100
00000000
00000010
00000000
00000001
00000000
00000000
00001000
00000000
00000000
00000000
00000000
,
00000010
00000000
00000100
00000000
00001000
00000000
00010000
00000000
00001000
00000000
00000000
00100000
00000000
00000000
00000000
00000000
,
00010000
00100000
01000000
10000000
00010000
01000000
00001000
00020000
,
00001000
00000000
00000010
00000000
00031000
00000000
00000000
00010000
,
00000010
00000000
00001000
00000001
00001000
00000000
00000001
00000010
,
00000001
00001000
00000000
00000100
00000000
00010000
00000000
00011000
,
00000000
00001000
00010000
00000000
00101000
00000000
00110000
00000000
,
00010000
00100000
00000000
00001000
00000000
00010000
00000000
00001000
,
00100000
00000000
00010000
10000000
00010000
00000000
10000000
00100000
,
10000000
00010000
00000000
01000000
00000000
00001000
00000000
00011000
,
00000000
00010000
00000010
00000000
00001000
00000001
00001000
00000020
,
00000000
00010030
00020000
00000000
00030000
00001000
00100000
00010000
,
10000000
01000000
00010000
00000000
00010000
01000000
10000000
00000000
,
00010000
01000000
10000000
01000000
00100000
01000000
00010000
00000000
,
10000000
00100000
00010000
00000000
00001000
00010000
00000010
00000000
,
00001000
00000010
00000001
00000010
00000100
00000010
00001000
00000000
,
00001000
00000100
00000001
00000000
00000001
00000100
00001000
00000000
,
00000001
00000100
00001000
00000100
00000010
00000100
00000001
00000000
,
00000001
00000010
00001000
00000000
00010000
00001000
00100000
00100000
,
00000000
00010000
20000000
00000000
00000000
00000000
30000000
00000000
,
00020000
00000000
00000000
10000000
00000000
00000000
01000000
00000000
,
02030000
00000000
00000000
00010000
00000000
00000000
00001000
00000000
,
03002000
00000000
00000000
00010000
00000000
00000000
00000010
00000000
,
00003020
00000000
00000000
00000100
00000000
00000000
00000031
00000000
,
00000001
00000100
00000010
00000000
00001000
00000100
00000010
00000000
,
00000001
00000010
00000100
00000000
00001000
00000010
00000100
00000000
,
00000001
00000010
00000100
00000010
00000001
00001000
00000010
00010000
,
00000010
00000000
00010000
00001000
00000000
00000000
00000000
00000000
,
00001000
00100000
00010000
10000000
01000000
00100000
00010000
00000000
,
00010000
10000000
00010000
00100000
01000000
10000000
00010000
00000000
,
00010000
10000000
00010000
01000000
00100000
10000000
00010000
00000000
,
10000000
00100000
01000000
00001000
00010000
00000100
00001000
00000000
,
00000010
00001000
00000100
00001000
00000100
00000010
00000001
00000000
,
00000001
00001000
00000010
00000200
00000000
00000301
00001000
00000000
,
00000010
00001000
00000100
00000010
00000001
00000100
00000010
00001000
,
00000010
00010000
00001000
00100000
00010000
10000000
00010000
00000000
,
20020000
30030000
00010000
01000000
00010000
10000000
00010000
00100000
,
01000000
00010000
01000000
00100000
01000000
10000000
00010000
00000000
,
20020000
30030000
10000000
00100000
10000000
00010000
10000000
00000000
,
00100000
10000000
00010000
01000000
00001000
00010000
00001000
00000000
,
00022000
00033000
00010000
00000010
00001000
00000001
00000010
00000001
,
00000010
00000100
00000001
00000100
00000010
00000100
00001000
00000000
,
00002002
00003003
00001000
00000010
00001000
00000010
00000100
00000001
,
00001000
00000010
00010000
00000010
00010000
00001000
00010000
00000000
,
00022000
00000000
00000000
00033000
,
00000000
00000000
00000000
00000000
;
#NOTES:
     dance-double:
     :
     Hard:
     14:
     :
00000000
00000000
00000000
00000000
,
00000000
00000000
00000000
00000000
,
00000000
00000000
00000000
00000000
,
00000000
00000000
00000000
00000000
,
00021000
00000000
00000000
00000000
00000000
00000000
00030000
00001000
,
00100000
00000000
00110000
00010000
10000000
00000000
10100000
00100000
,
10000000
00010000
00000000
01010000
00000000
01001000
00000000
00011000
,
00000000
00010000
00000100
00000010
00000100
00000001
00000100
00000010
,
00000001
00001000
00000000
00001010
00000000
00010010
00000000
00010000
,
00001000
00000000
00010010
00000010
00010000
00000000
00101000
00100000
,
00010000
10000000
00000000
10010000
00000000
00101000
00000000
00011000
,
00000000
00001000
00010000
00000000
00000010
00001000
00000001
00000002
,
00000000
00000000
00000010
00000000
00000010
00000000
00000003
00000000
00000001
00000010
00000100
00001000
00000100
00000000
00000000
00000000
,
00001000
00000001
00000010
00000100
00000010
00001000
00010000
00002000
,
00000000
00000000
00013000
00000000
00100000
00000000
01000000
00000000
00000000
00000000
00010000
01000000
00000000
00000000
10000000
01000000
,
00000000
00010000
10000000
01000000
00010000
00001000
00010000
00000020
,
00000000
00000130
00000001
00001000
00000000
00001000
00000010
00010000
,
00001000
00010000
00100000
10000000
00100000
01000000
00001000
00020000
,
00000000
00000000
00031000
00000000
00000010
00000000
00000100
00000000
00000000
00000000
00001000
00000100
00000000
00000000
00000001
00000100
,
00000000
00000010
00001000
00010000
00100000
10000000
00010000
00020000
,
00100000
00001000
00230000
00310000
,
10000000
00010000
10000000
00000000
01000000
00000000
00100000
00000000
00010000
00000000
10000000
00010000
00000000
00000000
20000000
30000000
,
00010000
10000000
00010000
00000000
00100000
00000000
00010000
00000000
01000000
00000000
00100000
10000000
00000000
00000000
00020000
00030000
,
10000000
01000000
00010000
00001000
00010000
00000100
00001000
00000002
,
00000000
00001003
00000010
00001000
00000002
00001000
00001003
00000000
,
00000001
00000010
00000001
00000000
00000010
00000000
00000100
00000000
00010000
00000000
00001000
00010000
00000000
00000000
00002000
00003000
,
00100000
00001000
00100000
00000000
00010000
00000000
01000000
00000000
00001000
00000000
00010000
00000100
00000000
00000000
00002000
00000000
,
00003001
00000010
00001000
00010000
00001000
00100000
00001000
00020000
,
00000010
00000000
00001000
00000000
00100000
00000000
00031000
00010000
,
00000010
00000000
00001010
00001000
00000001
00000000
00000011
00000010
,
00000001
00001000
00000000
00001100
00000000
00010100
00000000
00011000
,
00000000
00001000
01000000
00100000
01000000
10000000
01000000
00100000
,
10000000
00010000
00000000
00110000
00000000
00101000
00000000
00001000
,
00010000
00000000
00101000
00100000
00001000
00000000
00010010
00000010
,
00001000
00000001
00000000
00001001
00000000
00010010
00000000
00011000
,
00000000
00010000
00001000
00000000
00100000
00010000
10000000
20000000
,
00000000
00000000
00100000
00000000
00100000
00000000
30000000
00000000
00000000
00000000
10000000
00010000
20000000
00000000
30010000
00000000
,
10000000
00000000
01000000
00000000
00010000
00000000
01000000
00000000
10000000
01000000
10000000
00000000
00010000
00000000
10000000
00000000
,
00010000
00000000
01000000
00000000
10000000
00000000
01000000
00000000
00010000
01000000
00010000
00000000
10000000
00000000
00010000
00000000
,
10000000
00000000
00100000
00000000
00010000
00000000
00001000
00000000
00010000
00001000
00010000
00000000
00000100
00000000
00001000
00000000
,
00000001
00000000
00000010
00000000
00001000
00000000
00000010
00000000
00000001
00000010
00000001
00000000
00001000
00000000
00000000
00000000
,
00001000
00000000
00000010
00000000
00000001
00000000
00001000
00000000
00000100
00001000
00000100
00000000
00001000
00000000
00010000
00000000
,
00001000
00000000
00100000
00000000
00010000
00000000
10000000
00000000
00010000
01000000
00010000
00000000
10000000
00000000
00010000
00000000
,
10000000
00000000
00100000
00000000
00010000
00000000
10000000
00000000
01000000
10000000
01000000
00000000
00010000
00000000
20000000
00000000
,
00000000
00000000
00010000
00000000
00020000
00000000
30030000
00000000
10000000
00010000
10000000
00000000
00100000
10000000
00100000
00000000
,
20000000
00000000
00000000
00100000
00000000
00000000
00010000
00000000
00000000
00010000
00000000
00000000
01000000
00000000
00000000
00000000
,
32000000
00000000
00000000
10000000
00000000
00000000
00100000
00000000
00000000
00100000
00000000
00000000
00010000
00000000
00000000
00000000
,
03020000
00000000
00000000
01000000
00000000
00000000
00001000
00000000
00000000
00001000
00000000
00000000
00000100
00000000
00000000
00000000
,
00030200
00000000
00000000
00010000
00000000
00000000
00000010
00000000
00000000
00000010
00000000
00000000
00001300
00000000
00000000
00000000
,
00000001
00000000
00000100
00000000
00001000
00000000
00000100
00000000
00000010
00000100
00000001
00000000
00001000
00000000
00000001
00000000
,
00001000
00000000
00000100
00000000
00000001
00000000
00000100
00000000
00000010
00000100
00001000
00000000
00000001
00000000
00001000
00000000
,
00000002
00000023
00002030
00023000
00230000
20300000
32000000
03020000
,
00031000
00000000
00010000
00000010
00000000
00010000
00002000
00000000
00000000
00000000
00003000
00000000
00010000
00001000
00010000
00001000
,
00020000
00000000
00030010
00001000
00000000
00000001
00000000
00000020
00000000
00000000
00000130
00000000
00001000
00000100
00002000
00000000
,
00003001
00000000
00000100
00000001
00000000
00001000
00000020
00000000
00000000
00000000
00000030
00000000
00001000
00000001
00001000
00000001
,
00002000
00000000
00003010
00000000
00010000
00000000
00001000
00020000
00000000
00000000
00130000
00000000
10000000
00000000
00010000
00000000
,
10000000
00000000
01000000
00200000
00000000
00000000
00000000
00000000
00001000
00000000
00300000
00000000
00001000
00010000
00001000
00010000
,
00002000
00000000
00013000
00000200
00000000
00001300
00000000
00000002
00000000
00000000
00001003
00000000
00000010
00001000
00000010
00000000
,
00020000
00030000
00001000
00200000
00300000
00010000
20000000
00000000
00000000
30000000
00010000
00000000
00200000
00000000
01300000
20000000
,
00000000
00000000
30010000
00000000
00010000
00000000
00100000
00000000
01000000
00000000
00010000
00000000
00001000
00000000
00010000
00000010
,
00000000
00002000
00000002
00000000
00000000
00000000
00000000
00000000
00000000
00000000
00000000
00000000
00003003
00000000
00000000
00000000
,
00000022
00000000
00000033
00000000
00000001
00000010
00000100
00001000
00000100
00000000
00000000
00000000
00010000
00000000
00001000
00000000
,
00100000
00001000
00100000
00010000
20000000
30010000
00020000
10030000
,
02000000
00000000
03000000
00000000
10000000
01000000
00100000
00010000
00100000
00000000
00000000
00000000
00010000
00000000
00100000
00000000
,
01000000
00000000
10000000
00000000
00010000
00000000
10000000
00000000
00010000
00100000
00010000
00100000
00000000
01000000
10000000
00000000
,
22000000
00000000
33000000
00000000
10000000
01000000
00100000
00010000
00100000
00000000
00001000
00000000
00010000
00000000
00001000
00000000
,
00010000
00000100
00001000
00000010
00000100
00000001
00001000
00000001
,
00000020
00000000
00000030
00000000
00000001
00000010
00000100
00001000
00000100
00000000
00010000
00000000
00001000
00000000
00010000
00000000
,
00000020
00000000
00010030
00000000
00002000
00000000
00013000
00000000
00001000
00100000
00001000
00100000
00000000
00001000
00010000
00000000
,
00022000
00000000
00000000
00033000
,
00000000
00000000
00000000
00000000
;
