
//----- song ID: potk -----//
#TITLE:ポチコの幸せな日常;
#ARTIST:NU-KO;
#TITLETRANSLIT:Pochiko no shiawasena nichijou;
#BANNER:Pochiko no shiawasena nichijou.png;
#BACKGROUND:Pochiko no shiawasena nichijou-bg.png;
#CDTITLE:./CDTitles/pnm Sunny Park.png;
#MUSIC:Pochiko no shiawasena nichijou.ogg;
#SAMPLESTART:43.118;
#SAMPLELENGTH:15;
#BPMS:0=192;
#BGSTAGE:5;
#NOTES:
     dance-single:
     :
     Beginner:
     4:
     :
0000
0000
0000
0000
,
0000
0000
0000
0000
,
0000
0000
0000
0000
,
0000
0000
0000
0000
,
0000
0000
0000
0000
,
0000
0000
0000
0000
,
0000
0000
0000
0000
,
1000
0000
1000
0000
,
1000
0000
0000
0000
,
0001
0000
0001
0000
,
0001
0000
0000
0000
,
0010
0000
0000
0000
,
0010
0000
0000
0000
,
0100
0000
0000
0000
,
0000
0000
0000
0000
,
1000
0000
1000
0000
,
1000
0000
0000
0000
,
0001
0000
0001
0000
,
0001
0000
0000
0000
,
0100
0000
0000
0000
,
0100
0000
0000
0000
,
0010
0000
0000
0000
,
0000
0000
0000
0000
,
0000
0000
0000
0000
,
1000
0000
0001
0000
,
1000
0000
1000
0000
,
0001
0000
1000
0000
,
0001
0000
0001
0000
,
0010
0000
0100
0000
,
0010
0000
0010
0000
,
0000
0000
0000
0000
,
0001
0000
0000
0000
,
1000
0000
0000
0000
,
1001
0000
0000
0000
,
0000
0000
0000
0000
,
0001
0000
0001
0000
,
1000
0000
1000
0000
,
0010
0000
0000
0000
,
0100
0000
0000
0000
,
0001
0000
0001
0000
,
1000
0000
1000
0000
,
0100
0000
0000
0000
,
0100
0000
0000
0000
,
0010
0000
0000
0000
,
0010
0000
0000
0000
,
0001
0000
0001
0000
,
1000
0000
1000
0000
,
0001
0000
1000
0000
,
0001
0000
1000
0000
,
0010
0000
0100
0000
,
0010
0000
0000
0000
,
1000
0000
0000
0000
,
0000
0000
0000
0000
,
0001
0000
0000
0000
,
0000
0000
0000
0000
,
0010
0000
0000
0000
,
0000
0000
0000
0000
,
0100
0000
0000
0000
,
0000
0000
0000
0000
,
1000
0000
1000
0000
,
0100
0000
0100
0000
,
0010
0000
0010
0000
,
0001
0000
0001
0000
,
0100
0000
0000
0000
,
0100
0000
0000
0000
,
0010
0000
0000
0000
,
0010
0000
0000
0000
,
1001
0000
0000
0000
,
1001
0000
0000
0000
,
1000
0000
1000
0000
,
0001
0000
0001
0000
,
1000
0000
1000
0000
,
0001
0000
0001
0000
,
0010
0000
0010
0000
,
0010
0000
0010
0000
,
0200
0000
0300
0000
,
1000
0000
1000
0000
,
0001
0000
0001
0000
,
0100
0000
0000
0000
,
0010
0000
0000
0000
,
1000
0000
1000
0000
,
0001
0000
0001
0000
,
0010
0000
0000
0000
,
0010
0000
0000
0000
,
0010
0000
0010
0000
,
0010
0000
0010
0000
,
0020
0000
0030
0000
,
0001
0000
0001
0000
,
1000
0000
1000
0000
,
0100
0000
0000
0000
,
0100
0000
0000
0000
,
0100
0000
0000
0000
,
0100
0000
0100
0000
,
0100
0000
0100
0000
,
0000
0000
0000
0000
;
#NOTES:
     dance-single:
     :
     Easy:
     7:
     :
0000
0000
0000
0000
,
0000
0000
0000
0000
,
0000
0000
0000
0000
,
0000
0000
0000
0000
,
0000
0000
0000
0000
,
0000
0000
0000
0000
,
0000
0000
0000
0000
,
1000
0000
1000
0000
,
0001
0000
0001
0000
,
0010
0000
0010
0000
,
0100
0000
0100
0000
,
1000
1000
0001
0001
,
0010
0010
0100
0100
,
2000
0000
3001
0001
,
0020
0030
0200
0300
,
1000
1000
0001
0001
,
0100
0000
0100
0000
,
0010
0000
0100
0000
,
0010
0000
0100
0000
,
0010
0100
0010
0100
,
0001
1000
0001
1000
,
0001
0100
0010
1000
,
0000
0000
0000
0000
,
0000
0000
0000
0000
,
0110
0000
1001
0000
,
0110
0000
1001
0110
,
1001
0000
0110
0000
,
1001
0000
1001
1001
,
0110
0000
1001
0000
,
0110
0000
1001
0110
,
2002
0000
3003
0000
,
0001
0000
1000
0000
,
0010
0100
0010
0100
,
0020
0000
0000
0030
,
0100
0100
0001
1000
,
0010
0000
0010
0000
,
1000
0001
1000
0000
,
0001
0100
0001
1000
,
1100
0000
0011
0000
,
0001
1000
0001
0000
,
1000
0100
1000
0000
,
0010
1000
0001
0100
,
0101
0000
1010
0000
,
1000
0100
0010
0001
,
0011
0000
1100
0000
,
1000
0001
1000
0000
,
0010
0100
0010
0000
,
1000
0001
0100
0010
,
1000
0001
0100
0010
,
0110
0000
1001
0000
,
0001
1000
0001
0000
,
2000
0000
0000
0000
,
0000
0000
0000
3000
,
0002
0000
0000
0000
,
0000
0000
0000
0003
,
0020
0000
0000
0000
,
0000
0000
0000
0030
,
0100
0000
0100
0000
,
0100
0100
0100
0100
,
0020
0030
0002
0003
,
1000
0010
0100
0001
,
2000
3000
0200
0300
,
0010
0100
1000
0001
,
0100
0000
0100
0000
,
0010
0100
0010
0100
,
0001
0000
0001
0000
,
1000
0001
1000
0001
,
0110
0000
1001
0000
,
1000
0001
0000
0000
,
0000
0001
1000
0000
,
1000
0000
1000
0000
,
0001
0000
0001
0000
,
0100
0000
0100
0000
,
0010
0000
0010
0000
,
1000
0000
1000
0000
,
1100
0000
0100
0100
,
0010
0001
1000
0001
,
0100
0001
0010
0000
,
0001
0000
0000
0000
1000
0000
0000
0010
,
0000
0010
0000
0010
0000
0000
0000
0000
,
1000
1000
0001
0000
,
0010
0010
0100
0000
,
1000
0100
0010
0000
,
0100
0010
0001
0000
,
0001
1000
0010
0100
,
0002
0003
2000
3000
,
0010
0010
0010
0010
,
1000
0010
1000
0001
,
1000
0100
1000
0000
,
0001
0100
0001
0000
,
1000
0010
1000
0000
,
0010
0100
0010
0100
,
0000
0110
0000
0000
1001
0000
0000
0110
,
0000
1001
0000
0000
,
0000
0000
0000
0000
;
#NOTES:
     dance-single:
     :
     Medium:
     12:
     :
0000
0000
0000
0000
,
0000
0000
0000
0000
,
0000
0000
0000
0000
,
0000
0000
0000
0000
,
0000
0000
0000
0000
,
0000
0000
0000
0000
,
0000
0000
0000
0000
,
1000
0000
1000
0000
0001
0010
0001
0000
,
0100
0010
1010
0000
,
1000
0000
0100
0000
0010
0000
0001
0100
,
0000
0010
0100
0010
0000
0000
0010
1000
,
0020
1030
0020
0130
,
0020
0031
0110
1001
,
1000
0001
1000
0000
0010
0100
0010
0000
,
1000
0000
0001
0010
0000
0010
0001
0000
,
0100
0000
0100
0000
0010
0100
0010
0000
,
1000
0100
0110
0000
,
0010
0000
0001
0000
1000
0000
0001
0010
,
0000
0010
0100
0010
0000
0000
0001
0010
,
0002
1003
0002
0103
,
0002
0013
0011
1100
,
1000
0100
1000
0000
0010
1000
0010
1000
,
0000
0001
0001
0000
0000
0100
0100
0000
,
0000
0010
0010
0000
1000
0000
0001
0000
,
1000
0100
0001
0000
0100
1000
0010
0000
,
1000
0010
0001
0000
0001
0010
1000
0100
,
0001
0100
1000
0000
0010
1000
0100
0000
,
1000
0010
0001
0000
0110
0000
1001
0000
,
0001
0100
1000
0100
0001
0010
1000
0010
,
0001
0100
1000
0100
0001
0010
1000
0010
,
0002
0003
0000
2000
,
3001
0000
0000
1000
0001
0000
0000
0100
,
0010
0000
0100
0001
0000
1000
0000
0010
,
0200
1000
0010
0301
,
0010
0100
0010
0000
0001
1000
0001
1000
,
0000
0000
0000
0010
0100
0000
0100
0010
,
0000
1000
0000
0001
0000
0010
0000
0100
,
0000
1000
0010
0000
0010
1000
0000
0001
,
0000
0011
0000
0110
0000
1100
0000
1001
,
0000
1000
0001
0000
2000
0000
3100
0020
,
0000
0032
0000
0203
0000
0300
0000
0002
,
0000
1003
0100
0000
0100
0010
0100
0000
,
0110
0000
0001
2000
0000
3000
0000
0020
,
0000
0130
0001
0000
1000
0100
1000
0000
,
0011
0000
0001
0020
0000
0030
0000
0000
,
0011
1100
0011
1100
,
1000
0000
1000
0000
0010
0100
0000
0001
,
0000
0100
0010
0000
1000
0100
0010
0001
,
0000
0001
0100
0001
1000
0010
1000
0000
,
0101
0000
1010
0000
1000
0100
0001
0000
,
0100
0010
0100
0020
0000
0000
0030
0000
,
0002
0000
0000
0003
,
2000
0000
0000
3000
,
0200
0000
0000
0300
,
0020
0000
0000
0030
,
0200
0000
0000
0300
,
2000
0000
0000
3000
,
1001
0000
0110
0000
,
1001
0000
1010
0000
1000
0001
1000
0002
,
0000
0000
0023
0000
,
0130
0000
0010
0000
0001
0010
0001
0020
,
0000
0000
0230
1300
,
0100
1000
0100
2000
0000
0000
3000
0000
,
0001
0010
0100
0000
0010
0001
1000
0100
,
0010
0100
0110
1001
,
0001
1000
0010
0000
0010
1000
0001
0100
,
0000
0001
0000
0010
0000
0001
1000
0000
,
0020
1000
0100
0031
,
0010
0100
0010
0000
0000
0000
0000
0000
,
0000
1000
0100
0010
,
0011
0001
0101
0100
,
0110
0000
1001
0000
,
1000
0001
1000
0000
,
1100
0100
0110
0010
,
0011
0001
0100
0000
,
0210
0000
0000
0000
0001
0001
0301
0000
,
0100
0000
0010
0100
0010
0000
1000
0001
,
0000
0001
0100
1000
0000
0100
0000
0200
,
0000
0000
0310
0100
0010
0100
0010
0100
,
0000
0101
0000
1010
0000
1001
0000
1200
,
0000
0300
0000
0100
0010
0000
0010
0001
,
0000
0001
1000
0002
0000
0003
0000
1001
,
0000
0001
0100
0000
0200
0000
0310
0010
,
0000
1000
0100
1000
0200
0000
0300
0010
,
0000
0010
0001
0010
0001
0100
0001
0100
,
0020
0001
0100
1030
,
1010
0000
0000
1001
0000
0000
0101
0000
,
0011
0010
0110
0100
,
1000
0001
0100
0010
1000
0001
0000
0200
,
0000
0310
1000
0000
0001
0100
0000
0020
,
0000
0130
0001
0000
1000
0010
0000
2000
,
0000
3100
0010
0001
0100
0010
1000
0001
,
0000
0100
0010
0000
1000
0001
0000
0010
,
0100
0000
1000
0001
0000
0000
0000
0000
,
0000
0000
0000
0000
;
#NOTES:
     dance-single:
     :
     Hard:
     15:
     :
0000
0000
0000
0000
,
0000
0000
0000
0000
,
0000
0000
0000
0000
,
0000
0000
0000
0000
,
0000
0000
0000
0000
,
0000
0000
0000
0000
,
0000
0000
0000
0000
,
1001
0000
1001
0000
0001
1000
0010
0000
,
0010
1000
0100
0000
0110
0000
1001
0000
,
1000
0100
1000
1000
0001
0010
0001
0002
,
0000
0013
0100
1000
0000
0000
1000
0100
,
0002
0203
2300
3020
,
0032
0023
2030
3002
,
1003
0100
0001
0100
1000
0100
0001
0000
,
0100
0010
0001
1000
0000
1000
0001
0000
,
1001
0000
1001
0000
0001
0100
0010
0000
,
0100
0010
1000
0000
1001
0000
0011
0000
,
0010
0001
0100
0100
0010
1000
0100
0200
,
0000
0310
0001
1000
0000
0000
0001
0100
,
2000
3200
0302
0023
,
2030
3020
0032
2003
,
3001
0100
1000
0100
0001
0100
1000
0000
,
0100
0001
0001
0000
0010
0100
0100
0000
,
1000
0001
0001
0000
0110
0000
1001
0000
,
0001
0010
1000
0100
0001
0010
1000
0100
,
0001
0010
1000
0100
1000
0010
0001
0100
,
1000
0010
0001
0100
1000
0010
0001
0100
,
1000
0010
0001
0100
0110
0000
1001
0000
,
1000
0010
0001
1000
0010
0001
1000
0010
,
0001
1000
0010
0001
1000
0100
0001
0010
,
2000
0000
3000
0002
,
1003
0000
0000
1000
0001
0000
0000
0001
,
0010
0000
0100
1000
0000
0010
0000
0100
,
0001
1000
0001
1000
0001
1000
0001
1000
,
0010
0010
0010
0000
1000
1000
0001
0001
,
0000
0000
1000
0100
1000
0000
0001
0000
0010
0000
0001
0000
1000
0000
0100
0000
,
1000
0010
0100
0010
0000
0110
0000
1001
,
0000
0001
0100
1000
0100
0001
0100
1000
,
0000
1100
0000
0101
0000
0011
0000
1001
,
0000
0000
0001
0100
0001
0000
0010
0000
0001
0000
0001
0000
1000
0000
0200
0000
,
0000
0320
0000
0032
0000
1003
1000
0200
,
0000
0310
0100
0010
1000
0010
0001
0000
,
0011
0000
0001
0002
0000
0003
0000
0000
,
0010
0010
0000
0000
0100
0100
0000
0000
,
1000
0000
0100
0010
0000
0100
0010
0000
0001
0010
0000
0001
0010
0000
0001
1000
,
0001
1001
0110
1001
,
0001
0000
1000
0000
0010
0000
0100
0000
0001
1000
0001
0000
1000
0000
0002
0000
,
0000
0000
0013
0100
0010
0000
0001
0000
1000
0000
0100
0000
0001
0000
0100
0000
,
0000
1000
0010
0001
0010
1000
0100
0001
,
0101
0000
1100
0000
1000
0100
0010
0001
,
0010
0001
0100
0020
0000
0000
0030
0000
,
1000
0100
0010
0000
0010
0001
0010
0001
,
0100
0000
0000
0000
1010
0000
0000
0000
1000
0000
0001
0000
0000
0000
0001
0010
,
0001
0000
1100
0000
0100
1000
0100
1000
,
0000
0000
0000
0000
0011
0000
0000
0000
0010
0000
0000
0001
0000
0000
0010
0001
,
0010
0000
0000
0100
0000
0100
1000
0001
,
0000
0000
0001
0000
1000
0000
0010
0000
0100
0000
0000
0010
0000
0000
0100
0000
,
0001
0001
0001
0000
1000
1000
1000
0000
,
0010
0100
0010
0100
0010
0010
0010
0100
,
0000
0010
1000
0100
0010
0001
0100
0000
,
1000
0100
0010
0100
1000
0100
0010
0001
,
0000
0010
1000
0100
0010
0001
0100
0000
,
0010
0100
0001
0100
0010
0100
0001
0000
,
1000
0010
1000
0001
0100
0100
0001
0010
,
0000
0001
1000
0100
0010
1000
0001
0000
,
0100
0100
1000
0010
0001
0001
0010
1000
,
0000
1010
0000
1001
0000
1000
0001
0000
,
1000
0001
1000
0001
1000
0001
1000
0001
,
0100
0100
0100
0000
0000
0000
0000
0000
,
0000
0000
0000
0110
0000
0000
1001
0000
0000
1000
0000
0100
,
0010
0000
0010
0001
0000
0001
0100
0000
0000
0010
0000
0000
,
1010
0000
0000
0110
0000
0000
0101
0000
0000
0000
0000
0001
,
0000
0000
1000
0000
0000
0100
0010
0100
0010
0100
0000
0010
,
0001
0011
1100
0000
,
1100
1001
0011
0000
,
1001
0000
0000
0000
0000
0000
0000
0000
1000
0100
1000
0100
1000
0100
1000
0100
,
1000
0100
1000
0100
0010
0001
0010
0001
,
0100
0010
0100
0010
0000
0010
1000
0020
,
0000
0000
0130
0001
0010
0001
0100
0001
,
0000
0101
0000
1001
0000
0011
0000
1100
,
0000
0000
1000
0100
1000
0000
0100
0000
1000
0000
0100
0000
0010
0000
0001
0000
,
0000
0100
0010
0002
0000
0003
0000
2000
,
0000
3100
0001
0010
2000
3000
1000
2000
,
0000
3010
0001
0100
2000
0000
3000
1100
,
0000
0100
1000
0100
0010
0100
0001
0100
,
0010
1000
0010
1000
0001
0100
0001
0100
,
0001
1000
0001
1000
0001
0000
0100
0010
0100
0010
0100
0000
0010
1000
0010
0000
,
1010
0101
0110
1001
,
0001
0100
1000
1000
0100
0001
0000
0002
,
0000
0013
0100
0001
0100
1000
0000
2000
,
0000
3100
0010
1000
0010
0001
0000
0002
,
0000
0013
1000
0010
0100
0010
0001
0010
,
0000
0001
0001
0000
1000
1000
0000
0001
,
0001
0000
1000
1000
0000
0000
0000
0000
,
0000
0000
0000
0000
;
#NOTES:
     dance-double:
     :
     Easy:
     8:
     :
00000000
00000000
00000000
00000000
,
00000000
00000000
00000000
00000000
,
00000000
00000000
00000000
00000000
,
00000000
00000000
00000000
00000000
,
00000000
00000000
00000000
00000000
,
00000000
00000000
00000000
00000000
,
00000000
00000000
00000000
00000000
,
00001000
00000000
00001000
00000000
,
00010000
00000000
00010000
00000000
,
00000010
00000000
00000010
00000000
,
00000100
00000000
00000100
00000000
,
00000001
00000001
00000010
00000010
,
00000100
00000100
00010000
00010000
,
00002000
00000000
00103000
00100000
,
00020000
00030000
02000000
03000000
,
00100000
00100000
10000000
10000000
,
01000000
00000000
01000000
00000000
,
00010000
00000000
00010000
00000000
,
00001000
00000000
00001000
00000000
,
00000010
00000010
00000010
00000000
,
00000100
00000100
00000100
00000000
,
00001000
00000000
00000001
00000010
,
00000000
00000000
00000000
00000000
,
00000000
00000000
00000000
00000000
,
00000010
00000001
00000100
00001000
,
00010000
00100000
10000000
01000000
,
00010000
00001000
00000010
00000001
,
00000100
00001000
00001000
00010000
,
00010000
00100000
10000000
01000000
,
00010000
00001000
00000010
00000001
,
00000200
00000000
00000300
00000000
,
00000110
00000000
00001001
00000000
,
00000011
00000000
00001100
00000000
,
00001000
00000100
00000010
00000100
,
00010000
00010000
00001000
00100000
,
00010000
00000000
00010000
00000000
,
10000000
00000000
10000000
00000000
,
00010000
00000000
01000000
00000000
00010000
00000000
00000000
00100000
,
00000000
00100000
00000000
01000000
00000000
01000000
00000000
00000000
,
10000000
01000000
00100000
00000000
,
01000000
00100000
00010000
00000000
,
00100000
00010000
01000000
00001000
,
00010000
00000000
00000000
00001000
00000000
00000000
00000000
00000000
,
00001000
00010000
00000010
00001000
,
00000100
00000000
00000000
00000100
00000000
00000000
00000000
00000000
,
00001000
00000100
00001000
00000000
,
00000001
00000010
00000001
00000000
,
00000011
00000000
00000110
00000000
,
00001100
00000000
00010100
00000000
,
00011000
00000000
00101000
00000000
,
00100000
00010000
00100000
00000000
,
02000000
00000000
00000000
00000000
,
00000000
00000000
00000000
03000000
,
00020000
00000000
00000000
00000000
,
00000000
00000000
00000000
00030000
,
00002000
00000000
00000000
00000000
,
00000000
00000000
00000000
00003000
,
00000010
00000000
00000010
00000000
,
00000010
00000010
00000010
00000010
,
00000002
00000003
00002000
00003000
,
00000100
00000010
00000100
00001000
,
00000020
00000030
00020000
00030000
,
00001000
00010000
00001000
01000000
,
00100000
00000000
00100000
00000000
,
00100000
01000000
00100000
01000000
,
00010000
00000000
00010000
00000000
,
10000000
00010000
10000000
00010000
,
01100000
00000000
10010000
00000000
,
10000000
00010000
00000000
00000000
,
00000000
10000000
00010000
00000000
,
00010000
00000000
01000000
00000000
,
00001000
00000000
00001000
00000000
,
00010000
00000000
00010000
00000000
,
00000100
00000000
00000100
00000000
,
00000010
00000000
00000010
00000000
,
00000011
00000000
00000001
00000001
,
00000100
00000010
00000100
00001000
,
00000100
00000001
00000010
00000000
,
00000010
00000000
00000000
00000000
00000100
00000000
00000000
00010000
,
00000000
00010000
00000000
00010000
00000000
00000000
00000000
00000000
,
00011000
00000000
00101000
00000000
,
00110000
00000000
01100000
00000000
,
01000000
00100000
00010000
00000000
,
01000000
00100000
00010000
00000000
,
00001000
00010000
00001000
00010000
,
00000020
00000030
00000200
00000300
,
00000001
00000001
00000001
00000001
,
00001000
00000100
00010000
00001000
,
00100000
00010000
01000000
00000000
,
00010000
00100000
00010000
00000000
,
01000000
00001000
00010000
00000000
,
00010000
00001000
00000010
00000100
,
00000000
00000110
00000000
00000000
00001001
00000000
00000000
00000110
,
00000000
00001001
00000000
00000000
,
00000000
00000000
00000000
00000000
;
#NOTES:
     dance-double:
     :
     Medium:
     12:
     :
00000000
00000000
00000000
00000000
,
00000000
00000000
00000000
00000000
,
00000000
00000000
00000000
00000000
,
00000000
00000000
00000000
00000000
,
00000000
00000000
00000000
00000000
,
00000000
00000000
00000000
00000000
,
00000000
00000000
00000000
00000000
,
00001000
00000000
00001000
00000000
00010000
00001000
00010000
00000000
,
00001000
00100000
00110000
00000000
,
00100000
00000000
01000000
00000000
00010000
00000000
00001000
00000010
,
00000000
00000100
00000010
00000100
00000000
00000000
00000010
00000001
,
00000020
00000130
00000200
00010300
,
00020000
00031000
00011000
00011000
,
00001000
00010000
00100000
00000000
10000000
00010000
10000000
00000000
,
01000000
00100000
10010000
00000000
,
00010000
00000000
00010000
00000000
10000000
00010000
10000000
00000000
,
01000000
00010000
00011000
00000000
,
00010000
00000000
00001000
00000000
00000010
00000000
00000100
00000010
,
00000000
00000001
00001000
00000001
00000000
00000000
00000010
00000001
,
00000020
00001030
00000020
00000031
,
00000200
00001300
00011000
00011000
,
00010000
00100000
00010000
00000000
00010000
00000100
00010000
00000100
,
00000000
00010000
00010000
00000000
00000000
00000100
00000100
00000000
,
00000000
00000010
00000010
00000000
00000001
00000000
00001000
00000000
,
00000001
00000100
00001000
00000000
00010000
00100000
10000000
00000000
,
01000000
00010000
00001000
00000000
00000010
00000001
00000100
00001000
,
00010000
00100000
10000000
00000000
01000000
00010000
00001000
00000000
,
00000010
00000001
00000100
00000000
00000101
00000000
00000110
00000000
,
00000100
00001000
00010000
00000000
00100000
10000000
01000000
00000000
,
00010000
00001000
00000010
00000000
00001000
00000010
00000001
00000100
,
00002000
00003000
00000000
00020000
,
00031000
00000000
00000000
00010000
00001000
00000000
00000000
00010000
,
00001000
00000000
00100000
00010000
00000000
10000000
00000000
00100000
,
02000000
10000000
00100000
03001000
,
00010000
00001000
00010000
00000000
00010000
00001000
00010000
00001000
,
00000000
00000000
00000000
00010000
00000100
00000000
00000100
00010000
,
00000000
00001000
00000000
00100000
00000000
00001000
00000000
00010000
,
00000000
01000000
10000000
00000000
10000000
01000000
00000000
00100000
,
00000000
00110000
00000000
11000000
00000000
01100000
00000000
10010000
,
00000000
10000000
00010000
00000000
20000000
00000000
31000000
00200000
,
00000000
00320000
00000000
02030000
00000000
03000000
00000000
00002000
,
00000000
00013000
00001000
00000000
00000010
00000100
00000010
00000000
,
00000110
00000000
00000001
00002000
00000000
00003000
00000000
00000002
,
00000000
00000103
00001000
00000000
00010000
00001000
00010000
00000000
,
00101000
00000000
01000000
00200000
00000000
00300000
00000000
00000000
,
10010000
01100000
10010000
00110000
,
00100000
00000000
00100000
00000000
01000000
00010000
00000000
00001000
,
00000000
00010000
00001000
00000000
00000010
00000000
00000010
00000100
,
00000000
00010000
00001000
00000000
00100000
00010000
10000000
01000000
,
00100000
00010000
10000000
00100000
,
10000000
01000000
10000000
02000000
00000000
00000000
03000000
00000000
,
00020000
00000000
00000000
00030000
,
00002000
00000000
00000000
00003000
,
00000200
00000000
00000000
00000300
,
00000020
00000000
00000000
00000030
,
00002000
00000000
00000000
00003000
,
00000002
00000000
00000000
00000003
,
00000110
00000000
00001001
00000000
,
00000001
00000000
00000100
00000000
00001000
00010000
00001000
00020000
,
00000000
00000000
00032000
00000000
,
00013000
00000000
01000000
00000000
10000000
00000000
00100000
00020000
,
00000000
00000000
00032000
00003010
,
00000001
00000100
00000001
00000200
00000000
00000000
00000300
00000000
,
00000010
00000000
00001000
00000000
00000100
00000000
00010000
00001000
,
00010000
01000000
01100000
00000000
,
01000000
00000000
00100000
00000000
00010000
00000000
10000000
01000000
,
00000000
00010000
00000000
00001000
00000000
00000010
00000100
00000000
,
00000020
00000001
00000100
00001030
,
00010000
00001000
00010000
00000000
00000000
00000000
00000000
00000000
,
00000000
00010000
00001000
00010000
,
00010100
00000100
00000110
00000000
,
00000011
00000000
00001100
00000000
,
00001000
00000001
00001000
00000000
,
00001100
00000000
00010100
00000000
,
00011000
00001000
00100000
00000000
,
02100000
00000000
00000000
00000000
10000000
10000000
13000000
00000000
,
01000000
00000000
00010000
00001000
00010000
00000000
00001000
00010000
,
00000000
00001000
00000100
00000001
00000000
00000010
00000000
00000020
,
00000000
00000000
00000000
00000000
00000130
00000000
00000010
00000100
,
00000000
00000110
00000000
00001001
00000000
00001100
00000000
00020100
,
00000000
00030000
00000000
00010000
00001000
00000000
00010000
00001000
,
00000000
00100000
00010000
00200000
00000000
00300000
00000000
00100000
,
00000000
00010000
10000000
00000000
00020000
00000000
00030000
01000000
,
00000000
00001000
00010000
00001000
00020000
00000000
00030000
00000100
,
00000000
00000010
00000001
00000000
00000001
00000000
00000001
00000000
,
00000020
00000001
00000100
00001030
,
00011000
00000000
00000000
00011000
00000000
00000000
00011000
00000000
,
00101000
00100000
01100000
01000000
,
10000000
01000000
00010000
00000000
00010000
01000000
00000000
00200000
,
00000000
00000000
00301000
00000000
00010000
00000100
00000000
00000020
,
00000000
00000000
00000130
00000000
00010000
00001000
00000000
02000000
,
00000000
00000000
03010000
00000000
00100000
01000000
00100000
01000000
,
00000000
00010000
00001000
00000000
00010000
00001000
00000000
00010000
,
00001000
00000000
00010000
00001000
00000000
00000000
00000000
00000000
,
00000000
00000000
00000000
00000000
;
#NOTES:
     dance-double:
     :
     Hard:
     14:
     :
00000000
00000000
00000000
00000000
,
00000000
00000000
00000000
00000000
,
00000000
00000000
00000000
00000000
,
00000000
00000000
00000000
00000000
,
00000000
00000000
00000000
00000000
,
00000000
00000000
00000000
00000000
,
00000000
00000000
00000000
00000000
,
00011000
00000000
00011000
00000000
00010000
00001000
00010000
00000000
,
00001000
00010000
00100000
00000000
00110000
00000000
10100000
00000000
,
10000000
01000000
10000000
00000000
00100000
01000000
00100000
00020000
,
00000000
00031000
00010000
01000000
00000000
00000000
10000000
00100000
,
00020000
00230000
02300000
03002000
,
00023000
00030020
00000230
00000300
,
00000001
00000100
00001000
00000100
00000001
00000100
00001000
00000000
,
00000100
00000001
00000010
00000100
00000000
00000010
00000001
00000000
,
00001001
00000000
00001001
00000000
00001000
00000001
00001000
00000000
,
00000001
00000100
00000010
00000000
00000100
00000010
00010000
00000000
,
00001000
00010000
00001000
00000000
00100000
00010000
01000000
20000000
,
00000000
31000000
00010000
00100000
00000000
00000000
00100000
00010000
,
20000000
32000000
03200000
00320000
,
00032000
00003200
00000320
00000030
,
00000010
00001000
00010000
00001000
00000010
00000001
00000010
00000000
,
00000010
00000100
00000100
00000000
00000001
00000100
00000100
00000000
,
00001000
00000010
00000010
00000000
00000110
00000000
00001001
00000000
,
00000001
00000010
00001000
00010000
01000000
10000000
00100000
00010000
,
00001000
00000100
00000001
00000010
00000001
00000100
00001000
00010000
,
00100000
10000000
01000000
00010000
00001000
00000100
00000001
00000010
,
00001000
00010000
00100000
10000000
01000000
00000000
01000000
00000000
,
10000000
01000000
00010000
00001000
00000100
00000001
00000010
00001000
,
00010000
00100000
10000000
01000000
00010000
01000000
10000000
00100000
,
00020000
00000000
00030000
00002000
,
00013000
00000000
00000000
00100000
00010000
00000000
00000000
00001000
,
00000010
00000000
00001000
00010000
00000000
00100000
00000000
10000000
,
01000000
00100000
01000000
00100000
01000000
00100000
01000000
00100000
,
00001000
00010000
00001000
00000000
00001000
00010000
00001000
00010000
,
00000000
00011000
00000000
00010000
00000100
00000000
00000100
00000010
,
00000000
00000010
00000001
00000100
00000000
00000001
00000000
00000011
,
00000000
00000001
00000100
00001000
00000100
00000001
00000100
00001000
,
00000000
00011000
00000000
00101000
00000000
00110000
00000000
10010000
,
00000000
10000000
00010000
00000000
20000000
00000000
31000000
00200000
,
00000000
00320000
00000000
02030000
00000000
03000000
00000000
00002000
,
00000000
00013000
00001000
00010000
00000010
00000100
00000010
00000000
,
00000110
00000000
00000001
00002000
00000000
00003000
00000000
00000000
,
00000010
00000010
00000000
00000000
00000100
00000100
00000000
00000000
,
00001000
00000000
00010000
00001000
00000000
00010000
00001000
00000000
00010000
00001000
00000000
00010000
00001000
00000000
00010000
00001000
,
00010000
00011000
00101000
01100000
,
00100000
01000000
00100000
00001000
00010000
01000000
00010000
00001000
,
00000000
00000010
00000001
00000000
00000010
00000100
00000010
00000100
,
00000000
00001000
00000100
00001000
00000001
00000010
00000001
00001000
,
00000100
00000000
00010000
00000000
00001000
00100000
00010000
00000000
,
00100000
00001000
00010000
00002000
00000000
00000000
00003000
00000000
,
00020000
00000000
00032000
00000000
00003010
00000001
00000010
00000001
,
00000100
00000000
00000100
00000000
00001000
00010000
00001000
00010000
,
00001000
00000000
00010000
00000000
00100000
10000000
00100000
10000000
,
00000000
00000000
00000000
00000000
10010000
00000000
00000000
00000000
10000000
00000000
00000000
01000000
00000000
00000000
10000000
00000000
,
01000000
00000000
00010000
00000000
00001000
00000010
00000001
00000010
,
00000001
00000000
00000000
00000000
00000100
00000000
00000000
00000000
00001000
00000000
00000000
00010000
00000000
00000000
00001000
00000000
,
00010000
00010000
01000000
00000000
10000000
10000000
00100000
00000000
,
00010000
00001000
00010000
00001000
00000010
00000010
00000100
00000100
,
00000000
00000001
00000100
00001000
00000001
00000010
00001000
00000000
,
00010000
00001000
00000100
00001000
00010000
00001000
00000100
00001000
,
00000000
00010000
01000000
10000000
00010000
00100000
10000000
00000000
,
00100000
00010000
01000000
00010000
00100000
00010000
01000000
00010000
,
10000000
01000000
10000000
00100000
00010000
00001000
00010000
00001000
,
00000000
00000010
00000001
00000100
00000010
00001000
00000100
00000000
,
00001000
00001000
00000010
00000100
00000100
00000001
00000010
00000100
,
00000000
00000110
00000000
00010100
00000000
00010000
00000100
00000000
,
00010000
00001000
00010000
00001000
00010000
00001000
00010000
00001000
,
00100000
00100000
00100000
00000000
00000000
00000000
00000000
00000000
,
00000000
00000000
00000000
00010000
00000000
00000000
00100000
00000000
00000000
01000000
00000000
10000000
,
00100000
00000000
00100000
00010000
00000000
00010000
00001000
00000000
00000000
00000010
00000000
00000000
,
00000011
00000000
00000000
00000110
00000000
00000000
00001100
00000000
00000000
00000000
00000000
00001000
,
00000000
00000000
00000001
00000000
00000000
00000100
00001000
00000100
00001000
00000100
00000000
00000100
,
00000010
00010000
00011000
00000000
,
00101000
00100000
01000000
00000000
,
10010000
00000000
00000000
00000000
10000000
10000000
10000000
10000000
,
01000000
00000000
00000000
00010000
00001000
00010000
00000100
00000010
,
00000100
00000010
00000001
00000010
00000000
00000010
00000001
00000020
,
00000000
00000000
00000130
00001000
00000100
00010000
00001000
00010000
,
00000000
00011000
00000000
00101000
00000000
01010000
00000000
20100000
,
00000000
30000000
00000000
00100000
00010000
00000000
00100000
10000000
,
00000000
10000000
01000000
00020000
00000000
00030000
00000000
00002000
,
00000000
00003010
00000001
00000100
00002000
00003000
00001000
00020000
,
00000000
00130000
10000000
01000000
00020000
00000000
00030000
00011000
,
00000000
00010000
00001000
00010000
00000100
00010000
00001000
00010000
,
00001000
00100000
00001000
00010000
00001000
01000000
00001000
00010000
,
00001000
00001000
00010000
00001000
00001000
00010000
00001000
00010000
,
00001000
00101000
00100000
01100000
,
01000000
10000000
00100000
00010000
00001000
00000100
00000000
00000002
,
00000000
00000103
00001000
00010000
01000000
10000000
00000000
20000000
,
00000000
30100000
00010000
00001000
00000010
00000001
00000000
00000002
,
00000000
00000103
00001000
00010000
00001000
00000100
00001000
00010000
,
00000000
00001000
00001000
00000000
00010000
00010000
00000000
00001000
,
00001000
00000000
00010000
00010000
00000000
00000000
00000000
00000000
,
00000000
00000000
00000000
00000000
;
