
//----- song ID: orpu -----//
#TITLE:Origin Pulsation;
#ARTIST:Alkome;
#BANNER:Origin Pulsation.png;
#BACKGROUND:Origin Pulsation-bg.png;
#CDTITLE:./CDTitles/DDR WORLD.png;
#MUSIC:Origin Pulsation.ogg;
#SAMPLESTART:25.412;
#SAMPLELENGTH:15;
#BPMS:0=170;
#BGSTAGE:14;
#NOTES:
     dance-single:
     :
     Beginner:
     3:
     :
0000
0000
0000
0000
,
0000
0000
0000
0000
,
0000
0000
0000
0000
,
0000
0000
0000
0000
,
0000
0000
0000
0000
,
0000
0000
0000
0000
,
0001
0000
0000
0000
,
0010
0000
0000
0000
,
0100
0000
0000
0000
,
0000
0000
0000
0000
,
0001
0000
0001
0000
,
0100
0000
0000
0000
,
0010
0000
0010
0000
,
0100
0000
0000
0000
,
1000
0000
1000
0000
,
0100
0000
0000
0000
,
0010
0000
0010
0000
,
0100
0000
0000
0000
,
1001
0000
0000
0000
,
0001
0000
0010
0000
,
0001
0000
0000
0000
,
0100
0000
0000
0000
,
1001
0000
0000
0000
,
1000
0000
0010
0000
,
1000
0000
0000
0000
,
0100
0000
0000
0000
,
2000
0000
0000
0000
,
3000
0000
0000
0000
,
0200
0000
0000
0000
,
0300
0000
0000
0000
,
0020
0000
0000
0000
,
0030
0000
0000
0000
,
0002
0000
0000
0000
,
0003
0000
0000
0000
,
1001
0000
0000
0000
,
0000
0000
0000
0000
,
0001
0000
0001
0000
,
0010
0000
0000
0000
,
0010
0000
0010
0000
,
0100
0000
0000
0000
,
0100
0000
0100
0000
,
1000
0000
0000
0000
,
1001
0000
0000
0000
,
0000
0000
0000
0000
,
1000
0000
0000
0000
,
0100
0000
0000
0000
,
0001
0000
0000
0000
,
0000
0000
0000
0000
,
0001
0000
0000
0000
,
0010
0000
0000
0000
,
1000
0000
0000
0000
,
1000
0000
1000
0000
,
0010
0000
0000
0000
,
0100
0000
0000
0000
,
0000
0000
0000
0000
,
0001
0000
0001
0000
,
0010
0000
0000
0000
,
0100
0000
0000
0000
,
0001
0001
0100
0000
,
0001
0000
0000
0000
,
0020
0000
0000
0000
,
0030
0000
0000
0000
,
1000
1000
0100
0000
,
1000
0000
0000
0000
,
0020
0000
0000
0000
,
0030
0000
0000
0000
,
0001
0000
0010
0000
,
0100
0000
0000
0000
,
0010
0000
0100
0000
,
1000
0000
0000
0000
,
1000
0000
0010
0000
,
0100
0000
0000
0000
,
0010
0000
0100
0000
,
0001
0000
0000
0000
,
0001
0000
0010
0000
,
0001
0001
0010
0000
,
0200
0000
0000
0000
,
0300
0000
0000
0000
,
1000
0000
0010
0000
,
1000
1000
0010
0000
,
0200
0000
0000
0000
,
0300
0000
0000
0000
,
1001
0000
0000
0000
,
0010
0000
0100
0000
,
1001
0000
0000
0000
,
0010
0000
0100
0000
,
1001
0000
0000
0000
,
0000
0000
0000
0000
;
#NOTES:
     dance-single:
     :
     Easy:
     6:
     :
0000
0000
0000
0000
,
0000
0000
0000
0000
,
0000
0000
0000
0000
,
0000
0000
0000
0000
,
0000
0000
0000
0000
,
0000
0000
0000
0000
,
1000
0100
1000
0000
,
1000
0010
1000
0000
,
0001
0010
0001
0100
,
0001
0001
0001
0000
,
1000
0010
1000
0010
,
0100
0001
0100
0000
,
0001
0010
0001
0010
,
0100
1000
0100
0000
,
1000
0001
0100
0010
,
1000
0001
0100
0000
,
0001
1000
0100
0010
,
0001
0000
0000
0000
,
1001
0000
0110
0000
,
1000
0010
0100
0000
,
1001
0000
0110
0000
,
0001
0010
0100
0000
,
0110
0000
1001
0000
,
0001
1000
0010
0000
,
0110
0000
1001
0000
,
1000
0001
0010
0000
,
0002
0000
0000
0003
,
0100
0001
0100
0001
,
2000
0000
0000
3000
,
0100
1000
0100
1000
,
0002
0000
0000
0003
,
0010
0001
0010
0001
,
0200
0000
0000
0300
,
0110
0000
0000
0000
,
1000
1000
0001
0001
,
1000
0001
1000
1001
,
0010
0010
0100
0100
,
0010
0100
0010
0110
,
0001
0001
1000
1000
,
0001
1000
0001
1001
,
1000
0100
0010
0001
,
2000
0000
0000
3000
,
1001
0000
0001
0100
,
0010
0000
1000
0100
,
0010
0000
0001
1000
,
0010
0010
0010
0000
,
1001
0000
1000
0100
,
0010
0000
0001
0100
,
0010
0000
1000
0001
,
0010
0010
0010
0000
,
0001
1000
0100
0010
,
0100
1000
0001
0001
,
1000
0001
0100
0010
,
1000
0001
1000
0000
,
0001
0010
0001
0010
,
0001
1000
0001
1000
,
0001
0100
0001
0100
,
0110
0000
0000
0000
,
1000
0100
0001
0000
,
0001
0100
1000
0000
,
1000
0100
0010
0001
,
1000
1000
1000
0000
,
0001
0100
1000
0000
,
1000
0100
0001
0000
,
0001
0100
0010
1000
,
0001
0001
0001
0000
,
1000
0010
0100
0010
,
1000
0001
1000
0000
,
0001
0010
0100
0010
,
0001
1000
0001
0000
,
1000
0010
0100
0001
,
0010
0100
1000
0000
,
0001
0010
0100
1000
,
0002
0000
0000
0003
,
1001
0000
0110
0000
,
0001
1000
0010
0100
,
0110
0000
1001
0000
,
1000
0010
0100
0000
,
1001
0000
0110
0000
,
1000
0001
0100
0010
,
0110
0000
1001
0000
,
0001
0100
0010
0000
,
2000
0000
0000
3000
,
0020
0000
0000
0030
,
0200
0000
0000
0300
,
0002
0000
0000
0003
,
1001
0000
0000
0000
,
0000
0000
0000
0000
;
#NOTES:
     dance-single:
     :
     Medium:
     11:
     :
0000
0000
0000
0000
,
0000
0000
0000
0000
,
0000
0000
0000
0000
,
0000
0000
0000
0000
,
0000
0000
0000
0000
,
0000
0000
0000
0000
,
2000
0000
0000
0000
3000
0000
0000
0000
0010
0000
0000
0010
0000
0000
0000
0000
,
0200
0000
0000
0000
0300
0000
0000
0000
0001
0000
0000
0001
0000
0000
0000
0000
,
1000
0100
0001
0100
,
1000
0000
0010
0000
1000
0000
0000
0000
0001
0000
0000
0100
0000
0000
0001
0000
,
1000
0000
0010
0000
0100
0001
1000
0001
,
0100
0000
0010
0000
1000
0001
1000
0000
,
0001
0000
0001
0000
0010
0100
0010
0000
,
0100
1000
0001
0000
0100
0000
0000
0000
,
0001
0000
0100
0000
0010
1000
0001
1000
,
0010
0000
0100
0000
0001
1000
0001
0000
,
1000
0000
1000
0000
0100
0010
0100
0000
,
0110
0000
0000
0000
,
0001
0000
1000
0100
1000
0100
0010
0000
,
0001
0100
0001
0100
0010
0000
0000
0000
,
1001
0000
0001
0010
0001
0010
0100
0000
,
1000
0010
1000
0000
0001
0100
0001
0000
,
1001
0000
1000
0100
0010
0100
1000
0000
,
0001
0010
0001
0100
0001
0000
0000
0000
,
1001
0000
1000
0100
0001
0100
1000
0000
,
0001
0000
0010
0000
1000
0010
0001
0000
,
2000
0000
3100
0000
0010
0000
0001
1000
,
0001
0100
0000
0100
1000
0100
0001
0000
,
2000
3010
0100
0001
,
0010
0100
1000
0000
0010
0000
1001
0000
,
0002
0000
0013
0000
0100
0000
1000
0001
,
1000
0010
0001
0000
0001
0010
1000
0000
,
0002
0000
0103
0000
0010
1000
0001
0000
,
2002
0000
0000
3003
,
0001
0001
0001
0000
1000
0000
1000
0000
,
0010
0010
0010
0000
0100
0000
1001
0000
,
1000
0100
0010
0000
0100
0010
0001
0000
,
1000
0100
0010
0100
0010
0000
0000
0000
,
0001
0100
0010
0000
0100
0010
1000
0000
,
0001
0100
0010
0100
0010
0000
0000
0000
,
1000
0010
0100
0000
0010
0100
0001
0000
,
2002
0000
0000
3003
,
1001
0000
0000
0000
0001
0010
0000
0001
,
0000
0100
0010
0000
1000
0010
1000
0001
,
0000
0000
0001
0000
0100
0010
0100
0010
,
1000
0000
0100
0000
0001
0100
1000
0000
,
0001
0000
0100
0010
0100
0010
0100
0000
,
0001
1000
0000
1000
0001
1000
0000
1000
,
0001
0000
0010
0001
0100
0010
1000
0000
,
0001
0101
1000
1100
,
0001
0001
0010
0010
,
0001
0001
0100
0110
,
1000
1000
0010
0010
,
1000
1000
0100
0110
,
0001
0010
0001
0000
0010
0000
0001
0000
,
1000
0010
1000
0000
0010
0000
1000
0000
,
0001
0100
0001
0000
0100
0000
0001
0000
,
2000
0000
0000
3000
,
0001
0000
0101
0000
0110
0000
0010
1000
,
0100
0000
0110
0000
0011
0000
0001
1000
,
0100
0110
0010
0110
,
1000
0001
1000
0000
0001
1000
0001
0000
,
1000
0000
1100
0000
0110
0000
0010
0001
,
0100
0000
0110
0000
1010
0000
1000
0001
,
0100
0110
0010
0110
,
0001
1000
0001
0000
1000
0001
1000
0000
,
0001
0010
0001
0010
0100
0000
0110
0000
,
1000
0010
1000
0010
0100
0000
0110
0000
,
0001
0100
0010
0000
1000
0100
0010
0000
,
0001
1000
0100
0001
0100
1000
0001
0000
,
1000
0000
1010
0000
0010
0100
0001
0000
,
0010
0000
0011
0000
0001
1000
0100
0000
,
0010
0001
0010
0000
0100
1000
0100
0000
,
2002
0000
0000
3003
,
1000
0011
0100
0011
,
1000
0100
0010
0001
1000
0000
0011
0000
,
0001
1010
0100
1010
,
0001
0100
0010
1000
0001
0000
0000
0000
,
1000
0101
0010
0101
,
1000
0010
0100
0001
1000
0000
0101
0000
,
0001
1000
0001
0000
0100
0010
0100
0000
,
2002
0000
0000
3003
,
2000
3010
0002
0013
,
2000
3100
0002
0103
,
1000
0000
0100
0010
0000
0010
0001
0000
,
1000
0100
1000
0000
0001
0100
0001
0000
,
1000
0000
0000
0000
,
0000
0000
0000
0000
;
#NOTES:
     dance-single:
     :
     Hard:
     14:
     :
0000
0000
0000
0000
,
0000
0000
0000
0000
,
0000
0000
0000
0000
,
0000
0000
0000
0000
,
0000
0000
0000
0000
,
0000
0000
0000
0000
,
2000
0000
0000
0000
3000
0000
0000
0000
0100
0000
0000
0100
0000
0000
0100
0000
,
0020
0000
0000
0000
0030
0000
0000
0000
0001
0000
0000
0001
0000
0000
0001
0000
,
1001
0000
0110
0000
,
1001
0000
0000
0000
0110
0000
0000
0000
1000
0000
0000
0100
0000
0000
0010
0000
,
0001
0000
0100
0000
0010
0000
1000
0100
,
1000
0000
0000
0000
0010
0000
0000
0000
0100
0000
0000
0000
0001
0000
1000
0001
,
1000
0000
0010
0000
0001
0000
0010
1000
,
0001
0000
0010
0000
0100
1000
1001
0000
,
0001
0100
0010
1000
0001
0100
0010
1000
,
0001
0010
0100
1000
0100
0010
0001
1000
,
0200
0000
0000
0000
,
0310
0000
0000
0000
0000
0000
0000
0000
0001
1000
0001
0000
1000
0000
0000
0000
,
1001
0000
0000
0000
0001
0000
0010
0000
0100
1000
0000
0100
1000
0000
0000
0000
,
0001
0000
0100
0000
1000
0000
0100
0000
0010
0100
0000
0010
0100
0000
0000
0000
,
0001
0000
0010
1000
0010
0001
0100
0010
,
1010
1100
0011
0101
,
1001
0000
0000
0000
1000
0000
0100
0000
0010
0001
0000
0010
0001
0000
0000
0000
,
1000
0000
0010
0000
0001
0000
0010
0000
0100
0010
0000
0100
0010
0000
0000
0000
,
1000
0000
0100
0001
0100
1000
0010
0100
,
0101
0011
1100
1010
,
1000
0000
0001
0000
0010
0000
0001
0100
0000
0000
0001
0000
0010
0000
0000
0000
,
0001
0000
1000
0000
0010
0000
1000
0100
0000
0000
1000
0000
0010
0000
0000
0000
,
1000
0000
0100
0000
0001
0000
0100
1000
0000
0000
0010
0000
0100
0000
0000
0000
,
0001
0000
0100
0000
1000
0000
0100
0001
0000
0000
0010
0000
0100
0000
0000
0000
,
1000
0000
1000
0100
0010
0000
0010
0001
,
0100
0010
0100
0010
1000
0001
1000
0000
,
0001
0010
0001
0000
0100
0000
0010
0000
1000
0100
1000
0000
0010
0000
0100
0000
,
0002
0000
0000
0000
0000
1000
1003
0000
,
0001
0000
0001
0000
0001
0000
1000
0100
1000
0000
0001
0000
0001
0000
0000
0000
,
1000
0000
1000
0000
1000
0000
0001
0100
0001
0000
1000
0000
1000
0000
0000
0000
,
0001
0010
0011
0001
1000
0100
1100
1000
,
0010
0100
0110
0010
1001
0010
1001
0000
,
1000
0100
1100
1000
0001
0010
0011
0001
,
0100
0010
0110
0100
1001
0001
1001
1000
,
0001
0100
0110
0010
1000
0100
0110
0010
,
0002
0000
0000
0000
0000
1000
1003
0000
,
2000
0000
0000
3000
,
0020
0000
0000
0030
,
0200
0000
0000
0300
,
0002
0000
0000
0003
,
0001
0010
0001
0000
0001
0100
0001
0000
,
0001
0010
0100
1000
0100
0010
0001
0000
,
1000
0010
1000
0000
1000
0100
1000
0000
,
1000
0010
0100
0001
0100
0010
1000
0000
,
0001
0000
0101
0000
0100
0001
0010
0100
,
1000
0000
1100
0000
0100
1000
0010
0100
,
0001
0000
1001
0000
1000
0010
0001
0010
,
1000
0000
1001
0000
0001
0100
1001
0000
,
0001
0010
0001
0000
1000
0000
0100
0000
0001
0000
0100
0000
1000
0000
0001
0000
,
1000
0010
1000
0000
0001
0000
0100
0000
1000
0000
0100
0000
0001
0000
1000
0000
,
1100
0101
0011
1010
,
1001
0000
2000
3020
0230
0302
1003
0000
,
0001
1000
0010
0100
0001
1000
0010
0100
,
0001
1000
0100
0010
0001
0100
0001
0010
,
0001
1000
0100
0001
0100
1000
0001
0100
,
0010
0000
1000
0010
0000
1000
0010
0000
0100
0001
0000
0100
0001
0000
0000
0000
,
1000
0001
0100
0010
1000
0001
0100
0010
,
1000
0001
0010
0100
1000
0010
1000
0100
,
1000
0000
0001
0000
0010
0000
1000
0000
0010
0000
0000
0001
0010
0000
0001
0000
,
0100
0001
0000
0100
0001
0000
1000
0010
0000
1000
0010
0000
0100
0000
0000
0000
,
0001
0000
1000
0000
0100
0000
0010
0000
0100
0000
1000
0001
1000
0000
0010
0000
,
0100
0000
0001
0000
0010
0000
0100
0000
0010
0000
0001
1000
0001
0000
0100
0000
,
0010
0000
1000
0000
0100
0000
0010
0000
0001
0000
0100
0010
1000
0000
0001
0000
,
1000
0000
0010
0100
0010
0000
1000
0000
0100
0000
0010
0001
0010
0000
0000
0000
,
0001
0000
0100
0000
1000
0000
0100
0000
0001
0000
0010
0100
0010
0000
0001
0000
,
0100
0000
0010
0000
0001
0000
0010
0000
1000
0000
0001
0100
0001
0000
1000
0000
,
0001
0101
0110
1010
,
2002
0000
0000
3003
,
1000
0000
0001
0010
0100
0000
1000
0000
0001
0000
0000
0000
0110
0000
0000
0000
,
1000
0000
0010
0100
0001
0000
1000
0000
0010
0100
0000
0000
0001
1000
0001
0000
,
1000
0000
0001
1000
0100
0000
0010
0000
0001
0000
0100
0000
0010
1000
0010
0000
,
1000
0001
0000
1000
0001
0000
0100
0010
0000
0100
0010
0000
1000
0000
0000
0000
,
0001
0000
1000
0100
0010
0000
0001
0000
1000
0000
0000
0000
0110
0000
0000
0000
,
0001
0000
0100
0010
1000
0000
0001
0000
0100
0010
0000
0000
1000
0001
1000
0000
,
0001
0010
0000
0001
0010
0000
0100
1000
0000
0100
1000
0000
0001
0000
0000
0000
,
2002
0000
0000
3003
,
1000
0000
0100
0000
0010
0001
0000
0100
0010
0000
1000
0010
0000
0000
0110
0000
,
0001
0000
0100
0000
0010
1000
0000
0100
0010
0000
0001
0010
0000
0000
0110
0000
,
1000
0100
1000
0000
0001
0000
1000
0100
1000
0000
0001
0000
1000
0100
1000
0000
,
0001
0100
0001
0000
1000
0000
0001
0100
0001
0000
1000
0000
0001
0100
0001
0000
,
1000
0000
0000
0000
,
0000
0000
0000
0000
;
#NOTES:
     dance-double:
     :
     Easy:
     6:
     :
00000000
00000000
00000000
00000000
,
00000000
00000000
00000000
00000000
,
00000000
00000000
00000000
00000000
,
00000000
00000000
00000000
00000000
,
00000000
00000000
00000000
00000000
,
00000000
00000000
00000000
00000000
,
10000000
00100000
10000000
00000000
,
00010000
00100000
00010000
00000000
,
00100000
00001000
00010000
00001000
,
00010000
00010000
00010000
00000000
,
00001000
00010000
00001000
00010000
,
00000010
00001000
00000010
00000000
,
00001000
00000001
00000010
00000001
,
00001000
00000100
00000010
00000000
,
00000001
00000100
00000001
00000100
,
00001000
00010000
00001000
00000000
,
00010000
00001000
01000000
00010000
,
01000000
00000000
00000000
00000000
,
01100000
00000000
10010000
00000000
,
10000000
01000000
00100000
00000000
,
01100000
00000000
01100000
00000000
,
00100000
00001000
00010000
00000000
,
00011000
00000000
00011000
00000000
,
00001000
00010000
00000100
00000000
,
00001000
00000100
00000010
00000001
,
00002000
00000000
00000000
00003000
,
00000001
00000000
00000100
00000000
,
00000010
00001000
00000010
00000000
,
00000100
00000000
00001000
00000000
,
00010000
00001000
00010000
00000000
,
00001000
00000000
01000000
00000000
,
00010000
01000000
00010000
00000000
,
00100000
00000000
01000000
00000000
,
01100000
00000000
00000000
00000000
,
10000000
10000000
00010000
00000000
,
00010000
00010000
10000000
00000000
,
10000000
01000000
00100000
00010000
,
00100000
00001000
00010000
00000000
,
00001000
00010000
00000100
00001000
,
00000100
00000010
00000001
00000000
,
00000001
00000010
00000100
00010000
,
00002000
00000000
00000000
00003000
,
00011000
00000000
00001000
00010000
,
00001000
00000000
00010000
00001000
,
00100000
00010000
01000000
00000000
,
00100000
00100000
00100000
00000000
,
10000000
10000000
01000000
01000000
,
00100000
00100000
00001000
00010000
,
00001000
00001000
00000100
00000100
,
00000010
00000010
00000010
00000000
,
00001001
00000000
00000110
00000000
,
00000001
00000100
00001000
00000000
,
00011000
00000000
00011000
00000000
,
00001000
00010000
00100000
00000000
,
10000000
00100000
10000000
00100000
,
10000000
01000000
10000000
01000000
,
00100000
00010000
00100000
00001000
,
00011000
00000000
00000000
00000000
,
00010000
00000100
00001000
00000100
,
00000010
00000001
00000100
00000000
,
00000001
00000100
00001000
00000000
,
00010000
00001000
00010000
00000000
,
00001000
01000000
00010000
01000000
,
00100000
10000000
01000000
00000000
,
10000000
01000000
00010000
00000000
,
00001000
00010000
00001000
00000000
,
00010000
00000010
00001000
00000100
,
00001000
00000010
00000100
00000000
,
00000001
00000010
00000100
00001000
,
00000100
00010000
00001000
00000000
,
00001000
01000000
00010000
00100000
,
00010000
01000000
00100000
00000000
,
10000000
01000000
00100000
00010000
,
00100000
00001000
00010000
00000000
,
00011000
00000000
00011000
00000000
,
00001000
00000010
00000001
00000000
,
00000110
00000000
00000110
00000000
,
00000001
00000100
00001000
00000000
,
00011000
00000000
00011000
00000000
,
00010000
00100000
10000000
00000000
,
01100000
00000000
01100000
00000000
,
10000000
01000000
00010000
00000000
,
00001000
00010000
00000010
00000000
,
00001000
00000001
00000100
00000000
,
00000001
00000100
00001000
00000000
,
00010000
00000000
00100000
00000000
,
10010000
00000000
00000000
00000000
,
00000000
00000000
00000000
00000000
;
#NOTES:
     dance-double:
     :
     Medium:
     11:
     :
00000000
00000000
00000000
00000000
,
00000000
00000000
00000000
00000000
,
00000000
00000000
00000000
00000000
,
00000000
00000000
00000000
00000000
,
00000000
00000000
00000000
00000000
,
00000000
00000000
00000000
00000000
,
20000000
00000000
00000000
00000000
30000000
00000000
00000000
00000000
00100000
00000000
00000000
00100000
00000000
00000000
00000000
00000000
,
00020000
00000000
00000000
00000000
00030000
00000000
00000000
00000000
00001000
00000000
00000000
00001000
00000000
00000000
00000000
00000000
,
00010000
00000100
00001000
00000010
,
00000100
00000001
00000100
00000000
00000001
00001000
00000001
00000000
,
00001000
00000000
00000100
00000000
00000010
00000001
00000100
00000000
,
00000010
00000000
00010000
00000000
00001000
00010000
00001000
00000000
,
00100000
00000000
00010000
00000000
01000000
00010000
00100000
00000000
,
01000000
00000000
10000000
00000000
00010000
00100000
00010000
00000000
,
10000000
00000000
00100000
00000000
01000000
00010000
01000000
00001000
,
00010000
00000000
00001000
00000000
00010000
00000100
00001000
00000100
,
00000010
00000010
00000001
00000001
,
00001001
00000000
00000000
00000000
,
00000001
00000000
00000010
00000100
00000010
00000100
00001000
00000000
,
00000010
00000100
00001000
00000100
00001000
00000000
00010000
00000000
,
00011000
00000000
00001000
00010000
00001000
00010000
00100000
00000000
,
10000000
00000000
00010000
00000000
01000000
10000000
01000000
00000000
,
01100000
00000000
00100000
10000000
00100000
10000000
00010000
00000000
,
00100000
00001000
00100000
00001000
00010000
00000000
00001000
00000000
,
00010000
00000000
00000100
00001000
00000100
00000010
00000001
00000000
,
00001000
00000000
00000100
00000000
00000001
00000100
00001000
00000000
,
00000002
00000000
00000003
00000000
00000001
00000000
00000010
00000100
,
00000000
00000100
00001000
00000000
00000100
00010000
00001000
00000000
,
00020000
00000000
00030000
00000000
00010000
00000000
00001000
01000000
,
00010000
00110000
00100000
01100000
,
02000000
00000000
03000000
00000000
01000000
00000000
10000000
00100000
,
01000000
00010000
00100000
00000000
01000000
00000000
00010000
00000000
,
00002000
00000000
00003000
00000000
00001000
00010000
00001000
00010000
,
00002000
00000000
00000000
00003000
,
00010000
00010000
00010000
00000000
00000010
00000000
00000010
00000000
,
00001000
00001000
00001000
00000000
00000001
00000000
00001001
00000000
,
00000001
00000010
00000100
00000000
00000010
00000100
00010000
00000000
,
00000100
00010000
00001000
00000000
00010000
00001000
00100000
00000000
,
00010000
00100000
01000000
00000000
10000000
00100000
01000000
00000000
,
00100000
01000000
00010000
00000000
10000000
00010000
00100000
00000000
,
00010000
00100000
00010000
00100000
00001000
00010000
00001000
00000000
,
00022000
00000000
00000000
00033000
,
00011000
00000000
00000000
00000000
00010000
00000100
00000000
00001000
,
00000000
00000100
00000010
00000000
00001000
00000000
00000010
00000001
,
00000000
00000000
00000001
00000000
00000100
00000010
00000100
00000000
,
00001000
00000000
00001000
00000000
00010000
00001000
00010000
00000000
,
00001000
00000000
00100000
00010000
00100000
00000000
00010000
01000000
,
00010000
01000000
00000000
01000000
00100000
10000000
00000000
10000000
,
00010000
00000000
10000000
00000000
01000000
00010000
00001000
00000000
,
00010000
00000000
00100000
00000000
00010000
00001000
00010000
00000000
,
00001000
00001000
00000010
00000010
,
00000100
00000100
00000001
00000100
,
00001000
00001000
00000010
00000010
,
00010000
00010000
00001000
00011000
,
00010000
00100000
00010000
00000000
00001000
00000000
00011000
00000000
,
00001000
00000010
00001000
00000000
00010000
00000000
00011000
00000000
,
00001000
00000000
00010000
00000000
01000000
10000000
00010000
00000000
,
20000000
00000000
00000000
30000000
,
10000000
00000000
11000000
00000000
01100000
00000000
00100000
00010000
,
00100000
00000000
00101000
00000000
00011000
00000000
00010000
00000100
,
00001000
00001010
00001000
00001100
,
00000100
00000010
00000001
00000000
00001000
00000100
00000010
00000000
,
00000001
00000000
00000101
00000000
00000110
00000000
00000010
00001000
,
00000010
00000000
00010010
00000000
00011000
00000000
00001000
01000000
,
00010000
00110000
00010000
01010000
,
01000000
00100000
10000000
00000000
00010000
01000000
00100000
00000000
,
10000000
01000000
00100000
00000000
00010000
00100000
00010000
01000000
,
00001000
00010000
00001000
00000000
00010000
00000100
00001000
00000100
,
00000010
00000001
00001000
00000000
00000010
00000100
00000001
00000000
,
00000010
00001001
00000100
00001001
,
00000001
00000010
00000100
00000000
00001000
00000100
00001000
00000010
,
00010000
00001000
00010000
00000000
00001000
00100000
00010000
00100000
,
01000000
10000000
00010000
00000000
01000000
00100000
10000000
00000000
,
20020000
00000000
00000000
30030000
,
10000000
01000000
00100000
00000000
00002000
00000000
00003000
00000000
,
00001000
00010000
00000010
00000000
00000200
00000000
00000300
00000000
,
00000001
00000100
00000010
00000000
00010000
00001000
00000010
00000000
,
00000110
00001000
00001001
00000000
,
00000001
00000100
00000010
00000000
00020000
00000000
00030000
00000000
,
00010000
00001000
00100000
00000000
02000000
00000000
03000000
00000000
,
10000000
01000000
00100000
00000000
00001000
00010000
00100000
00000000
,
01100000
00010000
10010000
00000000
,
20000000
31000000
00200000
00310000
,
00002000
00003100
00000020
00000031
,
00000001
00000100
00000010
00000000
00010000
00001000
00010000
00000000
,
00001000
01000000
00010000
10000000
00100000
00000000
01000000
00000000
,
01100000
00000000
00000000
00000000
,
00000000
00000000
00000000
00000000
;
#NOTES:
     dance-double:
     :
     Hard:
     14:
     :
00000000
00000000
00000000
00000000
,
00000000
00000000
00000000
00000000
,
00000000
00000000
00000000
00000000
,
00000000
00000000
00000000
00000000
,
00000000
00000000
00000000
00000000
,
00000000
00000000
00000000
00000000
,
20000000
00000000
00000000
00000000
30000000
00000000
00000000
00000000
01000000
00000000
00000000
01000000
00000000
00000000
01000000
00000000
,
00200000
00000000
00000000
00000000
00300000
00000000
00000000
00000000
00001000
00000000
00000000
00010000
00000000
00000000
00001000
00000000
,
00011000
00000000
00000000
00000000
00010000
00001000
00000010
00000001
,
00000010
00000000
00000000
00000000
00000011
00000000
00000000
00000000
00000001
00000000
00000000
00001000
00000000
00000000
00000100
00000000
,
00000010
00000000
00000001
00000000
00000100
00000000
00000010
00001000
,
00000010
00000000
00000000
00000000
00000100
00000000
00000000
00000000
00001000
00000000
00000000
00000000
00010000
00000000
00001000
00010000
,
00001000
00000000
01000000
00000000
00010000
00000000
00100000
00010000
,
01000000
00000000
00100000
00000000
10000000
00010000
10000000
00000000
,
00010000
00100000
00010000
00100000
01000000
10000000
01000000
00000000
,
10000000
01000000
10000000
01000000
00010000
00001000
00010000
00000000
,
00022000
00000000
00000000
00000000
,
00033000
00000000
00000000
00000000
00011000
00000000
00010000
00000100
00010000
00000000
00000100
00000000
00001000
00000000
00000000
00000000
,
00000110
00000000
00000000
00000000
00000001
00000000
00001000
00000000
00000010
00000100
00000000
00000010
00000100
00000000
00000000
00000000
,
00000001
00000000
00000010
00000000
00001000
00000000
00010000
00000000
00001000
00010000
00000000
00001000
00010000
00000000
00000000
00000000
,
00001000
00010000
00100000
10000000
00100000
00010000
00001000
00100000
,
00001000
00010000
01000000
00000000
10000000
00010000
01000000
00000000
,
01100000
00000000
00000000
00000000
10000000
00000000
00010000
00000000
00100000
01000000
00000000
00100000
01000000
00000000
00000000
00000000
,
10000000
00000000
00100000
00000000
00010000
00000000
00001000
00000000
00010000
00001000
00000000
00010000
00001000
00000000
00000000
00000000
,
00010000
00001000
00000010
00000001
00000010
00001000
00010000
00000010
,
00010000
00001000
00000100
00000000
00000001
00001000
00000100
00000000
,
00000010
00000001
00000100
00000001
00000010
00001000
00010000
00000100
,
00000010
00001000
00000010
00000001
00000100
00001000
00010000
00000000
,
00001000
01000000
00001000
00010000
00001000
00100000
01000000
00100000
,
00010000
10000000
01000000
00010000
02000000
10000000
13000000
00000000
,
00100000
10000000
01000000
10000000
00100000
00010000
00001000
01000000
,
00100000
00010000
00100000
10000000
01000000
00010000
00001000
00000000
,
00010000
00000100
00010000
00001000
00010000
00000010
00000100
00000001
,
00002000
00000000
00000000
00000000
00000000
00000001
00003001
00000000
,
00000001
00000000
00000001
00000000
00001000
00000000
00000100
00001000
00000100
00000000
00010000
00000000
00010000
00000000
00000000
00000000
,
00001000
00000000
00001000
00000000
00100000
00000000
00010000
00100000
00010000
00000000
10000000
00000000
10000000
00000000
00000000
00000000
,
10000000
00010000
01010000
01000000
00100000
00010000
00001000
00000100
,
00000010
00010000
00010010
00000010
00001000
00000100
00000110
00000000
,
00000001
00001000
00001100
00000100
00000010
00001000
00010000
01000000
,
00100000
00001000
00101000
00100000
00010000
01000000
01100000
00100000
,
10000000
00000000
10000000
00000000
01000000
00000000
01000000
00000000
00010000
00000000
00010000
00000000
00001000
00010000
00001000
00000000
,
00020000
00000000
00000000
00000000
00000000
00001000
00031000
00000000
,
00002000
00000000
00000000
00003000
,
00000020
00000000
00000000
00000030
,
00000002
00000000
00000000
00000003
,
00000200
00000000
00000000
00000300
,
00001000
00010000
00001000
00000000
00001000
01000000
00001000
00000000
,
00001000
00010000
00100000
01000000
00100000
00010000
00001000
00000000
,
00010000
00001000
00010000
00000000
00010000
00000100
00010000
00000000
,
00010000
00001000
00000010
00000100
00000010
00001000
00010000
00000000
,
00001000
00010000
00001000
00010000
00100000
01000000
00100000
00000000
,
10000000
01000000
10000000
01000000
00010000
00001000
00010000
00000000
,
00001000
00000010
00001000
00000010
00000001
00000100
00001000
00000100
,
00000010
00010000
00001000
01000000
00010000
10000000
10010000
00000000
,
00010000
01000000
00010000
00000000
00100000
00000000
00010000
00000000
10000000
00000000
01000000
00000000
00010000
00000000
00001000
00000000
,
00000010
00000100
00000010
00000000
00000001
00000000
00001000
00000000
00000100
00000000
00000001
00000000
00000100
00000000
00010000
00000000
,
00011000
01001000
01010000
00110000
,
01100000
00000000
20000000
32000000
03020000
00032000
00013000
00000000
,
00001000
00010000
00000100
00001000
00000010
00010000
00001000
00000010
,
00000001
00000100
00001000
00000100
00000001
00000010
00000100
00010000
,
00001000
00100000
00010000
01000000
00100000
00010000
00001000
00010000
,
01000000
00000000
00100000
00010000
00000000
00100000
00010000
00000000
10000000
01000000
00000000
10000000
01000000
00000000
00000000
00000000
,
10000000
00100000
01000000
00010000
00100000
01000000
00010000
00001000
,
00100000
00001000
00010000
00100000
00010000
00001000
00000100
00000010
,
00001000
00000000
00000100
00000000
00010000
00000000
00001000
00000000
00000010
00000000
00000001
00000010
00000001
00000000
00001000
00000000
,
00000010
00000100
00000000
00000010
00001000
00000000
00000010
00010000
00000000
00001000
00010000
00000000
00001000
00000000
00000000
00000000
,
00010000
00001000
00100000
00001000
00010000
01000000
00100000
01000000
,
10000000
00000000
00100000
00000000
01000000
00000000
10000000
00000000
01000000
00000000
00100000
10000000
00100000
00000000
01000000
00000000
,
10000000
01000000
00010000
01000000
00001000
00010000
00000100
00001000
,
00000001
00000000
00000100
00000010
00000100
00000000
00000001
00000000
00001000
00000000
00000100
00000010
00000100
00000000
00000000
00000000
,
00010000
00000100
00000010
00000100
00010000
00001000
01000000
00010000
,
00100000
01000000
00010000
00001000
00010000
01000000
10000000
00100000
,
01100000
00000000
01010000
00000000
01001000
00000000
00001000
00010000
,
00022000
00000000
00000000
00033000
,
00010000
00000000
00000100
00001000
00000100
00000000
00000010
00000000
00000001
00000000
00000000
00000000
00000110
00000000
00000000
00000000
,
00001000
00000000
00000001
00000100
00000001
00000000
00000010
00000000
00000100
00001000
00000000
00000000
00000100
00010000
00000100
00000000
,
00010000
00000000
00001000
00010000
00001000
00000000
00100000
00000000
00010000
00000000
00000000
00000000
01000000
00100000
01000000
00000000
,
00010000
01000000
00000000
00010000
01000000
00000000
00100000
10000000
00000000
00100000
10000000
00000000
00010000
00000000
00000000
00000000
,
10000000
00000000
01000000
00100000
01000000
00000000
00100000
00000000
00010000
00000000
00000000
00000000
01010000
00000000
00000000
00000000
,
01000000
00000000
00001000
00010000
00001000
00000000
00010000
00000000
00000100
00001000
00000000
00000000
00000100
00000010
00000100
00000000
,
00000010
00000001
00000000
00000010
00000001
00000000
00001000
00000100
00000000
00001000
00000100
00000000
00000010
00000000
00000000
00000000
,
00000220
00000000
00000000
00000330
,
00000001
00000000
00000100
00000000
00001000
00000000
00010000
00000000
00100000
00000000
10000000
00100000
00000000
00000000
10010000
00000000
,
10000000
00000000
01000000
00000000
00010000
00000000
00001000
00000000
00000010
00000000
00000001
00000010
00000000
00000000
00001001
00000000
,
00000001
00000100
00000001
00000000
00000010
00000000
00000100
00001000
00000100
00000000
00010000
00000000
00001000
00010000
00001000
00000000
,
00100000
00010000
00100000
00000000
00010000
00000000
10000000
01000000
10000000
00000000
00100000
00000000
00010000
00000000
00001000
00000000
,
00011000
00000000
00000000
00000000
,
00000000
00000000
00000000
00000000
;
