
//----- song ID: onga2 -----//
#TITLE:音楽 (STARDOM Remix);
#ARTIST:cosMo@暴走P;
#TITLETRANSLIT:Ongaku (STARDOM Remix);
#ARTISTTRANSLIT:CosMo@BousouP;
#BANNER:Ongaku (STARDOM Remix).png;
#BACKGROUND:Ongaku (STARDOM Remix)-bg.png;
#CDTITLE:./CDTitles/DANCERUSH STARDOM.png;
#MUSIC:Ongaku (STARDOM Remix).ogg;
#SAMPLESTART:3.556;
#SAMPLELENGTH:15;
#BPMS:0=135;
#BGSTAGE:30;
#NOTES:
     dance-single:
     :
     Beginner:
     2:
     :
0000
0000
0000
0000
,
0000
0000
0000
0000
,
0000
0000
0000
0000
,
0000
0000
0000
0000
,
0000
0000
0000
0000
,
0000
0000
0000
0000
,
0001
0000
0000
0000
,
0001
0000
0000
0000
,
0010
0000
0000
0000
,
0000
0000
0000
0000
,
1000
0000
0000
0000
,
1000
0000
0000
0000
,
0010
0000
0000
0000
,
0010
0000
0000
0000
,
0010
0000
0000
0000
,
0001
0000
0000
0000
,
0000
0000
0000
0000
,
0002
0000
0000
0000
,
0003
0000
0000
0000
,
0020
0000
0000
0000
,
0030
0000
0000
0000
,
2000
0000
0000
0000
,
3000
0000
0000
0000
,
0010
0000
0010
0000
,
1000
0000
0000
0000
,
1001
0000
0000
0000
,
0000
0000
0000
0000
,
1001
0000
0000
0000
,
0000
0000
0000
0000
,
1000
0000
1000
0000
,
0100
0000
0000
0000
,
1000
0000
0000
0000
,
0010
0000
0000
0000
,
0001
0000
0001
0000
,
0100
0000
0000
0000
,
0001
0000
0000
0000
,
0000
0000
0000
0000
,
0020
0000
0000
0000
,
0030
0000
0000
0000
,
0200
0000
0000
0000
,
0300
0000
0000
0000
,
0010
0000
0000
0000
,
0010
0000
0000
0000
,
1001
0000
0000
0000
,
0000
0000
0000
0000
,
1000
0000
0010
0000
,
1000
0000
0000
0000
,
0010
0000
0010
0000
,
0001
0000
0000
0000
,
0001
0000
0010
0000
,
0001
0000
0000
0000
,
0001
0000
0010
0000
,
1000
0000
0000
0000
,
1001
0000
0000
0000
,
2000
0000
0000
0000
,
3000
0000
0000
0000
,
0002
0000
0000
0000
,
0003
0000
0000
0000
,
0010
0000
0010
0000
,
0100
0000
0000
0000
,
0010
0000
0000
0000
,
0001
0000
0000
0000
,
1000
0000
0000
0000
,
0000
0000
0000
0000
,
1001
0000
0000
0000
,
0001
1000
0001
1000
,
0000
0000
0000
0000
;
#NOTES:
     dance-single:
     :
     Easy:
     5:
     :
0000
0000
0000
0000
,
0000
0000
0000
0000
,
0000
0000
0000
0000
,
0000
0000
0000
0000
,
0000
0000
0000
0000
,
0000
0000
0000
0000
,
0001
0010
0001
0000
,
0010
0100
0010
0000
,
0100
1000
0100
0000
,
1000
0001
1000
0000
,
0002
0000
0000
0003
,
0001
0010
0100
0000
,
1000
0000
0001
0000
,
2000
0000
0000
3000
,
1000
0100
0010
0000
,
0001
0000
1000
0000
,
0001
1000
0001
0000
,
0200
0000
0000
0300
,
0020
0000
0000
0030
,
1001
0000
0110
0000
,
1001
0000
0000
0000
,
1000
0000
1000
0000
,
0010
0010
0010
0000
,
0100
0000
0100
0000
,
0001
0001
0001
0000
,
2000
0000
0000
3000
,
0002
0000
0000
0003
,
2000
0000
0000
3000
,
0002
0000
0000
0003
,
1000
1000
0010
0000
,
1000
0100
0010
0000
,
0001
0001
0100
0000
,
0001
0010
0100
0000
,
1000
0001
1000
0001
,
1000
0100
1000
0000
,
0001
1000
0001
1000
,
0001
0010
0001
0000
,
1000
1000
1000
0000
,
0010
0010
0010
0000
,
0100
0100
0100
0000
,
0001
0001
0001
0000
,
0020
0000
0000
0030
,
0110
0000
1001
0000
,
0200
0000
0000
0300
,
0110
0000
1001
0000
,
0001
0100
0001
1000
,
0001
0100
0001
0000
,
1000
0100
1000
0001
,
1000
0100
1000
0000
,
0001
0001
0010
0010
,
0100
0100
1000
1000
,
0001
0010
0100
1000
,
0002
0003
2000
3000
,
1001
0000
0000
0000
,
0001
0100
0010
0000
,
0100
0010
1000
0000
,
1000
0001
0010
0100
,
0010
0001
1000
0000
,
0010
0000
0010
0000
,
0100
0100
0100
0000
,
0001
0000
0001
0000
,
1000
1000
1000
0000
,
1001
0000
0110
0000
,
0001
1000
0001
0000
,
1000
0100
1000
0100
,
0010
0001
1000
1001
,
0000
0000
0000
0000
;
#NOTES:
     dance-single:
     :
     Medium:
     8:
     :
0000
0000
0000
0000
,
0000
0000
0000
0000
,
0000
0000
0000
0000
,
0000
0000
0000
0000
,
0000
0000
0000
0000
,
0000
0000
0000
0000
,
0001
0000
0010
0000
0001
0100
0001
0000
,
1000
0000
0010
0000
1000
0100
1000
0000
,
0001
0100
0010
1000
,
0001
1000
0001
1000
0000
1000
0001
0000
,
2000
3200
0320
0032
,
1003
0000
1001
0000
0001
1000
0001
0000
,
0200
0000
0320
0000
0130
0010
0100
0000
,
0002
0023
0230
2300
,
3001
0000
1001
0000
1000
0001
1000
0000
,
0020
0000
0230
0000
0310
0100
0010
0000
,
2000
3100
0200
0310
,
0010
0001
0002
0000
1000
0000
2003
0000
,
3010
1000
2000
0000
0001
0000
3001
0000
,
1001
0000
0110
0000
,
1010
0000
0101
0000
,
0001
0100
0000
0000
0010
1000
0000
0000
,
1000
0100
0000
0000
0010
0001
0000
0000
,
0001
1000
0000
0000
0001
0000
0001
0000
,
2000
3002
0203
0310
,
0110
0110
0110
0000
,
1001
1001
1001
0000
,
0011
0011
0011
0000
,
1100
1100
1100
0000
,
1000
0100
0000
1000
0010
1000
0000
0000
,
0001
0100
0000
0001
0010
0001
0000
0000
,
1000
0100
0000
0000
0010
0100
0010
0000
,
0110
0000
0000
0000
0001
1000
0001
0000
,
1000
0100
0010
0000
0100
0000
1000
0000
,
0001
0100
0010
0000
0100
0000
0001
0000
,
2000
0000
3010
0100
0020
0000
0230
0000
,
0302
0000
0013
0100
0020
0000
0031
1000
,
0001
0011
1000
1100
,
1000
1010
0001
0101
,
1000
0110
0010
1001
,
0001
0000
0100
0010
1000
0000
0100
0010
,
0002
0000
2003
0000
,
3001
0001
0001
0000
1000
1000
1000
0000
,
0020
0000
0230
0000
,
0310
0100
0110
0000
,
1000
0000
0100
0010
0100
0000
0010
0001
,
0010
0000
0001
1000
0001
0000
0100
0010
,
0100
0000
0010
1000
0010
0000
0100
0001
,
0100
0000
0010
1000
0002
0000
0003
0000
,
0001
0001
0001
0000
1000
1000
1000
0000
,
0100
0100
0100
0000
0010
0010
0010
0000
,
0001
0100
0010
0000
1000
0100
0010
0000
,
0001
0000
1001
0000
0000
1000
0010
0100
,
0002
0000
0000
0003
,
0001
0010
1000
0010
,
0001
0000
1000
0000
0000
1000
0100
0000
,
0010
0000
0001
0000
0000
0001
1000
0000
,
0010
0010
0100
0100
,
0001
0000
0000
0001
0100
0000
0010
0000
,
1000
0000
0000
1000
0100
0000
0010
0000
,
0001
0000
0001
1000
0000
1000
0100
0000
,
0010
0000
0001
1000
0001
1000
0000
1000
,
0010
0010
1000
1000
,
0001
0100
0001
0100
0000
0001
0001
0000
,
1000
0000
0001
0000
,
0100
0000
0010
0100
0010
0000
0110
0000
,
0000
0000
0000
0000
;
#NOTES:
     dance-single:
     :
     Hard:
     12:
     :
0000
0000
0000
0000
,
0000
0000
0000
0000
,
0000
0000
0000
0000
,
0000
0000
0000
0000
,
0000
0000
0000
0000
,
0000
0000
0000
0000
,
0001
0100
0010
0100
0001
0100
1000
0100
,
0001
0000
0010
0000
0100
0000
1000
0000
0010
0000
1000
0001
1000
0000
0000
0000
,
1000
0100
0010
0100
1000
0100
0001
0100
,
1000
0000
0010
0100
0001
0000
1000
0000
0000
0000
1000
0000
0001
0000
0000
0000
,
2000
0000
3100
0010
0002
0000
0103
0010
,
2000
0000
3200
0000
0301
0100
1000
0100
,
0020
0000
2030
0000
3010
0001
0001
1000
,
0100
1000
1010
0000
0001
0010
0011
0000
,
1000
0100
1100
0000
0001
0100
1000
0100
,
0001
0100
0101
0000
1000
0010
0001
0010
,
2000
0000
3001
0100
0020
0000
1030
0100
,
0010
0010
0001
0002
0000
1000
1000
1003
,
0010
0010
1000
2000
0000
0001
0001
3001
,
0010
0001
0101
0000
0100
0010
1010
0000
,
0010
1000
1100
0000
0100
0010
0011
0000
,
0001
1100
0000
1000
0010
0101
0000
0001
,
0100
1010
0000
1000
0100
0011
0000
0001
,
1000
0100
1000
0100
0010
0001
0010
0001
,
1000
0001
1000
0000
0010
0000
0100
0000
0020
0000
0000
0000
0030
0000
0000
0000
,
2000
0010
0010
3010
,
0002
0010
0010
0013
,
2000
0100
0100
3100
,
0002
0100
0100
0103
,
1000
0100
0000
0100
1000
0010
0000
0010
,
1000
0001
0000
0001
0010
0001
0000
0001
,
0100
0010
0000
0010
1000
1000
0001
0001
,
0100
0000
0010
0100
0010
0000
0000
0000
1000
0000
1000
0000
0001
0000
0001
0000
,
1000
0010
0001
0010
1000
0010
0001
0010
,
1000
0100
0001
0100
1000
0100
0001
0100
,
1000
0000
0000
1000
0000
0000
0010
0000
1010
0000
0000
0000
2000
0000
0000
0000
,
3001
0000
0000
0001
0000
0000
0010
0000
0011
0000
0000
0000
0001
0000
1000
0000
,
0002
0000
1003
0100
0020
0000
0031
0100
,
0020
0000
1030
0001
0200
0000
0310
1000
,
0200
0000
0301
0100
2000
0000
3001
0100
,
0010
0000
0000
0010
1000
0000
0000
1000
0001
0000
0000
0001
0100
0000
0010
0000
,
0200
1000
0010
0301
,
1001
1000
0100
0000
1001
0001
0200
0000
,
0320
0001
0100
1030
,
1010
0000
0010
1000
0100
0010
0001
0000
,
1000
0010
0100
0001
1000
0100
0010
0001
,
1000
0010
0100
0001
1000
0100
0010
0001
,
1000
0000
1000
0100
0001
0000
0001
0100
,
1000
0000
1001
0000
0001
0100
0010
1000
,
0010
0010
1010
0010
0010
0010
1010
1000
,
0001
0100
0101
0100
0100
0100
0101
0100
,
0110
0010
1010
1000
1001
0001
0011
0010
,
0100
0000
0010
0000
0001
0000
1000
0000
0010
0000
0100
0000
0001
1000
0001
1000
,
0002
0000
0000
0003
,
1000
1100
0001
0101
,
0010
0000
1001
0000
0001
0010
0100
1000
,
0001
0000
0110
0000
1000
0010
0100
0001
,
1000
1000
0010
0000
0001
0001
0010
0000
,
1000
0000
1000
0010
0100
0000
0101
0000
,
0001
0000
0001
0010
0100
0000
1100
0000
,
1000
0010
0001
0010
0000
0010
1000
0001
,
0101
0000
0100
0010
1000
0100
0010
0001
,
0011
0000
0000
0010
0001
0000
0000
0001
1000
0000
0000
1000
0100
0000
0000
0100
,
0010
0000
0001
0000
0100
0000
0010
0000
1000
0000
0001
0000
1000
0001
1000
0000
,
1001
0000
0110
0000
,
1000
0000
0100
0010
0001
0000
0001
0000
0001
0000
0000
0000
1001
0000
0000
0000
,
0000
0000
0000
0000
;
#NOTES:
     dance-single:
     :
     Challenge:
     17:
     :
0000
0000
0000
0000
,
0000
0000
0000
0000
,
0000
0000
0000
0000
,
0000
0000
0000
0000
,
0000
0000
0000
0000
,
0000
0000
0000
0000
,
0001
1000
0001
0000
1001
0000
1000
0100
0010
0001
0100
0010
1000
0010
0100
0000
,
0002
0000
0203
0000
2300
0000
3200
0000
0301
0010
0100
1000
0001
0010
0100
1000
,
0001
0100
0001
0100
0010
1000
0010
1000
0100
0010
0100
0010
0001
1000
0001
1000
,
0010
0100
0001
0010
0100
1000
0010
0100
0002
0000
2003
0000
3100
0010
0001
0100
,
0020
2030
3002
0203
,
0310
0000
2002
0000
3003
1000
0010
0100
,
0002
0000
0000
0000
2003
0000
0000
0000
3010
0000
0100
0001
1000
0000
0001
0000
,
1000
0000
0100
0010
0001
1000
0001
1000
0010
0000
0100
0010
1000
0001
1000
0001
,
0010
0000
0001
1000
0100
0010
0100
1000
0001
0000
1000
0001
0100
0010
0100
0001
,
1000
0000
0100
0010
0001
0100
0010
1000
0100
0000
1000
0010
0100
0001
0010
0100
,
1000
0000
1000
0100
0010
0000
0010
0001
1000
0000
1000
0001
0100
0000
0110
0000
,
0020
0000
1000
0000
0230
0000
0001
0000
0310
0000
1000
0100
0010
0000
0110
0000
,
0020
0000
0001
0000
0230
0000
1000
0000
0310
0000
0001
0100
0010
0000
0110
0000
,
1000
0010
1000
0010
1000
0010
1000
0000
0001
0100
0001
0100
0001
0100
0001
0000
,
0010
0001
0010
0001
0010
0001
0010
0000
0100
1000
0100
1000
0100
1000
0100
0000
,
1000
0100
0001
0100
1000
0000
0000
0001
0100
1000
0100
0001
0100
0000
0000
0001
,
0010
1000
0001
0100
1000
0001
0010
0100
1000
0010
1000
0100
1000
0000
0000
1000
,
0010
0010
0100
0100
0001
0001
1000
1000
,
0001
0010
0100
1000
0001
0010
0100
1000
0010
0100
0001
1000
0100
0010
0001
0100
,
0002
0000
0000
0003
,
2000
0000
0000
3000
,
0020
0000
0000
0030
,
0200
0000
0000
0300
,
0001
0000
0010
0000
0100
0001
0100
0010
0100
1000
0100
0010
0000
0001
1000
0001
,
0100
0000
0010
0000
0001
0010
0100
0010
1000
0001
0100
0010
0000
0010
1000
0000
,
0100
0000
0001
0000
1000
0010
0100
0010
0001
0000
0011
0000
0010
0000
0110
0000
,
0100
0000
0000
1000
0000
0000
0100
0000
0000
1000
0000
0000
0001
0000
0000
0000
0000
0000
1000
0000
0000
0000
0000
0000
0010
0000
0000
0000
0000
0000
1000
0000
0001
0000
1000
0000
0001
0000
0000
0000
0000
0000
0100
0000
0000
0010
0000
0000
,
1000
1010
0010
0110
0100
0101
1001
0101
,
0001
0011
0010
0110
0100
1100
1001
1100
,
1000
0000
0000
1000
0100
0000
0010
0000
0002
0000
0000
0000
2003
0000
0000
0000
,
3001
0000
0000
0000
0000
0000
0000
0000
0000
0001
0000
0000
0100
0000
0000
0000
0000
0000
0010
0000
0000
0000
0000
0000
1000
0000
0100
0000
0010
0000
0100
0000
0010
0000
0001
0000
1000
0000
0100
0000
0010
0000
0100
0000
0010
0000
0001
0000
,
1000
0000
0110
0000
0001
0000
0110
0000
0001
0000
1000
0010
0100
0000
1001
0000
,
0010
0000
1001
0000
0100
0000
1001
0000
0001
0000
1000
0010
0100
0000
1001
0000
,
0001
1100
0010
1100
1000
0101
0010
0101
,
1000
0100
0010
0100
1000
0001
0000
1000
0001
0100
0001
0100
0010
1000
0010
0100
,
0020
0000
2030
0000
,
3001
0000
0000
1000
0100
0010
0001
0000
0000
0001
0010
0100
1000
0000
0000
1000
0010
0100
0001
0000
0000
0001
0100
0010
,
2000
0000
3200
0000
,
0310
0000
0000
0000
0110
0000
0001
1000
0001
0010
0100
1000
0001
0010
0100
1000
,
0001
0000
1000
0010
0100
0001
0010
0001
0100
0001
0010
0001
0100
0000
0110
0000
,
0010
1000
0001
0001
1000
0100
0100
0100
1000
0010
1010
0000
0001
0100
0101
0000
,
2000
0000
0000
0000
3000
0000
1000
0100
0010
0100
0000
0000
0010
0010
0001
0001
,
2000
0000
0000
0000
0000
0000
0000
0000
0000
0000
0000
0000
3000
0000
0000
0000
0000
0000
0001
0000
0000
0001
0000
0000
0100
0000
0000
0000
0000
0000
0010
0000
1000
0000
0010
0000
0100
0000
0001
0000
0100
0000
0001
0000
1000
0000
0001
0000
,
1000
1000
1010
1010
0011
0011
0101
0101
,
0110
0110
1010
1010
1100
1100
1001
1001
,
0001
0000
0100
0010
1000
0000
0001
0000
0010
0100
1000
0000
0001
0000
1000
0010
0100
0000
0001
0000
1000
0100
0010
0000
,
0001
0100
0001
0100
0001
0100
0010
1000
0010
1000
0010
1000
0001
1000
0001
1000
0001
1000
0001
0010
0100
1000
0100
0010
,
0002
0000
0000
0003
,
1000
0000
0000
0010
0000
0000
0100
0001
0100
0001
1000
0001
1000
0100
0010
0001
0010
0100
1000
0001
0100
0010
0100
0001
,
1000
0100
0010
0001
1000
0010
0100
0010
1000
0001
0010
0001
1000
0100
1000
0001
0100
0010
1000
0100
0010
0001
1000
0100
,
0020
0000
0000
0000
0000
0000
0032
0000
0000
0000
0000
0000
0103
0010
1000
0010
0100
0010
1000
0001
0100
0001
1000
0001
,
0100
0010
0100
0010
0100
0010
1000
0001
1000
0001
1000
0001
0010
0100
1000
0100
0010
0001
1000
0010
1000
0001
0100
0001
,
2000
0000
3000
1000
0100
0000
0110
0000
,
0002
0000
0003
0001
0100
0000
0110
0000
,
0010
1000
0001
0010
0000
0010
0100
1000
,
0001
0100
0001
0100
0010
1000
0010
1000
0001
0010
0001
0010
0100
1000
0100
1000
,
0100
0000
0100
0010
0001
0000
0001
0000
1000
0000
1000
0010
0100
0000
0100
0000
,
0001
0100
0010
1000
0100
0010
0001
1000
0010
0100
0010
0100
0001
1000
0001
1000
,
0001
0000
1000
0100
0001
0100
1000
0001
1000
0000
0001
0100
1000
0100
0001
1000
,
0001
0100
0001
0000
1000
0000
0100
0000
0010
0000
0001
0000
0010
0000
0100
0000
1000
0000
0000
0000
0000
0000
0000
0000
1001
0000
0000
0000
0000
0000
0000
0000
,
0000
0000
0000
0000
;
#NOTES:
     dance-double:
     :
     Easy:
     5:
     :
00000000
00000000
00000000
00000000
,
00000000
00000000
00000000
00000000
,
00000000
00000000
00000000
00000000
,
00000000
00000000
00000000
00000000
,
00000000
00000000
00000000
00000000
,
00000000
00000000
00000000
00000000
,
00001000
00010000
00100000
00100000
,
10000000
00010000
10000000
00000000
,
10000000
01000000
00100000
00100000
,
00001000
00010000
00001000
00000000
,
00002000
00000000
00000000
00003000
,
00020000
00000000
00000000
00030000
,
00001000
00010000
00000100
00001000
,
00000002
00000000
00000000
00000003
,
00002000
00000000
00000000
00003000
,
00000001
00000010
00000001
00001000
,
00000010
00000000
00010000
00000000
,
00001000
00000000
00011000
00000000
,
00010000
00000000
00011000
00000000
,
00010000
00001000
01000000
00000000
,
00010000
01000000
00010000
00000000
,
10000000
00000000
10000000
00000000
,
01000000
00000000
01000000
00000000
,
00010000
00000000
00010000
00000000
,
00001000
00001000
00001000
00000000
,
00020000
00000000
00000000
00030000
,
00002000
00000000
00000000
00003000
,
00020000
00000000
00000000
00030000
,
00002000
00000000
00000000
00003000
,
00001000
00001000
00010000
00000000
,
00000010
00000010
00001000
00000000
,
00000001
00000000
00000100
00000000
,
00001000
00010000
00001000
00000000
,
00010000
00001000
00100000
00000000
,
00100000
00001000
00010000
00000000
,
00001000
00010000
00000010
00000000
,
00000010
00010000
00001000
00000000
,
00001000
01000000
00010000
01000000
,
00010000
10000000
01000000
00000000
,
10000000
00100000
10000000
00010000
,
00100000
00001000
00010000
00000000
,
00002000
00000000
00000000
00003000
,
00010000
00001000
00000010
00000000
,
00000002
00000000
00000000
00000003
,
00000001
00000100
00001000
00000000
,
00010000
00010000
00001000
00001000
,
01000000
00010000
01000000
00000000
,
00010000
00010000
10000000
10000000
,
01000000
00100000
01000000
00000000
,
10000000
00010000
00100000
00001000
,
00010000
00000010
00001000
00000000
,
00000001
00001000
00000100
00010000
,
00002000
00000000
00000000
00003000
,
00011000
00000000
00000000
00000000
,
00001000
00010000
00100000
00000000
,
10000000
00000000
00010000
00000000
,
10000000
01000000
00010000
00000000
,
00001000
00000000
00010000
00000000
,
00001000
00000010
00000001
00000000
,
00001000
00000000
00000001
00000000
,
00001000
00000010
00001000
00000100
,
00010000
00000000
00011000
00000000
,
00001000
00010000
01000000
00000000
,
10000000
00010000
10000000
00000000
,
10000000
00000000
01000000
00000000
,
00010000
00001000
00010000
00011000
,
00000000
00000000
00000000
00000000
;
#NOTES:
     dance-double:
     :
     Medium:
     8:
     :
00000000
00000000
00000000
00000000
,
00000000
00000000
00000000
00000000
,
00000000
00000000
00000000
00000000
,
00000000
00000000
00000000
00000000
,
00000000
00000000
00000000
00000000
,
00000000
00000000
00000000
00000000
,
00001000
00000000
00010000
00000000
00000010
00001000
00000010
00000000
,
00001000
00000000
00000100
00000000
00000010
00000001
00000010
00000000
,
00000001
00000100
00001000
00010000
,
00001000
00010000
00001000
00010000
00000000
00010000
00001000
00000000
,
00020000
00032000
02003000
03020000
,
10030000
00000000
10010000
00000000
10000000
01000000
00100000
00000000
,
00020000
00000000
00230000
00000000
00301000
00010000
00001000
00000000
,
00020000
00030200
00002300
00003020
,
00001030
00000000
00001001
00000000
00000001
00000100
00000010
00000000
,
00002000
00000000
00003020
00000000
00010030
00001000
00010000
00000000
,
00002000
00103000
00200000
00310000
,
00010000
01000000
00020000
00000000
10000000
00000000
10030000
00000000
,
10000000
01000000
00200000
00000000
00001000
00000000
00301000
00000000
,
00011000
00010000
00000100
00001000
,
00001010
00000010
00000100
00000001
,
00000010
00000001
00000000
00000000
00000001
00000100
00000000
00000000
,
00000100
00001000
00000000
00000000
00001000
00010000
00000000
00000000
,
00010000
00001000
01000000
00000000
00010000
00100000
00010000
00000000
,
20000000
00000000
00020000
30030000
,
10010000
10000000
00100000
00010000
,
00011000
00001000
00000010
00000001
,
00001001
00001000
00000100
00010000
,
00011000
00001000
00100000
01000000
,
10000000
00100000
00000000
01000000
00010000
01000000
00000000
00000000
,
00010000
00100000
00000000
00001000
00010000
00001000
00000000
00000000
,
00010000
00000010
00000000
00000000
00001000
00000010
00001000
00000000
,
00000100
00000000
00000010
00000000
00000001
00001000
00000001
00000000
,
00001000
00000100
00000001
00000100
,
00010000
00000100
00000001
00000100
,
00001000
00000000
00000100
00010000
00000100
00000000
00010000
00000000
,
00001000
00000000
00100000
00010000
00100000
00000000
00010000
01000000
,
00200000
10300000
20000000
31000000
,
02000000
03010000
00020000
00031000
,
00002000
00000000
00003010
00000000
00000010
00000001
00000100
00000001
,
00000010
00000000
00000100
00000000
00010000
00001000
00010000
00000000
,
00002000
00000000
00023000
00000000
,
00031000
01000000
00001000
00000000
00010000
00000100
00010000
00000000
,
00002000
00000000
00023000
00000000
,
00031000
00100000
00001000
00010000
00001000
00000000
00000000
00000000
,
00010000
00000010
00001000
00000000
00000100
00000000
00000100
00000000
,
00000010
00000001
00000100
00000000
00000010
00001000
00000100
00000000
,
00010000
00001000
00100000
00000000
01000000
00000000
01000000
00000000
,
10000000
00100000
01000000
00000000
00010000
01000000
00100000
00000000
,
10000000
10000000
00100000
00000000
01000000
01000000
00001000
00000000
,
00010000
00010000
00000100
00000000
00001000
00001000
00000010
00000000
,
00001000
00000100
00000010
00000000
00000001
00000100
00000010
00000000
,
00001000
00000100
00010000
00001000
00010000
00000000
00001000
00000000
,
00022000
00000000
00000000
00033000
,
00001000
00000000
00010000
00000000
00100000
10000000
00100000
00000000
,
01000000
00000000
01100000
00000000
00000000
00100000
10000000
00000000
,
01000000
00000000
00010000
00000000
00000000
00010000
00001000
00000000
,
00010000
00000100
00000010
00000001
,
00001000
00000000
00000000
00001000
00000001
00000000
00000100
00000000
,
00001000
00000000
00000000
00001000
00010000
00000000
00011000
00000000
,
00001000
00000000
00001000
00100000
00000000
00100000
00010000
00000000
,
01000000
00000000
00100000
10000000
00100000
10000000
00000000
10000000
,
00010000
00100000
00001000
00000010
,
00000001
00001000
00000001
00001000
00000000
00000010
00000100
00000000
,
00000110
00000000
00011000
00000000
,
00001000
00000000
00010000
00001000
00010000
00000000
00011000
00000000
,
00000000
00000000
00000000
00000000
;
#NOTES:
     dance-double:
     :
     Hard:
     12:
     :
00000000
00000000
00000000
00000000
,
00000000
00000000
00000000
00000000
,
00000000
00000000
00000000
00000000
,
00000000
00000000
00000000
00000000
,
00000000
00000000
00000000
00000000
,
00000000
00000000
00000000
00000000
,
00001000
00010000
00001000
00010000
00100000
00010000
00100000
00010000
,
00001000
00010000
00001000
00010000
00001000
00000010
00001000
00000010
,
00001000
00010000
00001000
00100000
00010000
01000000
00100000
10000000
,
01000000
00100000
01000000
00010000
00000000
00010000
00001000
00000000
,
00020000
00000000
00030100
00001000
00000020
00000000
00000130
00000001
,
00000020
00000000
00000230
00000000
00000301
00000100
00001000
00000100
,
00020000
00000000
00032000
00000000
01003000
00010000
00100000
00010000
,
01000000
10100000
01000000
00110000
,
10000000
01000000
00010000
00000000
00001000
00000010
00000001
00000000
,
00001000
00000000
00000011
00000000
00000001
00000100
00000010
00001000
,
00000200
00020300
00032000
02003000
,
03010000
00100000
00100000
02000000
00000000
03010000
01000000
10000000
,
00010000
00100000
00100000
00002000
00000000
00013000
00001000
00000010
,
00000001
00001000
00000001
00001000
00000100
00010000
00000100
00010000
,
00001000
01000000
00001000
01000000
00010000
10000000
00010000
00000000
,
10000000
01000000
00000000
01000000
00100000
00010000
00000000
00100000
,
00001000
00010000
00000000
00010000
00000010
00001000
00000000
00001000
,
00000001
00000010
00000001
00000010
00001000
00010000
00001000
00010000
,
01000000
10000000
00100000
01000000
10000000
01000000
00010000
00000000
,
20000000
00010000
00010000
30010000
,
00020000
00001000
00001000
00031000
,
00002000
00000001
00000001
00003001
,
00000002
00001000
00001000
00001003
,
00000001
00000010
00000000
00000010
00001000
00010000
00000000
00001000
,
00010000
00001000
00000000
00001000
00010000
01000000
00000000
10000000
,
00100000
01000000
00000000
01000000
00100000
00010000
00100000
01000000
,
00100000
00000000
10000000
00100000
10000000
00000000
00000000
00000000
00010000
00000000
00100000
00000000
00001000
00000000
00010000
00000000
,
00011000
00010100
00011000
00101000
,
00011000
00010010
00011000
01001000
,
00001000
00000000
00000000
00010000
00000000
00000000
00000100
00000000
00000020
00000000
00000000
00000000
00000031
00000000
00000000
00000000
,
00000001
00000000
00000000
00000100
00000000
00000000
00001000
00000000
00010000
00000000
00000000
00000000
00010000
00000000
00001000
00000000
,
01000000
00010000
00100000
00010000
02000000
00000000
13000000
01000000
,
00010000
00100000
00001000
00010000
00002000
00000000
00003010
00000001
,
00001000
00000100
00000010
00000100
00010000
00001000
00010000
00000000
,
00001000
00000000
00000000
00001000
00100000
00000000
00000000
00100000
00010000
00000000
00000000
00010000
10000000
00000000
01000000
00000000
,
20000000
30200000
00320000
00032000
,
00003100
00000001
00000010
00000000
00000100
00001000
00000010
00000000
,
00000002
00000000
00000000
00000000
00000023
00000000
00000000
00000000
00010030
00000000
00000000
00010000
00001000
00000000
00000000
00000000
,
00011000
00000000
00010000
00001000
01000000
00010000
01000000
00000000
,
00010000
01000000
00100000
10000000
01000000
01000000
01000000
00000000
,
10000000
00010000
00100000
00001000
00010000
00000000
00011000
00000000
,
00010000
00000100
00001000
00000000
00000010
00001000
00000100
00000000
,
00000010
00000001
00001000
00000010
00002000
00000000
00003000
00000000
,
00000001
00000001
00000100
00000100
00001000
00001000
00010000
00010000
,
00100000
00100000
10000000
10000000
00010000
00010000
10000000
10000000
,
01000000
00100000
00010000
00100000
00001000
00010000
00000100
00001000
,
00000001
00000000
00000100
00000000
00000010
00000000
00000100
00000000
00001000
00000000
00010000
00000000
00001000
00010000
00001000
00010000
,
00002000
00000000
00000000
00003000
,
00001000
00000000
00001000
01000000
00100000
00000000
10000000
01000000
,
00100000
00000000
10010000
00000000
10000000
01000000
00100000
00001000
,
00020000
00000000
00100000
00000000
00031000
00010000
00000100
00000010
,
00000002
00000000
00000103
00000010
00002000
00000000
00003100
00000010
,
00001000
00000000
00001000
00010000
01000000
00000000
01100000
00000000
,
10000000
00000000
10000000
00010000
00100000
00000000
00101000
00000000
,
00001000
00010000
00000100
00001000
00000000
00001000
00000010
00000100
,
00000001
00000000
00000001
00000010
00000100
00001000
00000001
00000100
,
00000010
00000000
00000000
00000010
00010000
00000000
00000000
00010000
00001000
00000000
00000000
00001000
00100000
00000000
00000000
00100000
,
00010000
00000000
10000000
00000000
01000000
00000000
00100000
00000000
00000000
00000000
00100000
00000000
00001000
00010000
00001000
00000000
,
00010000
00000100
00000100
00001000
00000010
00000100
00000100
00000001
,
00000100
00001000
00010000
00010000
00001000
00000000
00011000
00000000
,
00000000
00000000
00000000
00000000
;
#NOTES:
     dance-double:
     :
     Challenge:
     17:
     :
00000000
00000000
00000000
00000000
,
00000000
00000000
00000000
00000000
,
00000000
00000000
00000000
00000000
,
00000000
00000000
00000000
00000000
,
00000000
00000000
00000000
00000000
,
00000000
00000000
00000000
00000000
,
00001000
00010000
00001000
00000000
00010000
00001000
00100000
00010000
00100000
00000000
00010000
00100000
01000000
10000000
00010000
00000000
,
20000000
00000000
32000000
00000000
03020000
00000000
00032000
00000000
00003010
00000100
00000010
00000001
00000010
00000100
00000010
00000000
,
00000001
00000100
00000001
00000100
00000010
00001000
00000010
00001000
00000010
00010000
00001000
00010000
00001000
01000000
00010000
01000000
,
00010000
10000000
01000000
00100000
00010000
10000000
00010000
10000000
00000000
00000000
10000000
00000000
01000000
00010000
00001000
00000000
,
00020000
00000000
00000000
00000000
00130000
00000000
01000000
00001000
00020000
00000000
00000000
00000000
00031000
00000000
00000010
00000100
,
00020000
00000000
00000000
00000000
00032000
00000000
00000000
00000000
00013000
00000000
00001000
00000000
00000100
00000010
00000100
00000010
,
00002000
00000000
00000000
00000000
00003002
00000000
00000000
00000000
00000013
00000000
00000100
00010000
00000100
00000000
00010000
00000000
,
00001000
00000000
00100000
00010000
00100000
00010000
01000000
00010000
01000000
00000000
00100000
10000000
00100000
10000000
01000000
10000000
,
01000000
00000000
00100000
00010000
00100000
00001000
00010000
00001000
00010000
00000000
00000100
00001000
00000010
00001000
00000010
00001000
,
00000200
00000000
00000302
00000000
00000203
00000000
00020300
00000000
00031000
00000100
00000010
00000000
00001000
00000100
00000010
00000001
,
00000100
00000000
00000100
00001000
00010000
00000000
00010000
00100000
10000000
00000000
00010000
01000000
00100000
00000000
01100000
00000000
,
20000000
00000000
30200000
00000000
00320000
00000000
00032000
00000000
00003100
00000001
00000010
00000100
00001000
00000001
00000100
00000000
,
00000002
00000000
00000023
00000000
00002030
00000000
00023000
00000000
01030000
10000000
00100000
01000000
00010000
10000000
01000000
00000000
,
10000000
00100000
10000000
00000000
00100000
00010000
00100000
00000000
00010000
00001000
00010000
00000000
00001000
00000100
00001000
00000000
,
00000100
00000001
00000100
00000000
00000001
00000010
00000001
00000000
00000010
00001000
00000010
00000000
00001000
00010000
00001000
00000000
,
00010000
01000000
00100000
01000000
00010000
00000000
00001000
00000100
00000010
00000100
00001000
00010000
00001000
00000000
00010000
01000000
,
00100000
00010000
01000000
00100000
00010000
00000000
00001000
00000100
00000010
00001000
00000100
00000010
00001000
00000000
00010000
00100000
,
10000000
00000000
10010000
00000000
00010000
00100000
00010000
00100000
00001000
00010000
00001000
00010000
00000100
00001000
00000100
00001000
,
00000001
00000100
00000010
00001000
00010000
01000000
00100000
10000000
00010000
00000000
10010000
00000000
10000000
01000000
00100000
00010000
,
20000000
00000000
00000000
30000000
,
00020000
00000000
00000000
00030000
,
00002000
00000000
00000000
00003000
,
00000002
00000000
00000000
00000003
,
00000001
00000000
00000011
00000000
00000010
00000001
00000100
00000010
00001000
00000100
00010000
00000100
00001000
00000000
00000010
00000100
,
00001000
00000000
00011000
00000000
00010000
00001000
01000000
00010000
01000000
00001000
00010000
01000000
10000000
00000000
00100000
10000000
,
01000000
00000000
01100000
00000000
00100000
00001000
00010000
00001000
00100000
00000000
00001000
00010000
00000100
00000000
00001000
00000100
,
00000010
00000000
00000000
00000000
00000000
00000000
00000001
00000000
00000000
00001000
00000000
00000000
00000001
00000000
00000000
00000000
00000000
00000000
00001000
00000000
00000000
00000000
00000000
00000000
00000010
00000000
00000000
00000000
00000000
00000000
00000100
00000000
00000010
00000000
00000100
00000000
00000010
00000000
00000000
00000000
00000000
00000000
00000100
00000000
00000000
00000001
00000000
00000000
,
00000010
00000000
00000100
00000000
00010000
00000000
00000100
00000000
00000010
00000000
00000001
00000100
00001000
00010000
00100000
10000000
,
01000000
00000000
00010000
00000000
00001000
00000000
00010000
00000000
01000000
00000000
10000000
00100000
00010000
00000000
00011000
00000000
,
00001000
00000000
00000000
00000010
00000001
00000000
00000001
00000000
00002000
00000000
00000000
00000000
00003002
00000000
00000000
00000000
,
00000103
00000000
00000000
00000000
00000000
00000000
00000000
00000000
00000000
00000100
00000000
00000000
00001000
00000000
00000000
00000000
00000000
00000000
00010000
00000000
00000000
00000000
00000000
00000000
00001000
00000000
00100000
00000000
00001000
00000000
00100000
00000000
00001000
00000000
00100000
00000000
00010000
00000000
00100000
00000000
00010000
00000000
00100000
00000000
00010000
00000000
00100000
00000000
,
00010000
00000000
00100000
01000000
10000000
00000000
00100000
01000000
00010000
00000000
10000000
01000000
00010000
00001000
00000010
00000001
,
00001000
00000000
00000010
00000100
00000001
00000000
00000010
00000100
00001000
00000000
00000001
00000100
00001000
00010000
00100000
10000000
,
00010000
00101000
00010000
01001000
00001000
00010010
00001000
00010100
,
00010000
00000100
00001000
00000010
00000100
00000001
00000010
00000001
00001000
00000000
00000100
00010000
00001000
00000000
00001000
00010000
,
00200000
00000000
20300000
00000000
,
30010000
00000000
00000000
10000000
01000000
00100000
00010000
00000000
00000000
00100000
00001000
00010000
00001000
00000000
00000000
00010000
00001000
00010000
00000100
00000000
00000000
00001000
00000100
00000010
,
00000002
00000000
00002003
00000000
,
00003010
00000000
00000000
00000000
00000110
00000000
00000001
00001000
00000001
00000010
00000100
00001000
00000010
00000100
00001000
00010000
,
00001000
00000000
00011000
00000000
00010000
00001000
00100000
01000000
00010000
00001000
01000000
00100000
00010000
00001000
00100000
01000000
,
00010000
00000000
00001000
00001000
00010000
00000010
00000100
00001000
00010000
00010000
00000100
00000100
00001000
00000000
00000010
00000000
,
00000200
00000000
00000000
00000000
00000300
00000000
00000100
00000001
00001000
00000100
00000000
00000000
00001000
00001000
00000100
00000100
,
00020000
00000000
00000000
00000000
00000000
00000000
00000000
00000000
00000000
00000000
00000000
00000000
00030000
00000000
00000000
00000000
00000000
00000000
00001000
00000000
00000000
00001000
00000000
00000000
00100000
00000000
00000000
00000000
00000000
00000000
00010000
00000000
00100000
00000000
00010000
00000000
10000000
00000000
01000000
00000000
10000000
00000000
00010000
00000000
10000000
00000000
00010000
00000000
,
10000000
10000000
11000000
11000000
01100000
01100000
00101000
00101000
,
00011000
00011000
00010010
00010010
00001010
00001010
00001001
00001001
,
00000001
00000000
00000010
00000001
00000010
00000000
00000100
00000000
00001000
00000100
00001000
00000000
00000100
00000000
00010000
00001000
00010000
00000000
00001000
00000000
00100000
00010000
00100000
00000000
,
00010000
10000000
00010000
10000000
00010000
10000000
00100000
01000000
00100000
01000000
00100000
01000000
00100000
00000000
00000000
01100000
00000000
00000000
00010000
01000000
00010000
01000000
00001000
00010000
,
00002000
00000000
00000000
00003000
,
00010000
00000000
00000000
00001000
00000000
00000000
00010000
00000100
00001000
00000100
00001000
00000100
00000010
00000000
00000000
00000001
00000010
00000100
00001000
00000100
00001000
00000100
00010000
00001000
,
00010000
00000000
00000000
00001000
01000000
00001000
01000000
00010000
01000000
00010000
10000000
00100000
10000000
00000000
00000000
00100000
01000000
00100000
01000000
00010000
01000000
00010000
01000000
00001000
,
00010000
00000000
00000000
00000100
00010000
00000100
00001000
00000100
00001000
00000001
00001000
00000100
00000010
00000000
00000000
00000001
00000010
00000001
00000010
00000100
00001000
00000100
00010000
00001000
,
00010000
00000000
00000000
00001000
00100000
00001000
00100000
00010000
00100000
01000000
00100000
00010000
00100000
00000000
00000000
00001000
00010000
00001000
00010000
00000010
00001000
00000010
00001000
00000001
,
00000020
00000030
00000010
00000001
00001000
00000000
00001001
00000000
,
00000002
00000003
00000001
00000100
00001000
00000000
00011000
00000000
,
00001000
00010000
00100000
01100000
00000000
01000000
00100000
00010000
,
00001000
00000100
00000010
00001000
00000100
00000010
00000001
00000100
00000010
00001000
00000100
00010000
00001000
00100000
00010000
01000000
,
00100000
00000000
00100000
10000000
01000000
00000000
01000000
00010000
00001000
00000000
00001000
00000010
00000001
00000000
00001001
00000000
,
00001000
00000010
00000100
00001000
00010000
00100000
01000000
00010000
00100000
00001000
00100000
00001000
00010000
00000100
00010000
00001000
,
00010000
00000000
00001000
00010000
01000000
00100000
00001000
00010000
00001000
00000000
00010000
00001000
00000100
00000010
00001000
00000100
,
00010000
00001000
00010000
00001000
00100000
00010000
00100000
01000000
10000000
00000000
00000000
00000000
10010000
00000000
00000000
00000000
,
00000000
00000000
00000000
00000000
;
