
//----- song ID: ohch -----//
#TITLE:おひさし中華街!;
#ARTIST:諸星なな feat.加藤はるか;
#TITLETRANSLIT:Ohisashi chuukagai!;
#ARTISTTRANSLIT:Nana Moroboshi feat. Haruka Kato;
#BANNER:Ohisashi chuukagai!.png;
#BACKGROUND:Ohisashi chuukagai!-bg.png;
#CDTITLE:./CDTitles/DDR WORLD.png;
#MUSIC:Ohisashi chuukagai!.ogg;
#SAMPLESTART:64.495;
#SAMPLELENGTH:15;
#BPMS:0=140;
#NOTES:
     dance-single:
     :
     Beginner:
     1:
     :
0000
0000
0000
0000
,
0000
0000
0000
0000
,
0000
0000
0000
0000
,
0000
0000
0000
0000
,
0000
0000
0000
0000
,
0000
0000
0000
0000
,
0001
0000
0000
0000
,
0000
0000
0000
0000
,
0010
0000
0000
0000
,
0000
0000
0000
0000
,
0010
0000
0000
0000
,
0000
0000
0000
0000
,
1000
0000
0000
0000
,
0000
0000
0000
0000
,
1000
0000
0000
0000
,
0000
0000
0000
0000
,
1000
0000
0000
0000
,
0000
0000
0000
0000
,
0010
0000
0000
0000
,
0000
0000
0000
0000
,
0010
0000
0000
0000
,
0000
0000
0000
0000
,
0001
0000
0000
0000
,
0001
0000
0000
0000
,
0100
0000
0000
0000
,
0000
0000
0000
0000
,
0001
0000
0000
0000
,
0001
0000
0000
0000
,
0010
0000
0000
0000
,
0000
0000
0000
0000
,
0010
0000
0000
0000
,
0000
0000
0000
0000
,
0100
0000
0000
0000
,
0000
0000
0000
0000
,
0010
0000
0000
0000
,
0010
0000
0000
0000
,
1000
0000
0000
0000
,
0000
0000
0000
0000
,
1000
0000
0000
0000
,
1000
0000
0000
0000
,
0010
0000
0000
0000
,
0000
0000
0000
0000
,
0010
0000
0000
0000
,
0010
0000
0000
0000
,
0001
0000
0000
0000
,
0000
0000
0000
0000
,
0001
0000
0000
0000
,
0001
0000
0000
0000
,
0100
0000
0000
0000
,
0000
0000
0000
0000
,
0010
0000
0000
0000
,
0010
0000
0000
0000
,
0010
0000
0000
0000
,
0000
0000
0000
0000
,
1000
0000
0000
0000
,
0000
0000
0000
0000
,
0010
0000
0000
0000
,
0000
0000
0000
0000
,
0001
0000
0000
0000
,
0000
0000
0000
0000
,
0010
0000
0000
0000
,
0000
0000
0000
0000
,
1000
0000
0000
0000
,
0000
0000
0000
0000
,
0100
0000
0000
0000
,
0001
0000
0000
0001
,
0000
0000
0000
0000
;
#NOTES:
     dance-single:
     :
     Easy:
     4:
     :
0000
0000
0000
0000
,
0000
0000
0000
0000
,
0000
0000
0000
0000
,
0000
0000
0000
0000
,
0000
0000
0000
0000
,
0000
0000
0000
0000
,
0001
0000
0001
0010
,
0001
0000
0001
1000
,
0200
0000
0000
0300
,
0010
0010
0010
0000
,
1001
0000
0000
0000
,
1000
0100
0010
0000
,
1001
0000
0000
0000
,
0001
0100
0010
0000
,
2000
0000
0000
0000
,
3000
0000
0000
0000
,
0002
0000
0000
0000
,
0003
0000
0000
0000
,
0001
0100
0010
0000
,
0010
1000
0010
0000
,
1000
0100
0010
0000
,
0010
0001
0010
0000
,
0001
0000
1000
0000
,
0100
0010
0100
0000
,
1000
0000
0001
0000
,
0100
0010
0100
0000
,
0001
0000
0100
0000
,
0010
1000
0010
0000
,
0110
0000
0000
0000
,
1001
0000
0000
0000
,
0020
0000
0000
0000
,
0030
0000
0000
0000
,
0200
0000
0000
0000
,
0300
0000
0000
0000
,
0110
0000
0000
0000
,
1001
0000
0000
0000
,
1000
0100
0010
0001
,
1000
0000
0000
0000
,
0001
0000
0100
0000
,
0001
1000
0001
0000
,
1000
0000
0100
0000
,
1000
0001
1000
0000
,
0001
0010
0010
0000
,
0001
0100
0100
0000
,
0001
0000
1000
0000
,
1001
0000
0000
0000
,
1000
0000
0010
0000
,
1000
0001
1000
0000
,
0001
0000
0010
0000
,
0001
1000
0001
0000
,
1000
0100
0010
0000
,
0001
0100
0010
0000
,
1000
0000
0001
0000
,
1001
0000
0000
0000
,
1000
1000
0010
0000
,
0100
0100
0001
0000
,
1000
0000
0001
0000
,
1000
0001
1000
0000
,
0001
0001
0010
0000
,
0100
0100
1000
0000
,
1000
0000
0001
0000
,
1000
0001
1000
0000
,
1001
0000
0000
0000
,
0000
0000
0000
0000
,
0110
0000
0000
0000
,
0001
1000
0010
0100
,
0000
0000
0000
0000
;
#NOTES:
     dance-single:
     :
     Medium:
     9:
     :
0000
0000
0000
0000
,
0000
0000
0000
0000
,
0000
0000
0000
0000
,
0000
0000
0000
0000
,
0000
0000
0000
0000
,
0000
0000
0000
0000
,
0001
0000
0010
0000
0001
0100
0001
0000
,
1000
0000
0010
0000
1000
0100
1000
0000
,
0000
2000
3200
0320
,
0032
0000
0000
0003
,
0001
0010
0001
0000
1000
0010
1000
0000
,
0001
0100
0001
0000
1000
0100
1000
0000
,
0002
0023
0230
2300
,
3001
1000
1001
0000
,
0001
0000
0000
0000
0000
0000
0000
0001
,
1000
0000
0000
0000
0000
0000
0000
1000
,
0010
0000
0000
0000
0000
0000
0000
0010
,
0100
0000
0001
0000
1000
0001
1000
0000
,
0010
0000
0100
0000
0001
1000
0001
0000
,
0100
0000
0010
0000
1000
0001
1000
0000
,
0001
0000
0100
0000
0010
1000
0010
0000
,
1000
1000
0001
0000
,
0001
0000
0100
0000
0010
1000
0100
0000
,
0010
0010
0110
0000
,
1000
0000
0100
0000
0010
0001
0100
0000
,
0010
0010
0110
0000
,
1000
0000
0010
0000
0100
0001
0010
0000
,
0001
0001
1001
0000
,
0001
0000
0000
0011
0000
0000
0000
0000
,
1000
0000
1000
0000
0001
0001
0001
0000
,
2000
0000
3000
0000
,
0100
0100
0100
0000
,
0020
0000
0030
0000
,
0001
0001
0001
0000
,
0001
0100
0010
1000
0010
0000
0010
0000
,
1000
0100
0010
0001
0010
0000
0010
0000
,
0001
0000
0100
0000
1000
0100
0001
0000
,
1000
1000
0001
0000
1000
0000
0000
0000
,
0001
0000
0000
0010
0000
0000
0001
0000
0010
0000
0000
0100
0000
0000
0010
0000
,
0100
0000
0000
1000
0000
0000
0100
0000
0000
0000
1000
0000
0100
0000
0000
0000
,
1000
0000
0000
0010
0000
0000
1000
0000
0010
0000
0000
0100
0000
0000
0010
0000
,
0100
0000
0000
0001
0000
0000
0100
0000
0000
0000
0001
0000
0100
0000
0000
0000
,
0002
0000
0103
0000
0010
1000
1000
0000
,
2000
0000
3100
0000
0010
0001
0001
0000
,
1000
0000
0100
0000
0001
0100
1000
0000
,
0001
0001
1000
0000
0001
0000
0000
0000
,
1000
0000
0000
0001
0000
0000
1000
0000
0001
0000
0000
0100
0000
0000
0001
0000
,
1000
0000
0000
0010
0000
0000
1000
0000
0000
0000
1000
0000
0001
0000
0000
0000
,
0000
1001
1000
0100
,
0010
0001
0100
0000
0010
1000
0100
0000
,
1000
0000
0010
0000
0100
0001
0100
0000
,
0001
0010
0001
1000
0010
0000
0110
0000
,
2000
3010
0200
0301
,
0011
1010
1001
0000
,
0001
1000
0100
0000
0010
0000
0100
0000
,
1000
0001
0100
0000
0010
0000
0100
0010
,
0000
0010
0100
0000
0001
0000
0001
0000
,
2000
3000
0002
0003
,
1000
0001
0010
0000
0100
0000
0010
0000
,
0001
1000
0010
0000
0100
0000
0000
0110
,
0000
0000
0000
1001
0000
0000
0000
0000
,
0001
1000
1001
0000
,
1000
0000
0000
0000
0000
0000
0000
1000
,
0001
0000
0000
0000
0000
0000
0000
0001
,
0010
0000
0000
0000
,
0001
0000
0000
1000
0000
0000
0100
0000
0000
0000
1000
0000
0001
0000
1000
0000
,
0000
0000
0000
0000
;
#NOTES:
     dance-single:
     :
     Hard:
     12:
     :
0000
0000
0000
0000
,
0000
0000
0000
0000
,
0000
0000
0000
0000
,
0000
0000
0000
0000
,
0000
0000
0000
0000
,
0000
0000
0000
0000
,
1000
0000
0001
0000
0010
0100
0000
0100
1000
0000
0001
0000
1000
0000
0000
0000
,
0000
0000
1000
0000
0001
0100
0000
0100
0010
0000
1000
0000
0010
0000
1000
0000
,
0000
0000
1000
0000
1001
0000
0000
0000
0011
0000
0000
0010
0000
0000
0220
0000
,
0000
0000
0000
0330
,
1000
0100
0001
0100
1000
1000
0001
0000
,
0001
0000
0100
0000
1000
0000
0100
0000
0001
0000
0000
1000
0000
0000
0001
0000
,
0010
0001
0100
0010
1000
0100
0010
0000
,
0001
0000
1000
0001
0000
1000
0000
0002
0000
0000
0000
0000
0003
0000
0000
0000
,
0011
0000
0000
0000
0000
0000
0000
1000
,
1010
0000
0000
0000
0000
0000
0000
0001
,
0101
0000
0000
0000
0000
0000
0000
1000
,
0100
0000
0000
1000
0000
0000
0010
0000
0000
0000
0010
0000
0100
0000
0100
0000
,
0001
1000
0100
1000
0010
0100
0001
0000
,
1000
0001
0100
0001
0010
0100
1000
0000
,
0001
0010
0001
0010
1000
0010
1000
0010
,
0001
0000
0000
0100
0000
0000
0110
0000
0000
0000
1000
0000
0000
0000
0001
0000
,
1000
0000
0000
0100
0000
0000
0100
0000
0010
0000
0000
0001
0000
0000
0001
0000
,
0100
0000
0000
0010
0000
0000
1000
0000
0010
0000
0000
0000
0010
0000
1000
0000
,
0100
0000
0000
0010
0000
0000
0010
0000
1000
0000
0000
0010
0000
0000
0010
0000
,
0001
0000
1000
0001
0000
0000
0001
0000
0100
0000
0000
0100
0000
0000
0100
0000
,
0001
0000
0000
1000
0000
0000
1000
0000
0010
0000
0000
1000
0000
0000
1000
0000
,
0100
0000
0000
0001
0000
0000
0100
0000
1000
0000
0000
0000
1000
0000
0100
0000
,
0010
0001
0000
0010
0000
0000
0001
0010
0000
0001
0000
0000
0001
0000
1000
0000
,
0000
0000
0100
0000
0100
0010
0000
0100
0010
0000
0010
0000
0110
0000
0000
0000
,
2000
0000
3200
0000
0320
0000
0031
1000
,
0000
1000
0010
0100
0002
0000
0003
0000
,
0002
0000
0203
0000
0320
0000
1030
0100
,
0000
0100
1000
0010
0200
0000
0300
0000
,
0001
0100
0010
1000
0001
0010
0100
1000
,
0001
0010
0100
0010
1000
0010
0100
0010
,
0001
0001
0100
0100
0010
0010
1000
1000
,
0001
0100
0001
0000
1000
0000
0001
0000
1001
0000
0000
0000
0000
0000
0000
0000
,
1000
0000
0010
1000
0000
0000
0010
0000
0100
0000
0001
0100
0000
0000
0001
0000
,
1000
0000
0100
0010
0000
0000
0100
0000
0010
0000
0001
0000
0101
0000
0000
0000
,
0001
0000
0010
0001
0000
0000
0010
0000
0100
0000
1000
0100
0000
0000
1000
0000
,
0001
0000
0100
0010
0000
0000
0100
0000
0010
0000
1000
0000
0100
0000
1000
0000
,
0001
0000
0100
0010
0000
1000
0001
0000
0200
0000
0010
0000
0310
0000
0000
0000
,
1000
0000
0100
0010
0000
0001
1000
0000
0200
0000
0010
0000
0310
0000
0000
0000
,
0001
0010
1000
0010
0001
0100
1000
0100
,
0001
0010
0001
0000
1000
0000
0001
0000
1001
0000
0000
0000
0000
0000
0000
0000
,
0001
0000
0100
0001
0000
0000
0100
0000
0010
0000
1000
0010
0000
0000
1000
0000
,
0001
0000
0010
0100
0000
0000
0010
0000
0100
0000
1000
0000
0010
0000
1000
0000
,
0000
0000
0000
0000
1001
0000
0000
0000
1000
0000
0001
0010
0000
0000
0001
0000
,
0101
0110
1010
1001
,
1000
0000
0010
0000
0100
0000
0010
0000
1000
0000
0000
1000
0000
0000
1000
0000
,
0001
0000
0010
0000
0100
0000
1000
0000
0010
0000
0100
0001
0000
1000
0000
0000
,
0002
0103
2000
3100
,
0001
0010
0001
1000
0010
1000
0001
0000
0000
0000
0000
0000
,
1000
0100
1000
0010
1000
0100
0001
0100
,
1000
0000
0010
0100
0010
0000
0100
0000
0001
0000
1000
0001
0000
0000
1001
0000
,
0000
0000
0001
0000
0010
0000
0100
0000
0001
0000
0000
0100
0000
0000
1000
0000
,
0000
0010
1000
0200
0000
0010
0310
0000
,
0001
0010
0001
0100
0001
0010
1000
0010
,
0001
0000
0100
0010
0100
0000
0010
0000
1000
0000
0000
0001
0000
0000
1001
0000
,
0000
0000
0000
0110
0000
0000
0000
0002
,
0000
1003
0010
0001
0020
0100
0130
0000
,
0110
0000
0000
0000
0000
0000
0000
1000
,
1001
0000
0000
0000
0000
0000
0000
0001
,
0011
0000
0000
0000
0000
0000
0000
1000
,
1100
0000
0000
0100
0000
0000
0110
0000
0000
0000
0001
0000
1000
0000
0001
0000
,
0000
0000
0000
0000
;
#NOTES:
     dance-double:
     :
     Easy:
     4:
     :
00000000
00000000
00000000
00000000
,
00000000
00000000
00000000
00000000
,
00000000
00000000
00000000
00000000
,
00000000
00000000
00000000
00000000
,
00000000
00000000
00000000
00000000
,
00000000
00000000
00000000
00000000
,
00001000
00000000
00010000
00001000
,
01000000
00000000
00010000
10000000
,
00200000
00000000
00000000
00300000
,
10000000
00000000
00010000
00000000
,
10010000
00000000
00000000
00000000
,
10000000
01000000
00100000
00001000
,
00010000
00000000
00000000
00000000
,
00010000
00001000
00010000
00000010
,
00002000
00000000
00000000
00000000
,
00003000
00000000
00000000
00000000
,
00000002
00000000
00000000
00000000
,
00000003
00000000
00000000
00000000
,
00000001
00000100
00000010
00000000
,
00001000
00000100
00000010
00000000
,
00000001
00001000
00000100
00010000
,
00001000
00000000
00000000
00000000
,
00001000
00000000
00011000
00000000
,
00010000
00001000
00100000
00000000
,
00010000
00000000
10010000
00000000
,
10000000
01000000
00100000
00000000
,
00100000
00001000
00100000
00000000
,
00001000
00010000
00001000
00000000
,
00010000
00000000
00000100
00000000
,
00001000
00000001
00001000
00000000
,
00000020
00000000
00000000
00000000
,
00000030
00000000
00000000
00000000
,
00000200
00000000
00000000
00000000
,
00000300
00000000
00000000
00000000
,
00001001
00000000
00000001
00000000
,
00000100
00000000
00001000
00000000
,
00010000
00001000
00010000
00000000
,
00011000
00000000
00000000
00000000
,
00010000
00000000
00001000
00000000
,
01000000
00010000
01000000
00000000
,
00100000
00000000
10000000
00000000
,
00010000
00100000
00010000
00000000
,
00100000
00000000
00001000
00000000
,
00010000
00001000
00010000
00000000
,
00001000
00000000
00010000
00000000
,
00000100
00000000
00000100
00000000
,
00000010
00000000
00000001
00000000
,
00000100
00000010
00001000
00000000
,
00000010
00000000
00010000
00000000
,
00001000
00010000
00001000
00000000
,
00011000
00000000
00000000
00000000
,
00011000
00000000
00000000
00000000
,
00010000
00001000
01000000
00010000
,
10000000
00000000
00000000
00000000
,
10000000
10000000
00010000
00000000
,
00100000
00100000
00001000
00000000
,
00010000
00010000
00000100
00000000
,
00000010
00000000
00000000
00000000
,
00000001
00000001
00001000
00000000
,
00000010
00000010
00010000
00000000
,
00001000
00000000
01000000
00000000
,
00100000
00100000
10000000
00000000
,
10010000
00000000
00000000
00000000
,
00000000
00000000
00000000
00000000
,
01100000
00000000
00000000
00000000
,
10000000
01000000
00010000
00001000
,
00000000
00000000
00000000
00000000
;
#NOTES:
     dance-double:
     :
     Medium:
     9:
     :
00000000
00000000
00000000
00000000
,
00000000
00000000
00000000
00000000
,
00000000
00000000
00000000
00000000
,
00000000
00000000
00000000
00000000
,
00000000
00000000
00000000
00000000
,
00000000
00000000
00000000
00000000
,
00010000
00000000
00001000
00000000
00010000
00000010
00010000
00000000
,
00000010
00000000
00001000
00000000
00000100
00000010
00000100
00000000
,
00000000
00000110
00001001
00000000
,
00000001
00000000
00000100
00000000
00001000
00010000
00001000
00000000
,
00010000
00000000
00001000
00000000
00100000
00010000
00100000
00000000
,
00010000
00000000
01000000
00000000
00100000
10000000
00100000
00000000
,
20000000
32000000
03200000
00302000
,
00013000
00001000
00011000
00000000
,
00010000
00000000
00000000
00000000
00000000
00000000
00000000
00010000
,
00000100
00000000
00000000
00000000
00000000
00000000
00000000
00000100
,
00001000
00000000
00000000
00000000
00000000
00000000
00000000
00001000
,
00000001
00000100
00000110
00000000
,
00000001
00000000
00000010
00000000
00000100
00000010
00000100
00000000
,
00000010
00000000
00001000
00000000
00010000
00001000
00010000
00000000
,
00001000
00100000
00010000
01000000
,
00100000
10000000
00100000
00000000
01000000
00000000
00000000
00000000
,
00010000
00000000
10000000
00000000
01000000
00100000
01000000
00000000
,
00010000
00001000
00010000
00000000
,
00010000
00000000
00000100
00000000
00001000
00000010
00001000
00000000
,
00000100
00000010
00000001
00000000
,
00000001
00000000
00000100
00000000
00000001
00000010
00000100
00000000
,
00001000
00000100
00010000
00001000
,
00010000
00011000
00001000
00011000
,
00010000
00001000
00010000
00000000
00001000
00010000
00001000
00000000
,
00200000
00000000
00300000
00000000
,
00010000
10000000
00010000
00000000
,
02000000
00000000
03000000
00000000
,
00010000
01000000
00001000
00000000
,
00010000
00001000
00010000
00000000
00000100
00001000
00000100
00000000
,
00001000
00000010
00001000
00000000
00000001
00000100
00000001
00000000
,
00001000
00000000
00000100
00000000
00000010
00000001
00000100
00000000
,
00001000
00010000
00011000
00000000
,
00001000
00000000
00000000
00010000
00000000
00000000
00001000
00000000
01000000
00000000
00000000
00010000
00000000
00000000
01000000
00000000
,
00010000
00000000
00000000
00100000
00000000
00000000
00010000
00000000
00000000
00000000
10000000
00000000
01000000
00000000
00000000
00000000
,
10000000
00000000
00000000
00010000
00000000
00000000
10000000
00000000
00010000
00000000
00000000
00100000
00000000
00000000
00010000
00000000
,
00100000
00000000
00000000
00001000
00000000
00000000
00010000
00000000
00000000
00000000
00010000
00000000
00001000
00000000
00000000
00000000
,
00020000
00000000
00031000
00000000
00000010
00000100
00000010
00000000
,
00000002
00000000
00001003
00000000
00000010
00000100
00000010
00000000
,
00000100
00001000
00010000
00100000
,
10000000
00010000
10000000
00000000
10010000
00000000
00000000
00000000
,
10000000
00000000
00000000
00100000
00000000
00000000
10000000
00000000
00010000
00000000
00000000
01000000
00000000
00000000
00010000
00000000
,
00100000
00000000
00000000
00001000
00000000
00000000
00010000
00000000
00000000
00000000
00010000
00000000
00001000
00000000
00000000
00000000
,
00000000
00000000
00011000
00000000
00010000
00001000
00000010
00000000
,
00000002
00000023
00000230
00002300
,
00003001
00000100
00000010
00000000
00000100
00000010
00010000
00000000
,
00001000
00010000
00001000
01000000
00010000
00000000
01100000
00000000
,
20000000
30010000
00020000
00130000
,
00110000
00101000
00011000
00000000
,
00001000
00010000
00000010
00000000
00001000
00000000
00000100
00000000
,
00000010
00000001
00000100
00000000
00000010
00000000
00000100
00000000
,
00000001
00001000
00000100
00000000
00010000
00001000
00010000
00000000
,
00001000
00000000
00100000
00000000
00010000
00100000
01000000
00000000
,
10000000
00000000
00010000
00000000
01000000
00100000
01000000
00000000
,
00001000
00000000
00010000
00000000
00001000
00010000
00000100
00001000
,
00000000
00001000
00000100
00000010
00000000
00000010
00000001
00001000
,
00000000
00000001
00000100
00000000
00000110
00000000
00000000
00000000
,
00000001
00000000
00000000
00000000
00000000
00000000
00000000
00000001
,
00000100
00000000
00000000
00000000
00000000
00000000
00000000
00000100
,
00001000
00000000
00000000
00000000
,
00001000
00000000
00000000
00010000
00000000
00000000
00011000
00000000
00000000
00000000
00010000
00000000
00001000
00000000
00010000
00000000
,
00000000
00000000
00000000
00000000
;
#NOTES:
     dance-double:
     :
     Hard:
     12:
     :
00000000
00000000
00000000
00000000
,
00000000
00000000
00000000
00000000
,
00000000
00000000
00000000
00000000
,
00000000
00000000
00000000
00000000
,
00000000
00000000
00000000
00000000
,
00000000
00000000
00000000
00000000
,
00001000
00000000
00010000
00000000
00001000
00100000
00000000
00100000
00010000
00000000
01000000
00000000
00100000
00000000
00000000
00000000
,
10000000
00000000
01000000
00000000
00100000
00010000
00000000
00010000
00100000
00000000
00001000
00000000
00010000
00000000
00001000
00000000
,
00000000
00000000
00001000
00000000
00011000
00000000
00010000
00000000
00000100
00000000
00001000
00000010
00000000
00000000
00001000
00000000
,
00000000
00000000
00000000
00000000
00000001
00000000
00000100
00000000
00001000
00000000
00000100
00000001
00000000
00000000
00001000
00000000
,
00000001
00000010
00000100
00001000
00000010
00000100
00010000
00001000
,
00000010
00010000
00001000
00010000
00000010
00000100
00000010
00001000
,
00000010
00010000
00001000
01000000
00010000
00100000
00010000
01000000
,
00100000
00000000
10000000
00100000
00000000
10000000
00000000
00020000
00000000
00000000
00000000
00000000
00030000
00000000
00000000
00000000
,
00110000
00000000
00000000
00000000
00000000
00000000
00000000
10000000
,
11000000
00000000
00000000
00000000
00000000
00000000
00000000
00010000
,
01010000
00000000
00000000
00000000
,
10000000
00000000
00000000
01000000
00000000
00000000
00010000
00000000
00000000
00000000
00001000
00000000
00000010
00000000
00000000
00000000
,
00000001
00000100
00001000
00000100
00000001
00000010
00001000
00010000
,
01000000
00100000
00001000
00010000
01000000
00100000
00001000
00010000
,
00100000
10000000
01000000
10000000
00100000
00010000
00001000
00010000
,
00000100
00000000
00000000
00001000
00000000
00000000
00000010
00000000
00000000
00000000
00000110
00000000
00000000
00000000
00000100
00000000
,
00000001
00000000
00000000
00000001
00000000
00000000
00001000
00000000
00000010
00000000
00000000
00000010
00000000
00000000
00010000
00000000
,
00001000
00000000
00000000
01000000
00000000
00000000
00010000
00000000
00100000
00000000
00000000
00000000
01100000
00000000
00000000
00000000
,
10000000
00000000
00000000
10000000
00000000
00000000
00010000
00000000
00100000
00000000
00000000
00100000
00000000
00000000
00001000
00000000
,
00010000
00000000
00000000
00000100
00000000
00000000
00001000
00000000
00000010
00000000
00000000
00000100
00000000
00000000
00000010
00000000
,
00000100
00000000
00000000
00000001
00000000
00000000
00000010
00000000
00000100
00000000
00000000
00001000
00000000
00000000
00000010
00000000
,
00000100
00000000
00000000
00001000
00000000
00000000
00010000
00000000
00001000
00000000
00000000
00000000
00001000
00000000
00010000
00000000
,
00100000
01000000
00000000
01000000
00000000
00000000
00100000
10000000
00000000
10000000
00000000
00000000
00010000
00000000
10000000
00000000
,
00000000
00000000
10000000
00000000
01000000
00100000
00000000
00100000
00001000
00000000
00010000
00000000
00011000
00000000
00000000
00000000
,
00020000
00000000
00032000
00000000
00003020
00000000
00000031
00001000
,
00000000
00001000
00000100
00000001
00000200
00000000
00000310
00000000
,
00000002
00000000
00000203
00000000
00002300
00000000
00013000
00100000
,
00000000
00100000
10000000
01000000
20000000
00000000
30000000
00000000
,
10000000
00000000
01000000
00000000
00100000
00000000
00000000
00000000
00001000
00010000
00000000
00001000
00000000
00000000
00010000
00000000
,
00000100
00000000
00001000
00000000
00000010
00000000
00000000
00000000
00000100
00000001
00000000
00000100
00000000
00000000
00000000
00000000
,
00000001
00000100
00001000
00010000
00001000
00000010
00001000
00010000
,
00001000
00010000
00001000
00000000
00010000
00000000
00001000
00000000
00011000
00000000
00000000
00000000
00000000
00000000
00000000
00000000
,
00001000
00010000
01000000
00100000
00001000
00010000
00100000
01000000
,
10000000
01000000
00010000
01000000
00001000
00010000
00001000
00000010
,
00000001
00000100
00001000
00010000
00000010
00000100
00001000
00010000
,
00001000
00000010
00001000
00010000
00100000
00010000
00011000
00000000
,
00001000
00010000
00100000
10000000
00100000
00010000
00001000
00000000
,
00001000
00010000
01000000
10000000
01000000
00010000
00001000
00000000
,
00010000
00001000
00010000
00000100
00001000
00000010
00000100
00000001
,
00000010
00000100
00000010
00000000
00000001
00000000
00001000
00000000
00001001
00000000
00000000
00000000
00000000
00000000
00000000
00000000
,
00000001
00000100
00001000
00010000
00000100
00000010
00001000
00010000
,
01000000
00100000
00001000
00010000
00100000
01000000
00010000
10000000
,
00000000
00000000
10010000
00000000
10000000
01000000
00100000
00001000
,
00011000
00010000
00010100
00000000
00001100
00001000
00001010
00000000
,
00000010
00000000
00001000
00000000
00000100
00000000
00000010
00000000
00000001
00000000
00000000
00000001
00000000
00000000
00000001
00000000
,
00001000
00000010
00001000
00000100
00010000
00001000
00010000
00000000
,
00002000
01003000
02000000
03100000
,
00100000
10000000
00100000
01000000
00010000
01000000
00010000
00000000
00000000
00000000
00000000
00000000
,
10000000
01000000
00100000
00010000
10000000
01000000
00100000
00000000
,
00010000
00000000
10000000
00000000
01000000
00000000
00010000
00000000
00001000
00000000
00010000
00001000
00000000
00000000
00011000
00000000
,
00000000
00000000
00010000
00000000
00001000
00000000
00000010
00000000
00000001
00000000
00000000
00000100
00000000
00000000
00000110
00000000
,
00000000
00000010
00001000
00000200
00000000
00000010
00000310
00000000
,
00000010
00000001
00000100
00000001
00000010
00000100
00010000
00001000
,
00010000
00000000
00001000
01000000
00001000
00000000
01000000
00000000
00010000
00000000
00000000
00100000
00000000
00000000
01000000
00000000
,
00000000
01000000
10000000
00010000
00000000
00010000
01000000
00001000
,
00000000
00001000
00010000
00000010
00002000
00000001
00003001
00000000
,
00001001
00000000
00000000
00000000
00000000
00000000
00000000
00000001
,
00000011
00000000
00000000
00000000
00000000
00000000
00000000
00001000
,
00001100
00000000
00000000
00000000
,
00000001
00000000
00000000
00000100
00000000
00000000
00001000
00000000
00000000
00000000
00010000
00000000
00001000
00000000
00011000
00000000
,
00000000
00000000
00000000
00000000
;
