
//----- song ID: odys -----//
#TITLE:Ødyssey;
#ARTIST:Kaname;
#TITLETRANSLIT:Odyssey;
#BANNER:Odyssey.png;
#BACKGROUND:Odyssey-bg.png;
#CDTITLE:./CDTitles/DDR WORLD.png;
#MUSIC:Odyssey.ogg;
#SAMPLESTART:67.772;
#SAMPLELENGTH:15;
#BPMS:0=170;
#STOPS:140=0.176,155.5=0.176;
#BGSTAGE:15;
#NOTES:
     dance-single:
     :
     Beginner:
     3:
     :
0000
0000
0000
0000
,
0000
0000
0000
0000
,
0000
0000
0000
0000
,
0000
0000
0000
0000
,
0000
0000
0000
0000
,
0000
0000
0000
0000
,
0000
0000
0000
0000
,
0000
0000
0000
0000
,
0000
0000
0000
0000
,
0001
0000
0000
0000
,
0001
0000
0000
0000
,
0010
0000
0000
0000
,
0000
0000
0000
0000
,
1000
0000
0000
0000
,
1000
0000
0000
0000
,
0010
0000
0000
0000
,
0000
0000
0000
0000
,
1001
0000
0000
0000
,
0001
0000
0001
0000
,
0010
0000
0000
0000
,
0010
0000
0000
0000
,
1000
0000
0000
0000
,
1000
0000
1000
0000
,
0010
0000
0000
0000
,
0010
0000
0000
0000
,
0002
0000
0000
0000
,
0003
0000
0001
0000
,
0020
0000
0000
0000
,
0030
0000
0010
0000
,
0001
0000
0001
0000
,
0010
0000
0000
0000
,
1000
0000
0000
0000
,
0000
0000
0000
0000
,
1001
0000
0000
0000
,
1000
0000
1000
0000
,
0100
0000
0000
0000
0000
0000
0000
0010
,
0000
0000
0000
0100
0000
0000
0000
0010
,
0000
0000
0000
0000
0000
0000
0000
0010
,
0000
0000
0000
0010
0000
0000
0000
0001
,
0000
0000
0000
0001
,
0000
0001
0000
0010
,
0000
0000
0000
1001
,
0000
0000
0000
0100
,
0000
0000
0000
1001
,
0000
0000
0000
0001
,
0000
0001
0000
0010
,
0000
0000
0000
0010
,
0000
0010
0000
1000
,
0000
0000
0000
1000
,
0000
0010
0000
1000
,
0000
0000
0000
1000
,
0000
1000
0000
0100
,
0000
0000
0000
0020
,
0000
0000
0000
0030
,
0000
0000
0000
0010
,
0000
0010
0000
0001
,
0000
0000
0000
0001
,
0000
0010
0000
0001
,
0000
0000
0000
0001
,
0000
0001
0000
0100
,
0000
0000
0000
0020
,
0000
0000
0000
0030
,
0000
0000
0000
0010
,
0000
0010
0000
1000
,
0000
0000
0000
2000
,
0000
0000
0000
3000
,
0000
0000
0000
0020
,
0000
0000
0000
0030
,
0000
0000
0000
0200
,
0000
0000
0000
0300
,
0000
0000
0000
0002
,
0000
0000
0000
0003
,
0000
0000
0000
0001
,
0000
0001
0000
0100
,
0000
0000
0000
0100
,
0000
0100
0000
1000
,
0000
0000
0000
1000
,
0000
1000
0000
0010
,
0000
0000
0000
0010
,
0000
0010
0000
0001
,
0000
0000
0000
1001
,
0000
0000
0000
0000
;
#NOTES:
     dance-single:
     :
     Easy:
     7:
     :
0000
0000
0000
0000
,
0000
0000
0000
0000
,
0000
0000
0000
0000
,
0000
0000
0000
0000
,
0000
0000
0000
0000
,
0000
0000
0000
0000
,
0000
0000
0000
0000
,
0000
0000
0000
0000
,
0000
0000
0000
0000
,
0001
0000
0001
0000
,
0010
0000
0000
0000
,
0010
0000
0010
0000
,
0100
0000
0000
0000
,
1000
0000
1000
0000
,
0010
0000
0000
0000
,
0010
0100
0010
0100
,
0000
0000
0000
0000
,
1001
0000
0000
0000
,
0001
0000
0000
0000
0100
0000
0000
0110
,
0000
1000
0001
1000
,
0100
0100
0010
0010
,
0002
0000
0003
0000
,
1001
0000
0000
0000
0010
0000
0000
0110
,
0000
0000
0000
0000
,
1001
0000
0000
0000
,
1000
0100
1000
0000
,
1000
0010
1000
0000
,
0001
0010
0001
0000
,
0001
0100
0001
0000
,
1000
0100
0010
0001
,
1000
0100
0010
0001
,
1000
0000
0010
0000
0100
0010
0100
0000
,
0000
0000
0000
0000
,
1001
0000
0001
0100
,
0010
0100
0001
0000
,
1001
0000
0000
1001
0000
0000
0000
1000
,
0000
0100
0000
0010
0000
0000
0000
1001
,
0000
0000
0000
1000
0000
0010
0000
0100
,
0000
0001
0000
1000
0000
0000
0000
1001
,
0000
1001
0000
1000
,
0010
0000
1000
0001
1000
0000
0100
0000
,
0100
0100
0000
0010
,
0010
0010
0000
0001
,
1000
0001
1000
1001
,
0000
1001
0000
0001
,
0100
1000
0000
1000
,
0100
0001
0000
1000
,
0100
0010
0001
0010
,
0000
0000
0000
0001
,
0100
0001
0100
0010
,
1000
0100
1000
0010
,
0010
0100
0100
0110
,
0000
1001
0000
1000
,
0010
1000
0010
0100
,
0001
0010
0001
0100
,
0100
0010
0010
0110
,
0000
1001
0000
0001
,
0010
0100
1000
0010
,
0100
0001
1000
0100
,
0100
0010
0001
0011
,
0000
1100
0000
1000
,
0001
0000
0100
0010
0100
0000
0001
0000
,
0010
0100
1000
0010
,
0100
0000
0001
1000
0001
0000
1000
0000
,
0000
0000
0000
0002
,
0000
0000
0000
0003
,
0000
0100
0100
0020
,
0000
0000
0000
0030
,
0000
1000
1000
0200
,
0000
0000
0000
0300
,
0000
0010
0010
0002
,
0000
0000
0000
0003
,
0000
1000
1000
0010
,
0000
0100
0000
0001
,
0000
1000
1000
0100
,
0000
0010
0000
0001
,
0000
0010
0010
0200
,
0000
0000
0000
0300
,
0000
1000
1000
0020
,
0000
0000
0000
0030
,
0000
0100
0100
0000
,
0000
0000
0000
0000
;
#NOTES:
     dance-single:
     :
     Medium:
     12:
     :
0000
0000
0000
0000
,
0000
0000
0000
0000
,
0000
0000
0000
0000
,
0000
0000
0000
0000
,
0000
0000
0000
0000
,
0000
0000
0000
0000
,
0000
0000
0000
0000
,
0000
0000
0000
0000
,
0000
0000
0000
0000
,
0002
0000
0013
0000
,
0020
0000
0130
0000
,
2000
0000
3010
0000
,
0020
0000
0130
0000
,
0001
0000
0100
0000
0010
1000
0010
0000
,
1000
0000
0100
0000
0010
0001
0010
0000
,
0001
1000
0001
0000
0100
0010
0100
0010
,
0000
0000
0000
0000
,
2020
0000
3030
0000
,
1100
0000
0000
0000
0011
0000
0000
1001
,
0000
0000
0001
0100
1000
0000
0200
0000
,
0320
2030
3200
0320
,
0032
0000
0000
0000
0003
0000
0001
0100
,
0110
0000
0000
0000
1010
0000
0000
2002
,
0000
0000
0000
3003
,
2000
0000
0000
0000
3100
0010
0001
0000
,
1000
0000
1000
0000
1000
0100
0010
0000
,
0001
0000
0001
0000
0001
0100
0010
0000
,
1000
0010
0100
0000
0001
0010
0100
0000
,
1000
0100
0010
0000
0001
0100
0010
0000
,
1000
0100
0010
0001
1000
0100
0010
0000
,
0001
0100
0010
1000
0001
0100
0010
0000
,
1000
0100
0001
0100
1000
0001
0100
0010
,
0000
0000
0000
0000
,
1001
0000
1000
0010
0100
0001
0010
0000
,
0001
1000
0010
0100
0001
1000
0100
0010
,
0002
1003
0100
0001
0100
1000
0000
0001
,
0010
0100
1000
0001
0010
0100
0000
1000
,
0010
0100
0010
1000
0001
0010
0000
0100
,
1000
0100
1000
0001
0100
0001
0010
0002
,
1003
0010
0100
0001
1000
0000
0001
0010
,
1000
0000
1000
0010
0001
0000
1000
0000
,
0110
0000
0000
0000
0000
0000
0001
0000
0000
0001
0000
0000
0001
0000
0000
0000
0000
0000
1000
0000
0000
0000
1000
0000
,
0100
0000
0000
0010
0000
0010
0001
0000
0000
0001
0000
0000
,
0110
0000
0000
0000
0000
0000
1000
0000
0000
1000
0000
0000
1000
0000
0000
0000
0000
0000
0001
0000
0000
0000
0001
0000
,
0100
0000
0020
0000
0030
0000
1000
0010
,
1000
0000
0001
0100
0001
0000
0010
0001
,
0100
0000
0010
1000
0100
0000
0010
0001
,
0100
0010
1000
0100
0001
0100
0000
0000
,
0000
0000
0000
1000
,
1010
0000
0001
0000
0101
0000
1000
0010
,
0100
0001
1000
0001
0010
0100
1000
0000
,
1100
0000
0001
0000
0101
0000
1000
1000
,
0010
0000
0001
0001
0010
0000
0001
0000
,
0101
0000
1000
0000
1010
0000
0001
0100
,
0010
1000
0001
1000
0100
0010
0001
0000
,
0011
0000
1000
0000
1010
0000
0001
0001
,
0100
0000
1000
1000
0100
0000
0001
0010
,
0001
0010
0100
1000
0100
0000
1000
0010
,
0001
0000
0001
0010
1000
0000
0001
0100
,
0001
0010
0001
0100
0001
0000
0011
0000
,
0110
0000
1100
0000
1001
0000
0001
0100
,
0010
1000
0100
0001
0100
0000
1000
0001
,
0100
0010
0001
0010
1000
0000
0001
0100
,
0001
0000
0100
0000
0010
0000
1000
0000
0010
0000
1000
0000
0001
0000
0000
0001
,
0000
0000
1000
0000
0000
1000
0000
0000
0100
0000
0000
0000
0020
0000
0000
0000
,
0000
0000
0000
0000
0030
0000
0001
0100
,
0000
0001
1000
0000
1000
0000
0020
0000
,
0000
0000
0000
0000
0030
0000
1000
0100
,
0000
1000
0001
0000
0001
0000
0200
0000
,
0000
0000
0000
0000
0300
0000
0001
0010
,
0000
0001
1000
0000
1000
0000
0020
0000
,
0000
0000
0000
0000
0030
0000
1000
0010
,
0000
1000
0001
0000
0001
0000
2000
0000
,
0010
0000
0000
0100
0000
0000
3010
0100
,
0000
0010
0100
0000
0100
0000
0002
0000
,
0010
0000
0000
0100
0000
0000
0013
0100
,
0000
0010
0100
0000
0100
0000
2000
0000
,
0010
0000
0000
0001
0000
0000
3100
0010
,
0000
0001
0010
0000
0010
0000
0002
0000
,
0010
0000
0000
1000
0000
0000
0103
0010
,
0000
1000
0010
0000
1000
0010
0000
0000
,
0000
0000
0000
0000
;
#NOTES:
     dance-single:
     :
     Hard:
     14:
     :
0000
0000
0000
0000
,
0000
0000
0000
0000
,
0000
0000
0000
0000
,
0000
0000
0000
0000
,
0000
0000
0000
0000
,
0000
0000
0000
0000
,
0000
0000
0000
0000
,
0000
0000
0000
0000
,
0000
0000
0000
0000
,
0001
0000
1000
0000
,
0001
0000
1000
0000
,
0010
0000
0100
0000
,
0010
0000
0100
0000
,
0001
0010
0001
0000
0010
0100
0010
0000
,
0100
1000
0100
0000
1000
0001
1000
0000
,
0001
0100
0010
1000
0001
0100
0010
1000
,
0000
0000
0000
0000
0000
1000
0100
0010
,
0002
0000
2003
0000
,
3020
0000
0030
0000
0220
0000
0330
0202
,
0000
0303
0001
1000
0001
0010
0200
0000
,
2300
3020
0230
0302
,
2003
0000
0000
0000
3001
0010
0100
1000
,
0200
0000
0300
0000
0020
0000
0030
2002
,
0000
0000
0000
3003
,
1001
0000
0000
0000
0000
0000
0000
0000
1000
0001
1000
0001
1000
0000
0000
0000
,
0001
0100
0001
0100
0010
1000
0010
0000
,
1000
0100
1000
0100
0010
0001
0010
0000
,
0001
0100
1000
0100
0001
1000
0001
0000
,
1000
0100
0001
0100
1000
0001
1000
0000
,
0001
0100
0001
0000
0100
0000
0010
0000
1000
0000
0001
0000
1000
0000
0010
0000
,
1000
0100
1000
0000
0100
0000
0010
0000
0001
0000
1000
0000
0001
0000
0010
0000
,
0100
1000
0100
0000
1000
0001
1000
0000
0001
0100
0001
0000
0100
0010
0100
0000
,
0000
0000
0000
0000
,
1001
0000
0000
0000
1000
0100
0010
0000
0001
0000
0100
0000
0010
0000
1000
0000
,
0100
0010
0100
0000
0010
0001
0010
0000
0001
0000
0100
0000
0001
0000
0010
0000
,
0200
0000
0310
0000
0001
0000
1000
0010
1000
0000
0100
1000
0100
0000
1000
0000
,
0010
0110
0100
0001
0010
0110
0000
1001
,
0000
0000
0001
0010
0100
0000
1000
0000
0010
0000
0100
0000
0001
0000
0010
0100
,
0010
0000
0100
1000
0100
0000
1000
0000
0010
0000
1000
0000
0100
0000
0020
0000
,
0130
0000
1000
0000
0001
0100
0001
0000
0010
0001
0010
0000
0001
0000
0100
0000
,
0110
0010
1000
0100
0110
0000
1001
0000
,
0110
0000
0000
0000
0000
0000
0001
0000
0000
1000
0000
0000
0110
0000
0000
0000
0000
0000
1000
0000
0000
0000
0001
0000
,
0010
0000
0100
1000
0000
0001
0010
0000
0100
1000
0000
0000
,
0110
0000
0000
0000
0000
0000
1000
0000
0000
0001
0000
0000
0110
0000
0000
0000
0000
0000
1000
0000
0000
0000
1000
0000
,
0100
0000
0000
0000
0000
0000
0000
0000
0100
0000
0000
0000
0020
0000
0000
0000
0000
0000
0000
0000
0000
0000
0000
0000
0030
0000
0000
0000
0000
0000
0001
0000
0000
1000
0000
0000
0001
0000
0000
0000
0000
0000
0100
0000
0000
0000
0000
0000
,
0010
1000
0001
0100
0010
0000
1000
0001
,
0010
0000
0100
0000
1000
0000
0001
0000
0010
0000
0000
0000
0001
0100
0001
0000
,
1000
0010
1000
0000
0100
0010
0100
0000
1000
0001
1000
0000
0000
0000
0000
0000
,
0000
0000
0000
0000
0000
0000
0001
0100
,
0010
1000
0001
0010
0100
1000
0001
0010
,
1000
0000
0010
0000
0001
0000
1000
0000
0100
0000
0010
0000
0001
1000
0001
0000
,
0100
0000
0010
0000
1000
0001
1000
0000
0100
0000
0010
0000
0001
0000
0100
0000
,
0101
0000
1000
0100
1100
0000
1000
0010
,
0100
0001
1000
0100
0010
0001
1000
0100
,
0001
0000
0100
0000
1000
0000
0001
0000
0010
0000
0100
0000
1000
0001
1000
0000
,
0010
0000
0100
0000
0001
1000
0001
0000
0010
0000
0100
0000
1000
0000
0010
0000
,
1010
0000
1000
0001
1000
0000
0000
0001
0000
0000
0100
0000
0000
0000
0000
0000
,
0110
0000
0010
1000
0010
0000
0100
0000
0001
0000
0010
0000
0100
0000
1000
0001
,
1000
0010
0100
1000
0100
0001
0011
0010
,
0110
0000
1100
1000
1001
0000
0001
0100
,
1000
0000
0100
0000
0001
0000
0000
0001
0010
0000
0100
0000
1000
0010
0100
0000
,
0001
0000
0010
0000
0001
1000
0100
0000
0010
0000
0001
0000
0100
0001
0010
0000
,
0100
0000
1000
0000
0010
0100
0001
0000
0010
0000
0001
0000
1000
0010
1000
0000
,
0001
0100
0001
0000
0010
0100
1000
0000
0100
0010
0001
0000
1000
0000
0000
1010
,
0000
0000
0001
0000
0000
0011
0000
0000
0010
0100
0010
0000
0100
0000
0000
0000
,
1000
0100
0000
1000
0100
0000
0010
0001
,
0000
0010
0001
0000
1001
0000
0110
0000
,
0001
0100
0000
0001
0100
0000
0010
1000
,
0000
0010
1000
0000
0100
0010
0100
0000
,
1000
0010
0000
1000
0010
0000
0100
0001
,
0000
0100
0001
0000
1001
0000
0110
0000
,
0001
0010
0000
0001
0010
0000
0100
1000
,
0000
0100
1000
0000
0010
0100
0020
0000
,
0001
0100
1000
0230
,
1000
0302
0010
2003
,
0010
0000
0100
0000
0001
0000
3010
0100
,
0000
0100
0010
0000
0110
0000
0200
0000
,
1000
0010
0001
0320
,
0001
2030
0100
3002
,
0100
0000
0010
0000
1003
0000
0100
0010
,
0000
0010
0100
0000
0210
0010
0300
0000
,
0000
0000
0000
0000
;
#NOTES:
     dance-single:
     :
     Challenge:
     16:
     :
0000
0000
0000
0000
,
0000
0000
0000
0000
,
0000
0000
0000
0000
,
0000
0000
0000
0000
,
0000
0000
0000
0000
,
0000
0000
0000
0000
,
0000
0000
0000
0000
,
0000
0000
0000
0000
,
0000
0000
0000
0000
,
1000
0000
1000
0000
,
0100
0000
0100
0000
,
0010
0000
0010
0000
,
0001
0000
0001
0000
,
1000
0010
0100
0001
1000
0010
0100
0001
,
1000
0100
0010
0001
1000
0100
0010
0001
,
1000
0001
1000
0001
1000
0001
1000
0001
1000
0001
1000
0001
1000
0001
1000
0001
,
0000
0000
0000
0000
0000
0010
0100
0100
,
2002
0000
3003
0000
,
2020
0000
3030
0000
0202
0000
0303
0220
,
0000
0000
0330
2000
,
3002
0023
0230
0320
,
0032
0000
0000
0000
0000
0000
0000
0000
1003
0010
1000
0001
0100
0000
0001
0000
,
0020
0000
0030
0000
0220
0000
0330
2002
,
0000
0000
3003
0001
0010
0010
0100
0100
,
1001
0000
0000
0000
0000
0000
1000
0000
0001
0100
0010
1000
0001
0000
0010
0100
,
0010
0001
0010
0001
0100
0010
0100
0010
,
1000
0000
0100
0000
0001
0000
0100
0000
1000
0000
0001
0010
0001
0000
0100
0000
,
0010
0000
1000
0000
0100
0000
1000
0000
0010
0000
1000
0000
0100
0000
0010
0001
,
1000
0100
0010
0100
0001
0100
0010
0100
,
1000
0000
0010
0000
0100
0001
0100
0000
0001
0000
0010
0000
0100
1000
0100
0000
,
1000
0000
0010
0000
0100
0001
1000
0000
0100
0000
0010
0000
0001
1000
0010
0000
,
1000
0100
1000
0100
0010
0001
0010
0001
1000
0001
1000
0001
1000
0001
1000
0001
,
0000
0000
0000
0000
0000
0000
0000
0000
0000
0001
0010
0100
1000
0000
0000
0000
,
1001
0000
0000
0000
1000
0001
0010
0000
0001
0100
0010
1000
0010
0100
0010
0000
,
1000
0001
1000
0001
0100
0010
0100
0000
0001
0010
0100
1000
0100
0010
0001
0000
,
1001
0000
0110
0000
0000
0000
0001
0100
0001
0100
0010
1000
0010
0000
1000
0100
,
0010
0002
0023
0230
2300
3020
0230
0301
,
0000
0000
1000
0010
0100
0010
1000
0001
1000
0001
0010
0100
0010
0000
0001
0000
,
1000
0000
0100
0010
0001
0000
0010
0100
1000
0000
0010
0100
0001
0000
1001
0000
,
0110
0000
0000
0000
1000
0001
1000
0001
0010
0100
0010
0000
0001
0000
1000
0000
,
0010
0000
0100
0001
1000
0000
0001
0000
1001
0000
0000
0000
1010
0000
0000
0000
,
0101
0000
0000
0000
0000
0000
0001
0000
0000
1000
0000
0000
1001
0000
0000
0000
0000
0000
0001
0000
0000
0000
0001
0000
,
0010
0000
0010
0100
0000
0100
1000
0000
0001
0100
0000
0000
,
0110
0000
0000
0000
0000
0000
0010
0000
0000
1000
0000
0000
1001
0000
0000
0000
0000
0000
1000
0000
0000
0000
0010
0000
,
0001
0000
0000
0000
0000
0000
0000
0000
0010
0000
0000
0000
2000
0000
0000
0000
0000
0000
0000
0000
0000
0000
0000
0000
3000
0000
0000
0000
0000
0000
1000
0000
0000
0010
0000
0000
0100
0000
0000
0000
0000
0000
0001
0000
0000
0000
0000
0000
,
0100
0001
0010
0001
0010
0001
1000
0100
,
1000
0000
0100
0000
1000
0000
0010
0000
1000
0000
0010
0000
0100
0001
0100
0001
,
0010
0001
0010
0001
1000
0001
1000
0001
1000
0001
1000
0001
0000
0000
0000
0000
,
0000
0000
0000
1000
0010
0100
0001
0010
,
0001
0000
1000
0010
1000
0000
0100
0000
0010
0000
0001
1000
0001
0000
0100
0000
,
0010
0000
1000
0010
1000
0000
0100
0010
0001
0000
1000
0001
0100
0000
0010
0000
,
1000
0000
0001
0100
0010
0000
0100
0000
0001
0000
0010
0100
0010
0000
0001
0000
,
0101
0100
0110
0010
1010
0000
1000
0100
,
1000
0000
0001
0100
0001
0000
0010
0000
0100
0000
1000
0001
1000
0000
0010
0000
,
0100
0000
0001
0100
0001
0000
0010
0100
1000
0000
0001
1000
0010
0000
0100
0000
,
0001
0000
1000
0010
0100
0000
0010
0000
1000
0000
0100
0010
0100
0000
1000
0000
,
1010
0000
0010
0100
0001
0000
0000
0001
0000
0000
0001
0000
0000
0000
0000
0000
,
1001
0000
1000
0010
0100
0000
0001
0010
0100
0000
1000
0000
0001
0000
0100
0010
,
0100
0001
1000
0100
0010
0001
0100
0010
,
1010
1000
0001
0010
0011
0001
0100
1000
,
0100
0000
0001
0000
1000
0000
0000
1000
0001
0000
0001
0000
1000
0100
1000
0000
,
0001
0100
0001
0000
1000
0010
1000
0000
0001
0010
0001
0000
1000
0100
0010
0000
,
0100
0010
0001
0000
1000
0010
0100
0000
0010
0100
0001
0000
1000
0001
1000
0001
,
0010
0100
0010
0100
1000
0010
1000
0010
0100
0001
0100
0001
0010
0000
0000
0110
,
0000
0000
0100
0000
0000
1100
0000
0000
1000
0001
1000
0000
0001
0000
0000
0000
,
1000
0010
0000
0010
0100
0000
0001
0100
,
0000
0100
0010
0000
0010
0000
0000
0000
,
0001
0010
0000
0010
0100
0000
1000
0100
,
0000
0100
0010
0000
0010
0001
0000
0000
,
1000
0100
0000
0100
0001
0000
1000
0010
,
0000
0010
0001
0000
0001
0000
0000
0000
,
1000
0010
0000
1000
0100
0010
0001
0100
,
0000
0100
0010
0000
0110
0000
2000
0000
,
0000
0000
0000
0000
,
0000
0000
0000
3200
,
0000
0000
0000
0000
,
0000
0000
0000
0320
,
0000
0000
0000
0000
,
0000
0000
0000
0031
,
1000
0010
0000
0010
0100
0001
0010
0100
,
0000
0100
1000
0000
2001
0001
3000
0000
,
0000
0000
0000
0000
;
#NOTES:
     dance-double:
     :
     Easy:
     7:
     :
00000000
00000000
00000000
00000000
,
00000000
00000000
00000000
00000000
,
00000000
00000000
00000000
00000000
,
00000000
00000000
00000000
00000000
,
00000000
00000000
00000000
00000000
,
00000000
00000000
00000000
00000000
,
00000000
00000000
00000000
00000000
,
00000000
00000000
00000000
00000000
,
00000000
00000000
00000000
00000000
,
00001000
00000000
00100000
00000000
,
00001000
00000000
00000000
00000000
,
00010000
00000000
00000010
00000000
,
00010000
00000000
00000000
00000000
,
00001000
00000000
01000000
00000000
,
00001000
00000000
00000000
00000000
,
00010000
00000000
00000100
00010000
,
00000000
00000000
00000000
00000000
,
00011000
00000000
00000000
00000000
,
00001000
00000000
00000000
00000000
00100000
00000000
00000000
01100000
,
00000000
01000000
00100000
00001000
,
00010000
00010000
00000100
00000100
,
00002000
00000000
00003000
00000000
,
00000110
00000000
00000000
00000000
00010000
00000000
00000000
00011000
,
00000000
00000000
00000000
00000000
,
00001000
00100000
00010000
00000000
,
01000000
00010000
00100000
01000000
,
00100000
00010000
00100000
00000000
,
00001000
00010000
00000100
00010000
,
00001000
00010000
00000010
00000000
,
00001000
00000100
00001000
00000100
,
00010000
00001000
00010000
00001000
,
00100000
00000000
00010000
00000000
00100000
01000000
00100000
00000000
,
00000000
00000000
00000000
00000000
,
01100000
00000000
00011000
00000000
,
00010000
00001000
00010000
00000000
,
00011000
00000000
00000000
00011000
00000000
00000000
00000000
00010000
,
00000000
00000010
00000000
00000100
00000000
00000000
00000000
00000110
,
00000000
00000000
00000000
00000100
00000000
00000010
00000000
00001000
,
00000000
00000010
00000000
00010000
00000000
00000000
00000000
00011000
,
00000000
00011000
00000000
00001000
,
00100000
00010000
01000000
00100000
,
00100000
01100000
00000000
01000000
,
00010000
00100000
00001000
00010000
,
00010000
00011000
00000000
00010000
,
00001000
00000010
00000000
00000010
,
00000100
00001000
00000010
00000100
,
00001000
00000100
00000000
00000100
,
00000010
00010000
00001000
00010000
,
00000000
00000000
00000000
00001000
,
00100000
00010000
01000000
00001000
,
00100000
01000000
00100000
00001000
,
00001000
00010000
00010000
00001000
,
00000010
00001000
00000000
00010000
,
00000100
00001000
00000010
00010000
,
00000010
00001000
00000100
00000010
,
00000010
00000110
00000000
00000100
,
00010000
00001000
00011000
00000000
,
00011000
00010000
00001000
00100000
,
00010000
01000000
00000000
00010000
,
00100000
01000000
00100000
00101000
,
00000000
00011000
00000000
00010000
,
00010000
00000010
00000010
00001000
,
00001000
00000010
00000010
00000100
,
00001000
00010000
00100000
01000000
,
00000000
00000000
00000000
01100000
,
00000000
00000000
00000000
00000000
,
00000000
00000000
00000000
00011000
,
00000000
00000000
00000000
00000000
,
00000000
00000000
00000000
00000110
,
00000000
00000000
00000000
00000000
,
00000000
00000000
00000000
00011000
,
00000000
00000000
00000000
00000000
,
00000000
00000000
00000000
00001000
,
00100000
01000000
00000000
00010000
,
00001000
00010000
00000000
00010000
,
00000010
00000100
00000000
00001000
,
00010000
00001000
00000000
00200000
,
00000000
00000000
00000000
00300000
,
00000000
00001000
00010000
00000020
,
00000000
00000000
00000000
00000030
,
00000000
00010000
00001000
00000000
,
00000000
00000000
00000000
00000000
;
#NOTES:
     dance-double:
     :
     Medium:
     12:
     :
00000000
00000000
00000000
00000000
,
00000000
00000000
00000000
00000000
,
00000000
00000000
00000000
00000000
,
00000000
00000000
00000000
00000000
,
00000000
00000000
00000000
00000000
,
00000000
00000000
00000000
00000000
,
00000000
00000000
00000000
00000000
,
00000000
00000000
00000000
00000000
,
00000000
00000000
00000000
00000000
,
00002000
00000000
00013000
00000000
,
00002000
00000000
00103000
00000000
,
00020000
00000000
01030000
00000000
,
00100000
00000000
01100000
00000000
,
02000000
00000000
03010000
00000000
,
00020000
00000000
00130000
00000000
,
00100000
00001000
00100000
00000000
00001000
00010000
00001000
00010000
,
00000000
00000000
00000000
00000000
,
00022000
00000000
00033000
00000000
,
00010010
00000000
00000000
00000000
00001010
00000000
00000000
00000110
,
00000000
00000000
00000001
00000100
00001000
00000000
00000200
00000000
,
00000302
00002003
00003020
00020030
,
00032000
00000000
00000000
00000000
00003000
00000000
00001000
01000000
,
00010000
00000000
00000000
00000000
00110000
00000000
00000000
20020000
,
00000000
00000000
00000000
30030000
,
10000000
01000000
00100000
00000000
00010000
01000000
00100000
00000000
,
10000000
00000000
10000000
00000000
00010000
00100000
00010000
00000000
,
01000000
00000000
01000000
00000000
00001000
00010000
00001000
00000000
,
00010000
00000000
00010000
00000000
00000100
00001000
00000100
00000000
,
00000010
00000000
00000010
00000000
00000001
00001000
00000001
00000000
,
00001000
00000010
00000100
00000010
00001000
00000100
00000010
00000000
,
00000001
00000100
00000010
00000100
00001000
00010000
00001000
00000000
,
00010000
00001000
00100000
00010000
10000000
00100000
01000000
00010000
,
00000000
00000000
00000000
00000000
,
10010000
00000000
10000000
01000000
10000000
01000000
00100000
00000000
,
00010000
00100000
00010000
00100000
00001000
00000000
00010000
00000000
,
00002000
00013000
00000000
00000100
00001000
00000100
00000000
00000010
,
00000001
00000100
00000000
00000010
00001000
00000100
00000000
00001001
,
00000000
00000001
00000100
00000001
00000100
00000010
00000000
00001000
,
00000010
00001000
00000100
00010000
00000100
00010000
00000000
00002000
,
00013000
00000000
00001000
00100000
00010000
01000000
00100000
10000000
,
10000000
00000000
00010000
01000000
01000000
00000000
01100000
00000000
,
10010000
00000000
00000000
00000000
00000000
00000000
00010000
00000000
00000000
00100000
00000000
00000000
00010000
00000000
00000000
00000000
00000000
00000000
01000000
00000000
00000000
00000000
01000000
00000000
,
00001000
00000000
00000000
00001000
00000000
00001000
00010000
00000000
00000000
00000100
00000000
00000000
,
00000110
00000000
00000000
00000000
00000000
00000000
00000010
00000000
00000000
00000001
00000000
00000000
00000010
00000000
00000000
00000000
00000000
00000000
00000001
00000000
00000000
00000000
00000001
00000000
,
00001000
00000000
00000200
00000000
00000300
00000000
00000010
00000001
,
00000100
00000000
00000010
00001000
00000100
00000000
00000001
00000100
,
00001000
00000000
00000100
00010000
00001000
00000000
01000000
00010000
,
01000000
00010000
00100000
01000000
00100000
01000000
00000000
00000000
,
00000000
00000000
00000000
10000000
,
10100000
00000000
01100000
00000000
01010000
00000000
00010000
00100000
,
00010000
00000000
01000000
00010000
00100000
00001000
00010000
00000000
,
00010100
00001100
00000110
00000002
,
00000023
00002030
00003020
00000031
,
00000011
00000000
00000110
00000000
00001100
00000000
00001000
00000010
,
00001000
00000000
00000100
00001000
00000010
00010000
00001000
00000000
,
01001000
01010000
01100000
20000000
,
30200000
00000000
00320000
00000000
00230000
00000000
10300000
01000000
,
00100000
00010000
01000000
00100000
10000000
00000000
01000000
00000000
,
00010000
00000000
00001000
00000010
00000001
00000000
00001000
00000010
,
00000100
00000001
00000010
00000100
00001000
00000000
00000001
00000000
,
00000100
00000000
00001000
00010000
00100000
00000000
10000000
00100000
,
10000000
00100000
01000000
00100000
10000000
00000000
01000000
00100000
,
01000000
00100000
00010000
00100000
00001000
00000000
00010000
00000100
,
00001000
00000000
00000000
00000000
00000010
00000000
00001000
00000000
00000100
00000000
00000010
00000000
00000001
00000000
00000000
00000001
,
00000000
00000000
00001000
00000000
00000000
00001000
00000000
00000000
00000010
00000000
00000000
00000000
00000200
00000000
00000000
00000000
,
00000000
00000000
00000000
00000000
00000300
00000000
00000100
00000010
,
00000000
00001000
00000010
00000000
00010000
00000000
00002000
00000000
,
00000000
00000000
00000000
00000000
00003000
00000000
00100000
00001000
,
00000000
00100000
00010000
00000000
01000000
00000000
00200000
00000000
,
00000000
00000000
00000000
00000000
00300000
00000000
10000000
00100000
,
00000000
01000000
00100000
00000000
10000000
00000000
02000000
00000000
,
00000000
00000000
00000000
00000000
03000000
00000000
00100000
00010000
,
00000000
00100000
00001000
00000000
00010000
00000000
00002000
00000000
,
00000000
00000000
00000010
00000000
00000000
00000000
00013000
00001000
,
00000000
00010000
00001000
00000000
00001000
00000000
00020000
00000000
,
00000000
00000000
00100000
00000000
00000000
00000000
00031000
00010000
,
00000000
00001000
00010000
00000000
00010000
00000000
00002000
00000000
,
00000000
00000000
00000100
00000000
00000000
00000000
00013000
00001000
,
00000000
00010000
00001000
00000000
00001000
00000000
00020000
00000000
,
00000000
00000000
01000000
00000000
00000000
00000000
00031000
00010000
,
00000000
00001000
00010000
00000000
00010000
00001000
00000000
00000000
,
00000000
00000000
00000000
00000000
;
#NOTES:
     dance-double:
     :
     Hard:
     14:
     :
00000000
00000000
00000000
00000000
,
00000000
00000000
00000000
00000000
,
00000000
00000000
00000000
00000000
,
00000000
00000000
00000000
00000000
,
00000000
00000000
00000000
00000000
,
00000000
00000000
00000000
00000000
,
00000000
00000000
00000000
00000000
,
00000000
00000000
00000000
00000000
,
00000000
00000000
00000000
00000000
,
00001000
00000000
00010000
00000000
,
00001000
00000000
00100000
00000000
,
00010000
00000000
01000000
00000000
,
00100000
00000000
10000000
00000000
,
00100000
01000000
00100000
00000000
01000000
00001000
01000000
00000000
,
00001000
00010000
00001000
00000000
00010000
00000100
00010000
00000000
,
00000100
00001000
00000001
00000010
00000100
00001000
00000001
00000010
,
00000000
00000000
00000000
00000000
00000000
00000001
00000100
00001000
,
00020000
00000000
00030000
00000000
,
00022000
00000000
00033000
00000000
00001000
00100000
00010000
02000000
,
00000000
03000000
00100000
10000000
00100000
01000000
00020000
00000000
,
20030000
30200000
00320000
00032000
,
00003200
00000000
00000000
00000000
00000301
00000010
00000001
00000100
,
00000002
00000000
00000003
00000000
00002000
00000000
00003000
00000220
,
00000000
00000000
00000000
00000330
,
00001001
00000000
00000000
00000000
00000000
00000000
00000000
00000000
00000001
00001000
00000001
00001000
00000001
00000000
00000000
00000000
,
00001000
00000010
00001000
00000010
00000100
00001000
00010000
00000000
,
00001000
00100000
00010000
01000000
00001000
00100000
00010000
00000000
,
10000000
01000000
10000000
01000000
00010000
01000000
10000000
00000000
,
00100000
01000000
00010000
00100000
00001000
00010000
00000100
00000000
,
00001000
00000010
00001000
00000000
00000100
00000000
00000010
00000000
00000001
00000000
00000100
00000000
00000010
00000000
00001000
00000000
,
00000001
00000100
00000001
00000000
00000010
00000000
00001000
00000000
00010000
00000000
00001000
00000000
01000000
00000000
00010000
00000000
,
00100000
01000000
00100000
00000000
00010000
10000000
00010000
00000000
00100000
01000000
00100000
00000000
00010000
00001000
00010000
00000000
,
00000000
00000000
00000000
00000000
,
00011000
00000000
00000000
00000000
00010000
00000100
00010000
00000000
00000010
00001000
00000010
00000000
00000100
00000000
00001000
00000000
,
00000000
00000000
00001000
00000000
00000100
00000010
00000100
00000000
00000001
00000010
00000100
00000000
00001000
00000000
00000100
00000000
,
00020000
00000000
00031000
00000000
00100000
00000000
00010000
01000000
00010000
00000000
00100000
00010000
00100000
00000000
00000000
00000000
,
00100000
00110000
00010000
10000000
01000000
01100000
00000000
00101000
,
00000000
00000000
00001000
00010000
00001000
00000000
00010000
00000010
00001000
00000000
00000010
00000000
00000100
00000000
00000000
00000000
,
00000100
00000000
00000001
00000010
00000001
00000000
00001000
00000100
00001000
00000000
00000001
00000000
00000010
00000000
00002000
00000000
,
00013000
00000000
00100000
00000000
10000000
00100000
10000000
00000000
00010000
01000000
00010000
00000000
10000000
00000000
01000000
00000000
,
01100000
00100000
00001000
00010000
00011000
00000000
00011000
00000000
,
00010010
00000000
00000000
00000000
00000000
00000000
00000010
00000000
00000000
00001000
00000000
00000000
00000110
00000000
00000000
00000000
00000000
00000000
00000001
00000000
00000000
00000000
00000001
00000000
,
00000010
00000000
00000010
00000100
00000000
00000100
00010000
00000000
00010000
00001000
00000000
00000000
,
00011000
00000000
00000000
00000000
00000000
00000000
00100000
00000000
00000000
00010000
00000000
00000000
01100000
00000000
00000000
00000000
00000000
00000000
10000000
00000000
00000000
00000000
10000000
00000000
,
01000000
00000000
00000000
00000000
00000000
00000000
00000000
00000000
01000000
00000000
00000000
00000000
00020000
00000000
00000000
00000000
00000000
00000000
00000000
00000000
00000000
00000000
00000000
00000000
00030000
00000000
00000000
00000000
00000000
00000000
00001000
00000000
00000000
00010000
00000000
00000000
00001000
00000000
00000000
00000000
00000000
00000000
00010000
00000000
00000000
00000000
00000000
00000000
,
00000100
00001000
00000010
00000100
00000001
00000000
00000010
00000100
,
00010000
00000000
00001000
00000000
00100000
00000000
00010000
00000000
01000000
00000000
00000000
00000000
00100000
10000000
00100000
00000000
,
01000000
00010000
01000000
00000000
00010000
00100000
00010000
00000000
00100000
00001000
00010000
00000000
00000000
00000000
00000000
00000000
,
00000000
00000000
00000000
00000000
00000000
00000000
00010000
00000100
,
00001000
00000010
00000100
00001000
00010000
00100000
01000000
00001000
,
00010000
00001000
01000000
00100000
00010000
00001000
00000010
00000100
,
00010100
00010000
00001000
01000000
01010000
00010000
00100000
00001000
,
00010000
00000100
00000010
00001000
00010000
00010000
00001000
01000000
,
00100000
01000000
00001000
00010000
00000100
00000010
00001000
00010000
,
00001000
00000100
00000010
00010000
00001000
01000000
00100000
00010000
,
00001000
00000100
00000010
00010000
00000010
00000100
00001000
00010000
,
00011000
00000000
00001000
00010000
00001000
00000000
00000000
00100000
00000000
00000000
00010000
00000000
00000000
00000000
00000000
00000000
,
10010000
00000000
10000000
01000000
10000000
00000000
00010000
00000000
00100000
00000000
01000000
00000000
00010000
00000000
00001000
00010000
,
00001000
00000010
00000001
00001000
00000100
00000001
00000100
00000010
,
00000011
00000001
00001000
00000100
00010100
00010000
00001000
00100000
,
00010000
00000000
00100000
00000000
10000000
00000000
00000000
10000000
00100000
00000000
01000000
00000000
10000000
00100000
10000000
00000000
,
00010000
00000000
00100000
00000000
00001000
00010000
00001000
00000000
00010000
00000000
00000100
00000000
00001000
00000010
00001000
00000000
,
00000001
00000000
00000010
00000000
00000100
00001000
00000100
00000000
00010000
00000000
00001000
00000000
01000000
00010000
01000000
00000000
,
00100000
10000000
00100000
00000000
01000000
00001000
00010000
00000000
00001000
00010000
00000100
00000000
00001000
00000000
00000000
00001010
,
00000000
00000000
00000001
00000000
00000000
00000011
00000000
00000000
00000110
00000000
00000000
00000000
00001001
00000000
00000000
00000000
,
00000001
00000100
00000000
00000100
00001000
00000000
00001000
00010000
,
00000000
00010000
00100000
00000000
01100000
00000000
10010000
00000000
,
10000000
01000000
00000000
01000000
00010000
00000000
00010000
00001000
,
00000000
00001000
00000010
00000100
00000010
00000000
00001001
00000000
,
00000001
00000010
00000000
00000010
00001000
00000000
00001000
00010000
,
00000000
00010000
01000000
00000000
01100000
00000000
10010000
00000000
,
10000000
00100000
00000000
00100000
00010000
00000000
00010000
00001000
,
00000000
00001000
00000100
00000010
00000100
00000000
00000002
00000000
,
00000010
00000000
00002003
00000000
00000010
00000000
00003100
00010000
,
00000000
00001000
00010000
00000000
00011000
00000000
00002000
00000000
,
00100000
00000000
02003000
00000000
00010000
00000000
03100000
10000000
,
00000000
01000000
10000000
00000000
10010000
00000000
00020000
00000000
,
01000000
00000000
10000000
00000000
00100000
00000000
00031000
00000100
,
00000000
00001000
00000100
00000000
00000110
00000000
00002000
00000000
,
00000100
00000000
00000001
00000000
00000010
00000000
00013000
01000000
,
00000000
00010000
01000000
00000000
02100000
00100000
03000000
00000000
,
00000000
00000000
00000000
00000000
;
#NOTES:
     dance-double:
     :
     Challenge:
     16:
     :
00000000
00000000
00000000
00000000
,
00000000
00000000
00000000
00000000
,
00000000
00000000
00000000
00000000
,
00000000
00000000
00000000
00000000
,
00000000
00000000
00000000
00000000
,
00000000
00000000
00000000
00000000
,
00000000
00000000
00000000
00000000
,
00000000
00000000
00000000
00000000
,
00000000
00000000
00000000
00000000
,
00001000
00000000
00001000
00000000
,
00010000
00000000
00010000
00000000
,
00100000
00000000
00100000
00000000
,
10000000
00000000
10000000
00000000
,
01000000
00100000
01000000
00100000
00001000
00010000
00001000
00010000
,
00000100
00000010
00000100
00000010
00000001
00001000
00000001
00001000
,
00000010
00001000
00000010
00000000
00010000
00000010
00010000
00000000
00001000
00010000
00001000
00010000
00001000
00010000
00001000
00010000
,
00000000
00000000
00000000
00000000
00000000
00001000
00010000
00100000
,
02200000
00000000
03300000
00000000
,
20020000
00000000
30030000
00000000
10000000
01000000
00100000
00220000
,
00000000
00000000
00330000
20000000
,
32000000
03020000
00032000
00003010
,
00000022
00000000
00000000
00000000
00000033
00000000
00000000
00000000
00000001
00000010
00000001
00001000
00000010
00000000
00000100
00000000
,
00000220
00000000
00000330
00000000
00000010
00010000
00001000
00022000
,
00000000
00000000
00033000
00001000
00010000
00010000
01000000
01000000
,
20000000
00000000
00000000
00000000
30000000
00000000
10000000
00000000
00100000
01000000
00100000
01000000
00010000
00000000
00100000
00010000
,
00100000
00010000
01000000
00010000
00100000
01000000
10000000
00100000
,
00010000
00001000
00100000
00001000
00010000
00001000
00000010
00000001
,
00000100
00001000
00010000
00001000
00000100
00001000
00010000
00001000
,
00000010
00000000
00000001
00001000
00000001
00000000
00001000
00000100
00001000
00000000
00000100
00010000
00000100
00000000
00000000
00000000
,
00010000
00000000
00001000
00000000
00100000
00010000
00100000
00000000
00010000
00000000
01000000
00000000
00100000
10000000
00100000
00000000
,
01000000
00000000
00010000
00000000
00100000
00001000
00100000
00000000
00001000
00000000
00010000
00000000
00000010
00001000
00000010
00000000
,
00000100
00000001
00000100
00000001
00001000
00000010
00001000
00000000
00000010
00010000
00000010
00010000
00001000
00010000
00001000
00010000
,
00000000
00000000
00000000
00000000
00000000
00000000
00000000
00000000
00000000
00001000
01000000
00010000
01000000
00000000
00000000
00000000
,
01100000
00000000
00000000
00000000
00100000
10000000
00100000
00000000
01000000
00010000
01000000
00010000
00100000
00000000
00001000
00010000
,
00001000
00000000
00010000
00000100
00010000
00000100
00001000
00000000
00000010
00001000
00000001
00000100
00000010
00000000
00001000
00000000
,
00001001
00000000
00000110
00000000
00000000
00000000
00000001
00000010
00000001
00000010
00000100
00000000
00001000
00000010
00001000
00000000
,
00000100
00010000
00000100
00000000
00010000
00000000
00001000
00100000
00001000
00100000
00010000
00000000
01000000
00000000
00100000
00000000
,
00000000
00000000
10000000
01000000
10000000
01000000
00100000
00010000
00100000
00010000
01000000
00010000
01000000
00000000
00100000
00000000
,
00010000
00000000
00001000
00010000
00000010
00000000
00001000
00000010
00000100
00000000
00000001
00000010
00000100
00000000
00000110
00000000
,
00001001
00000000
00000000
00000000
00001000
00000010
00001000
00000010
00000100
00000000
00001000
00010000
00001000
00000000
00010000
00000000
,
00100000
00000000
01000000
00100000
10000000
00000000
00010000
00000000
10010000
00000000
00000000
00000000
10100000
00000000
00000000
00000000
,
01010000
00000000
00000000
00000000
00000000
00000000
10000000
00000000
00000000
01000000
00000000
00000000
01100000
00000000
00000000
00000000
00000000
00000000
00100000
00000000
00000000
00000000
00100000
00000000
,
00001000
00000000
00001000
00010000
00000000
00010000
00000010
00000000
00000010
00000100
00000000
00000000
,
00000110
00000000
00000000
00000000
00000000
00000000
00000010
00000000
00000000
00001000
00000000
00000000
00001001
00000000
00000000
00000000
00000000
00000000
00000001
00000000
00000000
00000000
00000010
00000000
,
00001000
00000000
00000000
00000000
00000000
00000000
00000000
00000000
00010000
00000000
00000000
00000000
00002000
00000000
00000000
00000000
00000000
00000000
00000000
00000000
00000000
00000000
00000000
00000000
00003000
00000000
00000000
00000000
00000000
00000000
00001000
00000000
00000000
00010000
00000000
00000000
00001000
00000000
00000000
00000000
00000000
00000000
00001000
00000000
00000000
00000000
00000000
00000000
,
01000000
01000000
00010000
00010000
00100000
00100000
01000000
10000000
,
00100000
00000000
10000000
00000000
01000000
00000000
00100000
00000000
00001000
00000000
00010000
00000000
00000100
00001000
00000100
00001000
,
00000010
00001000
00000010
00001000
00000001
00000100
00000010
00001000
00000001
00000100
00000010
00001000
00000000
00000000
00000000
00000000
,
00000000
00000000
00000000
00001000
00000100
00000010
00000001
00000100
,
00000010
00000000
00000100
00001000
00000100
00000000
00001000
00000000
00010000
00000000
00100000
01000000
00100000
00000000
10000000
00000000
,
00010000
00000000
00100000
01000000
10000000
00000000
01000000
00100000
00010000
00000000
10000000
00000000
01000000
00000000
00010000
00000000
,
00001000
00000000
00000010
00000000
00000100
00000000
00001000
00000000
00001000
00000000
00000001
00000010
00000001
00000000
00001000
00000000
,
00001010
00000010
00010010
00010000
00011000
00000000
00001000
00100000
,
00010000
00000000
01000000
00100000
01000000
00000000
00100000
00000000
00010000
00000000
00001000
00010000
00001000
00000000
00000100
00000000
,
00000010
00000000
00010000
00001000
00010000
00000000
00000100
00001000
00000100
00000000
00000010
00000000
00000001
00000000
00000100
00000000
,
00000100
00000000
00001000
00000000
00001000
00000000
00010000
00000000
00010000
00000000
00100000
01000000
00100000
00000000
01000000
00001000
,
00010000
00001000
00100000
00000000
00010000
00000000
00000000
01000000
00000000
00000000
00100000
00000000
10000000
00000000
01000000
00000000
,
00100000
00000000
01000000
00010000
01000000
00000000
00010000
00000000
00001000
00000000
00000010
00000100
00000010
00000000
00000001
00000000
,
00001000
00000000
00000010
00000100
00000001
00000000
00000100
00000010
00001000
00000000
00000001
00000000
00000100
00000000
00001000
00000000
,
00010000
00000000
00100000
00000000
01000000
00000000
00010000
00000000
00010000
00000000
10000000
00100000
10000000
00000000
00010000
00000000
,
00110000
00100000
00101000
00001000
00011000
00000000
00010000
00000010
,
00001000
00000000
00000100
00000010
00000100
00000000
00000010
00000000
00001000
00000000
00010000
00001000
00010000
00000000
01000000
00000000
,
00100000
00000000
00001000
00010000
00001000
00000000
01000000
00010000
01000000
00000000
00100000
00000000
10000000
01000000
10000000
01000000
,
00100000
00010000
00100000
00001000
00010000
00001000
00010000
00000100
00001000
00000100
00000010
00000001
00000010
00000000
00000000
00000110
,
00000000
00000000
00000100
00000000
00000000
00010100
00000000
00000000
00010000
00001000
00010000
00000000
00011000
00000000
00000000
00000000
,
00001000
01000000
00000000
01000000
00010000
00000000
00100000
01000000
,
00000000
01000000
10000000
00000000
10010000
00000000
00000000
00000000
,
10000000
00100000
00000000
00100000
00010000
00000000
00001000
00000100
,
00000000
00000100
00000001
00000000
00000001
00001000
00000000
00000000
,
00000001
00000010
00000000
00000010
00000100
00000000
00010000
00001000
,
00000000
00001000
00000100
00000000
00000001
00000000
00000000
00000000
,
00000001
00000010
00000000
00000010
00001000
00010000
00100000
10000000
,
00000000
10000000
00010000
00000000
00010000
00000000
20000000
00000000
,
00000000
00000000
00000000
00000000
,
00000000
00000000
00000000
30020000
,
00000000
00000000
00000000
00000000
,
00000000
00000000
00000000
00032000
,
00000000
00000000
00000000
00000000
,
00000000
00000000
00000000
00003001
,
00000010
00000100
00001000
00000100
00000010
00000000
00000001
00000100
,
00001000
00010000
00200000
00000000
10000000
10000000
00300000
00000000
,
00000000
00000000
00000000
00000000
;
