
//----- song ID: odfe -----//
#TITLE:踊るフィーバーロボ Eu-Robot mix;
#ARTIST:D&E&Y Rmx by kors k as disconation;
#TITLETRANSLIT:Odoru Fever Robo Eu-Robot mix;
#BANNER:Odoru Fever Robo Eu-Robot mix.png;
#BACKGROUND:Odoru Fever Robo Eu-Robot mix-bg.png;
#CDTITLE:./CDTitles/pnm 17 THE MOVIE.png;
#MUSIC:Odoru Fever Robo Eu-Robot mix.ogg;
#SAMPLESTART:63.31;
#SAMPLELENGTH:15;
#BPMS:0=163;
#NOTES:
     dance-single:
     :
     Beginner:
     3:
     :
0000
0000
0000
0000
,
0000
0000
0000
0000
,
0000
0000
0000
0000
,
0000
0000
0000
0000
,
1000
0000
0000
0000
,
0001
0000
0000
0000
,
1000
0000
0100
0000
,
1000
0000
0000
0000
,
0001
0000
0000
0000
,
1000
0000
0000
0000
,
1001
0000
0000
0000
,
0001
0000
0100
0000
,
0001
0000
0100
0000
,
0001
0000
0000
0000
,
1000
0000
0000
0000
,
0100
0000
0010
0000
,
0100
0000
0010
0000
,
0100
0000
0000
0000
,
0110
0000
0000
0000
,
0100
0000
1000
0000
,
0100
0000
1000
0000
,
0001
0000
0000
0000
,
0100
0000
0010
0000
,
0100
0000
0000
0000
,
0001
0000
1000
0000
,
0002
0003
2000
3000
,
0001
0000
0000
0000
,
1000
0000
0010
0000
,
1000
0000
0010
0000
,
0100
0000
0000
0000
,
0001
0000
1000
0000
,
0001
0000
0000
0000
,
0010
0000
0100
0000
,
0010
0000
0000
0000
,
0110
0000
0000
0000
,
0010
0000
0001
0000
,
1000
0000
0100
0000
,
1000
0000
0001
0000
,
1000
0000
0000
0000
,
0010
0000
0000
0000
,
0100
0000
0001
0000
,
2000
0000
3000
0000
,
0002
0000
0003
0000
,
0100
0000
0000
0000
,
0010
0000
1000
0000
,
0010
0000
0000
0000
,
1000
0000
0001
0000
,
1000
0000
0000
0000
,
0001
0000
0010
0000
,
0001
0000
0010
0000
,
0100
0000
0000
0000
,
1000
0000
0000
0000
,
0001
0000
0100
0000
,
0010
0000
1000
0000
,
0001
0000
0000
0000
,
1001
0000
0000
0000
,
1000
0000
0010
0000
,
1000
0000
0010
0000
,
0100
0000
0000
0000
,
0001
0000
1000
0000
,
0001
0000
0010
0000
,
0100
0000
1000
0000
,
0001
0000
1000
0000
,
0001
0000
0000
0000
,
0100
0000
0010
0000
,
0100
0000
0000
0000
,
0001
0000
1000
0000
,
0001
0000
0000
0000
,
0010
0000
0100
0000
,
0010
0000
0100
0000
,
0010
0000
0000
0000
,
0100
0000
0000
0000
,
1000
0000
0001
0000
,
0100
0000
0010
0000
,
0100
0000
0000
0000
,
0110
0000
0000
0000
,
0100
0000
0001
0000
,
0100
0000
0001
0000
,
1000
0000
0100
0000
,
0010
0000
0001
0000
,
1000
0000
0010
0000
,
1000
0000
0010
0000
,
0100
0000
0001
0000
,
1000
0000
0000
0000
,
0000
0000
0000
0000
;
#NOTES:
     dance-single:
     :
     Easy:
     7:
     :
0000
0000
0000
0000
,
0000
0000
0000
0000
,
0000
0000
0000
0000
,
0000
0000
0000
0000
,
0001
0000
0000
0000
,
1000
0000
0000
0000
,
0001
0000
1000
0000
,
0100
0010
0100
0000
,
0010
0001
1000
0010
,
0110
0000
0000
0000
,
1001
0000
0000
0000
,
1000
0100
1000
0100
,
0010
0001
1000
0100
,
1000
0010
0100
0000
,
0001
0010
0100
0000
,
0010
0001
0010
0001
,
1000
0010
0100
0001
,
1000
0000
0001
0000
,
1001
0000
0110
0000
,
0001
0100
0001
0100
,
0010
1000
0001
0100
,
0010
1000
0010
1000
,
0002
0023
0230
2300
,
3001
1000
0001
0000
,
2000
3200
0320
0032
,
2003
3001
0002
1003
,
1001
0000
1000
1000
0000
0001
0001
0000
,
1000
0010
1000
0010
,
0100
0001
1000
0010
,
0100
0001
0100
0001
,
2000
3200
0320
0032
,
1003
0001
1000
0000
,
0002
0023
0230
2300
,
3001
0001
1000
1000
,
0001
0100
0010
1000
,
0001
0001
1000
0100
,
0010
0001
1000
0001
,
1000
1000
0001
0010
,
0100
1000
0001
1000
,
1000
0001
0001
0100
,
0100
0010
2000
3002
,
2003
0000
0000
3000
,
0002
0000
0000
0000
,
1003
0000
0000
0000
,
0001
0100
0001
0100
,
0010
1000
0010
0000
,
1000
0100
0010
0001
,
1000
0001
1000
0000
,
0001
0010
0001
0010
,
0100
1000
0001
0100
,
0010
1000
0010
1000
,
0001
0100
0010
0000
,
1000
1000
0001
0001
,
0100
0010
1000
0001
,
1000
0000
0000
0001
0000
0000
1000
0000
,
1001
0000
0000
0000
,
0002
0000
0003
0010
0020
0000
0030
0100
,
0200
0000
0300
1000
2000
0000
3001
0000
,
0200
0310
0100
0001
,
1000
0100
0010
0001
,
1000
0100
1000
0100
,
0010
0001
0010
0001
,
1001
0000
0110
0000
,
1000
0001
0000
0000
,
1000
0010
1000
0010
,
0100
0001
0100
0000
,
0001
0010
0100
1000
,
0001
1000
0001
0000
,
1000
0100
1000
0100
,
0010
0001
1000
0010
,
0100
0001
0100
0001
,
1000
0010
0100
0000
,
0001
0001
1000
1000
,
0010
0100
0001
1000
,
0001
0000
0000
1000
0000
0000
0001
0000
,
1001
0000
0000
0000
,
0001
0010
0001
0010
,
0100
1000
0001
0010
,
0001
0100
0010
0000
,
1000
0100
0010
0000
,
0100
1000
0100
1000
,
0001
0100
0010
1000
,
0001
0000
1000
0000
,
1001
0000
0110
0000
,
0000
0000
0000
0000
;
#NOTES:
     dance-single:
     :
     Medium:
     12:
     :
0000
0000
0000
0000
,
0000
0000
0000
0000
,
0000
0000
0000
0000
,
0000
0000
0000
0000
,
0001
0000
0000
1000
0000
0000
0000
0000
,
0001
0000
0000
0100
0000
0000
0001
0000
0000
0100
0000
0000
0010
0000
0000
0000
,
1000
0010
1000
0000
0001
0100
0001
0000
,
1000
0100
1000
0100
0010
0000
0110
0000
,
1001
0000
0001
0100
0010
0000
0110
0000
,
0010
0000
0000
1000
0000
0000
0001
0000
0010
0000
0000
0000
0100
0000
0000
0000
,
0010
0001
0010
0001
1000
0100
1000
0000
,
0001
0100
0001
0100
0010
1000
0001
0100
,
0010
0000
0000
0100
0000
0000
0010
0000
1000
0000
0100
0000
1000
0000
0001
0000
,
0100
0000
0000
0010
0000
0000
0100
0000
0001
0000
1000
0000
0001
0000
0000
0000
,
1000
0000
0000
0100
0000
0000
1000
0000
0010
0000
0100
0000
0010
0000
0000
0000
,
1000
0010
1000
0010
0100
0001
1000
0010
,
0100
0001
0100
0001
0010
0100
1000
0000
,
1001
0000
0000
0001
1000
0001
1000
0000
,
0010
0000
0100
0000
0010
0000
0100
0000
0001
0000
0000
1000
0000
0001
0000
0000
,
1000
0100
1000
0000
0001
0010
0001
0000
,
1000
0001
0100
0000
0010
1000
0001
0000
,
0010
0100
0010
0000
0001
1000
0001
0000
,
2000
3020
0230
0302
,
1003
0010
1000
0000
0001
0010
0001
0000
,
2000
3002
0023
0230
,
2300
0000
3010
0100
0002
0000
0013
0100
,
1000
0000
0001
0001
0000
1000
1000
0000
,
0001
0010
0001
0000
1000
0100
1000
0000
,
0001
1000
0010
0000
0100
0001
1000
0000
,
0100
0010
0100
0000
1000
0001
1000
0000
,
0002
0203
0320
2030
,
3001
0100
0001
0000
1000
0100
1000
0000
,
0001
0100
1000
0000
1000
0100
0001
0000
,
1000
0100
1000
0100
0010
0001
0010
0000
,
0001
0100
0001
0100
0010
1000
0010
0000
,
0100
0000
1001
0000
1000
0100
0010
0001
,
2000
3020
0032
0023
,
1030
0000
0001
0100
0000
1000
0100
0001
,
0020
0000
0230
0000
1300
0001
0100
0001
,
0100
1000
0100
1000
0100
0001
0010
0001
,
0010
1000
0010
1000
0020
0000
0230
0000
,
1300
0001
0100
0010
1000
0001
0100
0010
,
2000
0000
0000
0000
,
3001
0000
0000
0000
,
1000
0010
1000
0000
0001
0100
0001
0000
,
0100
0010
0100
0010
0100
0000
0010
0000
,
1010
1100
0101
0011
,
0001
0010
0001
0010
0001
0100
0010
1000
,
0001
0010
0001
0000
1000
0100
1000
0000
,
0010
0000
0100
0000
0010
0000
0000
0000
0100
0000
0000
0001
0000
0000
1000
0000
,
0100
0010
0100
0010
0001
1000
0001
0000
,
1000
0010
1000
0010
0100
0001
1000
0000
,
0001
0000
0000
0010
0000
0000
0100
0000
1000
0000
0000
0001
0000
0000
0100
0000
,
0010
0000
0000
1000
0000
0000
0001
0000
0100
0000
0000
0000
0010
0000
0000
0000
,
1000
1000
0000
0001
0001
0000
0100
0100
,
0010
0000
0000
0000
,
2000
0000
3001
0010
0002
0000
1003
0010
,
2000
0000
3001
0100
0002
0000
0013
0100
,
2000
0000
3010
0000
1000
0001
1000
0000
,
0001
0100
0001
0100
0010
1000
0001
0000
,
1000
0100
0010
0001
0010
0001
0010
0000
,
0001
0100
0010
1000
0010
1000
0010
0000
,
0100
0100
0000
0000
0010
0010
0000
0000
,
1000
1000
0001
0001
0000
0000
0000
0000
,
1000
0100
1000
0000
0001
0010
0001
0000
,
0010
0100
0010
0100
0010
0000
0100
0000
,
1100
1010
0011
0101
,
0001
0100
0001
0100
0010
1000
0100
0010
,
0001
0100
0001
0000
1000
0010
1000
0000
,
0100
0000
0010
0000
0100
0000
0000
0000
0010
0000
0000
0001
0000
0000
1000
0000
,
0010
0100
0010
1000
0001
0100
0010
0000
,
1000
0100
1000
0001
0100
0010
1000
0000
,
0001
0000
0000
0010
0000
0000
1000
0000
0001
0000
0000
0100
0000
0000
1000
0000
,
0001
0000
0000
0100
0000
0000
1000
0000
0100
0000
0000
0000
0001
0000
0000
0000
,
1000
1000
0000
0001
0001
0000
0100
0100
,
0010
0000
0000
0000
,
1000
0100
1000
0100
0010
0001
1000
0010
,
0100
0000
0000
0010
0000
0000
0100
0000
0001
0000
0010
0000
0001
0000
0100
0000
,
0010
0000
0000
1000
0000
0000
0100
0000
0010
0000
0100
0000
0010
0000
0000
0000
,
0001
0000
0000
1000
0000
0000
0010
0000
0100
0000
0010
0000
0100
0000
0000
0000
,
0001
0010
0001
0010
0100
1000
0001
0100
,
0010
1000
0100
1000
0010
0100
0001
0000
,
1001
0000
0000
1000
0010
0100
0001
0000
,
0010
0000
0100
0000
0010
0000
0100
0000
1000
0000
0000
0001
0000
1000
0000
0000
,
0000
0000
0000
0000
;
#NOTES:
     dance-single:
     :
     Hard:
     16:
     :
0000
0000
0000
0000
,
0000
0000
0000
0000
,
0000
0000
0000
0000
,
0000
0000
0000
0000
,
1000
0000
0000
0001
0000
0000
0000
0000
,
1010
0000
0000
0101
0000
0000
1100
0000
0000
0011
0000
0000
0110
0000
0110
0000
,
1000
0100
1000
0100
0010
0001
0010
0001
,
1000
0010
0100
0001
1000
0000
1001
0000
,
0110
0000
0001
1000
0100
0000
1100
0000
,
1000
0000
0000
0010
0100
0000
0010
0000
0100
0000
0000
0000
0001
0000
0000
0000
,
1000
0000
0100
0000
0010
0001
0010
0001
1000
0010
1000
0010
0100
0001
0100
0000
,
0001
1000
0100
1000
0100
1000
0001
0000
0100
0000
0010
1000
0010
1000
0010
0000
,
1000
0100
1000
0100
0000
0010
0100
0000
0010
0001
0010
0001
1000
0000
0001
0000
,
1000
0000
0010
0100
0000
0001
0100
0000
0001
0010
0001
0010
0100
1000
0100
0000
,
1000
0010
1000
0001
0000
0100
0001
0000
1000
0000
0100
0010
0100
1000
0100
0000
,
1000
0001
0010
0001
0010
0001
1000
0000
0010
0000
0100
0001
0100
0001
0100
0000
,
0001
1000
0001
0000
0010
0100
0010
0000
0001
0000
0100
0000
0010
1000
0010
0000
,
1000
0000
0100
0000
0010
0000
0001
0010
0100
1000
0100
1000
0001
0100
0001
0000
,
0100
0010
0100
0010
0100
0010
0100
0000
0001
1000
0000
0001
0000
0010
0100
0010
,
0100
1000
0100
1000
0001
0100
0010
0100
,
0001
0100
0001
1000
0001
0010
0001
0100
,
0010
0000
1000
0000
0001
0000
1000
0000
0001
0000
0010
0100
0010
0000
0100
0000
,
2000
3010
0200
0301
0020
0130
2000
3010
,
1000
0000
0100
0000
0010
0001
0010
0001
0010
0001
0010
0000
0001
0000
1000
0000
,
0020
0130
0002
0013
0200
1300
0020
0130
,
0002
1000
1003
0100
0020
0001
0031
1000
,
1001
0000
0000
0000
0110
0000
0110
0000
0000
0000
0001
0100
0001
0000
1000
0010
,
1000
0100
1000
0100
0010
0001
0100
0001
,
1000
0010
1000
0001
1000
0100
1000
0010
,
0100
0000
0001
0000
0100
0000
0010
1000
0010
1000
0010
1000
0010
0000
1000
0000
,
0002
0013
0200
1300
0020
0130
0002
0013
,
0001
0100
0001
0010
0001
1000
0100
0010
,
0001
0100
0010
0100
0001
1000
0010
1000
,
0100
0010
0100
0010
0100
0000
0010
0000
0001
1000
0000
0010
0100
0001
1000
0000
,
0001
0010
0001
0010
0001
0010
0001
0010
0100
1000
0100
1000
0100
1000
0100
0000
,
1000
0010
1010
0000
1000
0001
0010
0100
,
2000
3010
0002
0013
2000
3100
0002
0103
,
1000
0010
0100
0001
0010
1000
0010
0001
,
2000
3100
0002
0103
2000
3010
0002
0013
,
1000
0000
0100
0010
0001
0010
0100
0000
1000
0010
1000
0010
0100
0000
0001
0010
,
0001
0000
0010
0100
0000
0010
0001
0000
1000
0001
1000
0001
0100
0000
0010
1000
,
0010
0000
1000
0100
0010
0100
1000
0000
0001
0100
0000
0010
1000
0000
0100
0010
,
0002
0000
0000
0000
,
1003
0000
0000
0000
,
0001
0000
0010
0000
0001
0000
0010
0000
0100
0000
1000
0100
1000
0000
0100
0000
,
1000
0000
0001
0000
1000
0000
0001
0000
0100
0010
0100
0010
0100
0000
0010
0000
,
1000
0000
0100
0000
0010
0000
0001
0000
1000
0000
0010
0100
0001
0000
1000
0100
,
0010
0100
0010
0100
0010
0000
0001
0000
1000
0000
1100
0000
0110
0000
0011
0000
,
1000
0000
0010
0000
1000
0000
0010
0000
0100
0000
0001
0100
0001
0000
0100
0000
,
0001
0000
1000
0000
0001
0000
1000
0000
0010
0000
0100
0010
0100
0000
0001
0000
,
1000
0000
0100
0010
0001
0000
0010
0000
0001
0000
0100
0010
1000
0010
1000
0000
,
0001
0100
0001
0100
0001
0000
0100
0000
0010
1000
0000
0001
0100
0010
1000
0000
,
0001
0000
0010
0000
0100
0000
1000
0000
0001
0000
0010
0100
1000
0000
0001
0000
,
1000
0000
0100
0000
0010
0000
0001
0000
1000
0000
0100
0010
0001
0000
1000
0000
,
1010
1010
0000
0011
0011
0000
0110
0110
,
1001
0000
0000
0000
,
0002
0000
0000
0000
0013
0000
0001
0010
2000
0000
0000
0000
3010
0000
1000
0010
,
0002
0000
0000
0000
0103
0000
0001
0100
1000
0200
0000
0310
0100
0001
1000
0000
,
0010
0200
0000
0000
0301
0000
0010
0000
0001
0000
1000
0100
0010
0001
0010
0000
,
0100
0000
1000
0000
0010
0000
0100
0000
0001
0000
1000
0000
0001
0000
0010
0000
1000
0000
0010
0000
0000
0100
0000
0000
,
1000
0000
0010
0000
1000
0000
0010
0000
0100
0000
0010
0100
0010
0000
0100
0000
,
0001
0000
1000
0000
0001
0000
1000
0000
0100
0010
0100
0010
0100
0000
0010
0000
,
0011
0000
0011
0000
1000
0000
0000
0000
1010
0000
1010
0000
0001
0000
1000
0010
,
1000
0001
1000
0002
0000
0000
0000
0003
,
1000
0000
0100
0000
1000
0000
0100
0000
0010
0000
0001
0010
0001
0000
0010
0000
,
0001
0000
1000
0000
0001
0000
1000
0000
0010
0100
0010
0100
0010
0000
0100
0000
,
0001
0000
0010
0000
0100
0000
1000
0000
0010
0000
1000
0100
0000
0010
0001
0010
,
0001
1000
0001
1000
0001
0000
0010
0000
0100
0000
0110
0000
0011
0000
1010
0000
,
0001
0000
0100
0000
0001
0000
0100
0000
0010
0000
1000
0010
1000
0000
0010
0000
,
1000
0000
0001
0000
1000
0000
0001
0000
0100
0000
0010
0100
0010
0000
1000
0000
,
0001
0000
0010
0100
1000
0000
0100
0000
1000
0000
0010
0100
0001
0100
0001
0000
,
1000
0010
1000
0010
1000
0000
0010
0000
0100
0001
0000
1000
0010
0100
0001
0000
,
1000
0000
0100
0000
0010
0000
0001
0000
1000
0000
0100
0010
0001
0000
1000
0000
,
0001
0000
0010
0000
0100
0000
1000
0000
0001
0000
0010
0100
1000
0000
0001
0000
,
0101
0101
0000
1100
1100
0000
0110
0110
,
1001
0000
0000
0000
,
0001
1000
0100
1000
0100
1000
0001
0000
0100
0000
0010
1000
0010
1000
0010
0000
,
1000
0100
1000
0100
0000
0010
0100
0000
0010
0001
0010
0001
1000
0000
0001
0000
,
1000
0000
0010
0100
0000
0001
0100
0000
0001
0010
0001
0010
0100
1000
0100
0000
,
1000
0010
1000
0001
0000
0100
0001
0000
1000
0000
0100
0010
0100
1000
0100
0000
,
1000
0001
0010
0001
0010
0001
1000
0000
0010
0000
0100
0001
0100
0001
0100
0000
,
0001
1000
0001
0000
0010
0100
0010
0000
0001
0000
0100
0000
0010
1000
0010
0000
,
1000
0000
0100
0000
0010
0000
0001
0010
0100
1000
0100
1000
0001
0100
0001
0000
,
0100
0010
0100
0010
0100
0010
0100
0000
0001
1000
0000
0001
0000
0010
0100
0010
,
0000
0000
0000
0000
;
#NOTES:
     dance-double:
     :
     Easy:
     8:
     :
00000000
00000000
00000000
00000000
,
00000000
00000000
00000000
00000000
,
00000000
00000000
00000000
00000000
,
00000000
00000000
00000000
00000000
,
00000001
00000000
00000000
00000000
,
00001000
00000000
00000000
00000000
,
00000100
00000000
00010000
00000000
,
00001000
00010000
00001000
00000000
,
00100000
00010000
00100000
00000000
,
01000000
00000000
00000000
00000000
,
10010000
00000000
00000000
00000000
,
10000000
01000000
10000000
01000000
,
00010000
00001000
00010000
00000000
,
00000100
00001000
00000001
00000000
,
00000010
00000100
00001000
00000000
,
00000001
00000100
00000001
00000100
,
00001000
00010000
00001000
00000000
,
01000000
00000000
00100000
00000000
,
01100000
00000000
10010000
00000000
,
00010000
00100000
00001000
00010000
,
00000010
00001000
00000100
00000010
,
00000001
00001000
00000001
00000000
,
00000002
00000203
00002300
00023000
,
00130000
01000000
00100000
00000000
,
20000000
32000000
03020000
00032000
,
00023000
00030100
00000200
00001300
,
00000001
00000000
00001000
00001000
00000000
00000001
00000001
00000000
,
00001000
00000100
00010000
00001000
,
01000000
00010000
00100000
01000000
,
10000000
00010000
10000000
00000000
,
20000000
30200000
00320000
00032000
,
00003100
00000010
00000100
00000000
,
00000002
00000023
00002030
00023000
,
01030000
01000000
10000000
10000000
,
00010000
00100000
00001000
00010000
,
00001000
00001000
00000100
00000001
,
00001000
00000100
00010000
00001000
,
00010000
00010000
00100000
10000000
,
00010000
01000000
00001000
00010000
,
00010000
00000010
00000010
00001000
,
00001000
00000001
00002000
00003020
,
00020030
00000000
00000000
00030000
,
00002000
00000000
00000000
00000000
,
00013000
00000000
00000000
00000000
,
00001000
01000000
00010000
01000000
,
00010000
10000000
00010000
00000000
,
10000000
00100000
00010000
00001000
,
00000100
00000010
00000100
00000000
,
00000001
00001000
00000100
00010000
,
00001000
01000000
00010000
10000000
,
00010000
00100000
00010000
00100000
,
00001000
00010000
00001000
00000000
,
00010000
00010000
00000010
00000010
,
00001000
00000100
00000010
00000001
,
00000100
00000000
00000000
00001000
00000000
00000000
00010000
00000000
,
00001000
00000000
00000000
00000000
,
00200000
00000000
00300000
00010000
00020000
00000000
00030000
10000000
,
20000000
00000000
30000000
01000000
02000000
00000000
03010000
00000000
,
00002000
00013000
00001000
00010000
,
00000100
00001000
00000001
00000010
,
00000100
00001000
00000100
00010000
,
00001000
00100000
00010000
10000000
,
10010000
00000000
00110000
00000000
,
00100000
00001000
00000000
00000000
,
00010000
00001000
00010000
00001000
,
00000100
00000010
00000100
00000000
,
00000001
00000100
00001000
00010000
,
00100000
10000000
00010000
00000000
,
10000000
00100000
10000000
00100000
,
01000000
00010000
00100000
00001000
,
00010000
00000010
00001000
00000100
,
00001000
00000010
00010000
00000000
,
00001000
00001000
00100000
00100000
,
00010000
00100000
01000000
10000000
,
00100000
00000000
00000000
00010000
00000000
00000000
00001000
00000000
,
00010000
00000000
00000000
00000000
,
00001000
00010000
00000100
00001000
,
00000010
00000100
00000001
00000000
,
00001000
00000100
00010000
00000000
,
00001000
01000000
00010000
00000000
,
10000000
00100000
01000000
00010000
,
00100000
00001000
00010000
00000000
,
00000010
00000000
00001000
00000000
,
00001001
00000000
00000110
00000000
,
00000000
00000000
00000000
00000000
;
#NOTES:
     dance-double:
     :
     Medium:
     12:
     :
00000000
00000000
00000000
00000000
,
00000000
00000000
00000000
00000000
,
00000000
00000000
00000000
00000000
,
00000000
00000000
00000000
00000000
,
10000000
00000000
00000000
00010000
00000000
00000000
00000000
00000000
,
01000000
00000000
00000000
00001000
00000000
00000000
00010000
00000000
00000000
00001000
00000000
00000000
00010000
00000000
00000000
00000000
,
00000100
00001000
00000100
00000000
00000010
00000001
00000010
00000000
,
00000001
00001000
00000001
00001000
00000100
00000000
00010000
00000000
,
00011000
00000000
00001000
00100000
00010000
00000000
01000000
00000000
,
00100000
00000000
00000000
10000000
00000000
00000000
01000000
00000000
10000000
00000000
00000000
00000000
00010000
00000000
00000000
00000000
,
00100000
00001000
00100000
00001000
00010000
00001000
00010000
00000000
,
00000100
00001000
00000100
00001000
00000001
00000100
00000001
00000000
,
00001000
00000000
00000000
00000100
00000000
00000000
00010000
00000000
00001000
00000000
00010000
00000000
00001000
00000000
00000000
00000000
,
00100000
00000000
00000000
00010000
00000000
00000000
01000000
00000000
00100000
00000000
10000000
00000000
00100000
00000000
00000000
00000000
,
10000000
00000000
00000000
00010000
00000000
00000000
01000000
00000000
00001000
00000000
00010000
00000000
00001000
00000000
00000000
00000000
,
00100000
00010000
00100000
00010000
10000000
00100000
10000000
00000000
,
00010000
00000000
00000000
00100000
00000000
00000000
00001000
00000000
00010000
00000000
00001000
00000000
00010000
00000000
00000000
00000000
,
00011000
00000000
00000000
00001000
00000100
00000010
00000100
00000000
,
00000001
00000000
00000010
00000000
00000100
00000000
00001000
00000000
00000010
00000000
00000000
00010000
00000000
00001000
00000000
00000000
,
00100000
00010000
00100000
00000000
00010000
01000000
00010000
00000000
,
10000000
00010000
01000000
00000000
00001000
00010000
00000010
00000000
,
00001000
00000100
00001000
00000000
00000001
00000010
00000001
00000000
,
00000200
00002300
00023000
00230000
,
10300000
00100000
10000000
00000000
00010000
01000000
00010000
00000000
,
20000000
30200000
00320000
00032000
,
00003200
00000000
00000310
00000100
00000002
00000000
00000013
00000100
,
00001000
00000000
00000100
00000100
00000000
00010000
00010000
00000000
,
00001000
00010000
00001000
00000000
00010000
00100000
01000000
00000000
,
00010000
10000000
01000000
00000000
00010000
00001000
00000010
00000000
,
00000001
00000100
00000001
00000000
00000010
00001000
00010000
00000000
,
02000000
23000000
30200000
00320000
,
00031000
00010000
00000100
00000000
00001000
00000001
00000100
00000000
,
00000010
00000100
00001000
00000000
00010000
00100000
01000000
00000000
,
00100000
10000000
00010000
01000000
00001000
00010000
00000100
00000000
,
00001000
00000010
00000100
00000001
00001000
00000010
00010000
00000000
,
00001000
00000000
00011000
00000000
00010000
00001000
00000100
00000001
,
00000200
00002300
00023000
00230000
,
10300000
00000000
01000000
00100000
00000000
01000000
00010000
00001000
,
00000020
00000000
00000032
00000000
00001003
00000001
00000100
00000001
,
00000100
00001000
00010000
00001000
00010000
00100000
01000000
00100000
,
01000000
00010000
10000000
00010000
02000000
00000000
03002000
00000000
,
00023000
00000000
00000000
00000000
00000000
00030010
00001000
00000100
,
00000020
00000000
00000000
00000000
,
00000130
00000000
00000000
00000000
,
00000010
00000001
00000010
00000000
00000001
00001000
00000001
00000000
,
00001000
00000100
00010000
00001000
00010000
00000000
00001000
00000000
,
01001000
01010000
10010000
11000000
,
10000000
00010000
10000000
00010000
00100000
00001000
00010000
00001000
,
00010000
00000100
00010000
00000000
00000100
00001000
00000100
00000000
,
00000010
00000000
00000001
00000000
00000010
00000000
00000000
00000000
00000001
00000000
00000000
00000100
00000000
00000000
00001000
00000000
,
00010000
00001000
00010000
00001000
01000000
00010000
10000000
00000000
,
00100000
10000000
00100000
10000000
00010000
01000000
00001000
00000000
,
00010000
00000000
00000000
00000100
00000000
00000000
00001000
00000000
00000010
00000000
00000000
00010000
00000000
00000000
00001000
00000000
,
00100000
00000000
00000000
00010000
00000000
00000000
01000000
00000000
00001000
00000000
00000000
00000000
00010000
00000000
00000000
00000000
,
00001000
00001000
00000000
00010000
00010000
00000000
00000100
00000100
,
00001000
00000000
00000000
00000000
,
00000002
00000000
00000103
00001000
00020000
00000000
00031000
00010000
,
00200000
00000000
01300000
00100000
20000000
00000000
31000000
00100000
,
00020000
00000000
01030000
00000000
00010000
00100000
00001000
00000000
,
00010000
00000010
00001000
00000001
00000100
00000010
00001000
00000000
,
00000100
00010000
00001000
00010000
00001000
01000000
00010000
00000000
,
10000000
00100000
01000000
00010000
01000000
00010000
00100000
00000000
,
00001000
00001000
00000000
00000000
00010000
00010000
00000000
00000000
,
00000100
00000100
00000010
00000010
00000000
00000000
00000000
00000000
,
00000001
00000100
00000010
00000000
00001000
00000100
00010000
00000000
,
00001000
00010000
00001000
00010000
00001000
00000000
01000000
00000000
,
01010000
00110000
00011000
00001010
,
00000001
00000100
00000001
00000100
00000010
00001000
00000100
00010000
,
00001000
00100000
00010000
00000000
10000000
00100000
01000000
00000000
,
00010000
00000000
00100000
00000000
00001000
00000000
00000000
00000000
00010000
00000000
00000000
00000010
00000000
00000000
00001000
00000000
,
00000001
00000010
00000100
00001000
00000100
00010000
00001000
00000000
,
00010000
00001000
00100000
00010000
10000000
01000000
10000000
00000000
,
01000000
00000000
00000000
00010000
00000000
00000000
00001000
00000000
00010000
00000000
00000000
00001000
00000000
00000000
00000010
00000000
,
00000001
00000000
00000000
00000100
00000000
00000000
00001000
00000000
00010000
00000000
00000000
00000000
00001000
00000000
00000000
00000000
,
00100000
00100000
00000000
00010000
00010000
00000000
10000000
10000000
,
00010000
00000000
00000000
00000000
,
01000000
00010000
01000000
00010000
10000000
01000000
10000000
00000000
,
00010000
00000000
00000000
01000000
00000000
00000000
00001000
00000000
00010000
00000000
00001000
00000000
00010000
00000000
00000000
00000000
,
00000010
00000000
00000000
00001000
00000000
00000000
00000100
00000000
00000010
00000000
00000001
00000000
00000010
00000000
00000000
00000000
,
00000001
00000000
00000000
00001000
00000000
00000000
00000100
00000000
00010000
00000000
00001000
00000000
00010000
00000000
00000000
00000000
,
00000010
00001000
00000010
00001000
00000001
00000010
00000001
00000000
,
00001000
00000000
00000000
00000010
00000000
00000000
00010000
00000000
00001000
00000000
00010000
00000000
00001000
00000000
00000000
00000000
,
00011000
00000000
00000000
00010000
01000000
00100000
01000000
00000000
,
10000000
00000000
00100000
00000000
00010000
00000000
00001000
00000000
00010000
00000000
00000000
00001000
00000000
00010000
00000000
00000000
,
00000000
00000000
00000000
00000000
;
#NOTES:
     dance-double:
     :
     Hard:
     16:
     :
00000000
00000000
00000000
00000000
,
00000000
00000000
00000000
00000000
,
00000000
00000000
00000000
00000000
,
00000000
00000000
00000000
00000000
,
00000001
00000000
00000000
00001000
00000000
00000000
00000000
00000000
,
00001100
00000000
00000000
00011000
00000000
00000000
00110000
00000000
00000000
01100000
00000000
00000000
10010000
00000000
10010000
00000000
,
00010000
01000000
00010000
01000000
00001000
00010000
00001000
00010000
,
00000100
00001000
00000001
00001000
00000100
00000000
00010000
00000000
,
00011000
00000000
00001000
00010000
00100000
00000000
01100000
00000000
,
01000000
00000000
00000000
00010000
00100000
00000000
00001000
00000000
00010000
00000000
00000000
00000000
00001000
00000000
00000000
00000000
,
00000010
00000000
00000100
00000000
00000010
00000001
00000010
00000001
00001000
00000000
00000100
00010000
00001000
00010000
00001000
00000000
,
00100000
00010000
00100000
00000000
00010000
10000000
01000000
00000000
00100000
00000000
00010000
00100000
00001000
00010000
00001000
00000000
,
00010000
00000100
00010000
00000100
00000000
00001000
00000010
00000000
00000100
00000000
00000001
00001000
00000100
00000000
00010000
00000000
,
00001000
00000000
01000000
00010000
00000000
10000000
00100000
00000000
01000000
00000000
00010000
01000000
00010000
00000000
00100000
00000000
,
00001000
00010000
00000010
00001000
00000000
00000001
00000010
00000000
00000100
00000000
00000010
00000001
00000010
00000000
00000001
00000000
,
00001000
00000100
00001000
00000000
00000100
00010000
00001000
00000000
00100000
00000000
00010000
10000000
01000000
10000000
01000000
00000000
,
00100000
01000000
00100000
00000000
01000000
00100000
00010000
00000000
01000000
00000000
00001000
00000000
00010000
00001000
00010000
00000000
,
00000010
00000000
00001000
00000000
00000100
00000000
00000010
00000000
00000001
00001000
00000001
00001000
00000100
00000000
00010000
00000000
,
00001000
00010000
00001000
00010000
00001000
00010000
00001000
00000000
01000000
00010000
00000000
01000000
00000000
00100000
10000000
00100000
,
10000000
01000000
00100000
00010000
01000000
00100000
00010000
00001000
,
00010000
00000100
00001000
00000010
00010000
00001000
00100000
00010000
,
01000000
00000000
00001000
00000000
00010000
00000000
00001000
00000000
00010000
00000000
00000010
00001000
00000010
00000000
00000100
00000000
,
00000002
00000013
00002000
00013000
02000000
13000000
00020000
00130000
,
00001000
00000000
00010000
00000000
00000100
00001000
00000100
00001000
00000001
00001000
00000001
00000000
00001000
00000000
00000100
00000000
,
00020000
00031000
00200000
00310000
02000000
03100000
20000000
31000000
,
20000000
00100000
30100000
00010000
00002000
00000010
00003010
00000001
,
00001001
00000000
00000000
00000000
00000110
00000000
00000110
00000000
00000000
00000000
00001000
00000001
00001000
00000000
00000001
00000100
,
00000001
00000010
00000100
00001000
00000010
00000100
00001000
00010000
,
00001000
00100000
00010000
01000000
00001000
00010000
00000100
00001000
,
00000010
00000000
00010000
00000000
00001000
00000000
00010000
00001000
00010000
00001000
00100000
00010000
00100000
00000000
00010000
00000000
,
20000000
31000000
00020000
00031000
00000020
00000031
00002000
00003100
,
00010000
00001000
00100000
00010000
01000000
00100000
10000000
00010000
,
00100000
00001000
00010000
00000010
00001000
00000100
00010000
00001000
,
00100000
00010000
00100000
00000000
00010000
00000000
10000000
00000000
01000000
00100000
00000000
00010000
01000000
00001000
00010000
00000000
,
00000100
00001000
00000100
00001000
00000001
00000100
00000001
00000000
00001000
00000100
00010000
00001000
00010000
00001000
00100000
00000000
,
00010000
10000000
10010000
00000000
10000000
00100000
00010000
00001000
,
00000200
00000310
00002000
00003100
00000020
00001030
00020000
00031000
,
00010000
00001000
00000100
00001000
00010000
00100000
10000000
00100000
,
02000000
03010000
00200000
01300000
00020000
00031000
00000020
00000130
,
00001000
00000000
00000001
00000010
00000100
00001000
00000100
00000000
00010000
00001000
00010000
00001000
00100000
00000000
00010000
00000000
,
10000000
00000000
01000000
00010000
00000000
00001000
00010000
00000000
00001000
00000100
00000010
00000000
00000100
00000000
00000001
00000000
,
00001000
00000000
00000100
00010000
00001000
00010000
00001000
00000000
00100000
00010000
00000000
01000000
00010000
00000000
00100000
01000000
,
20000000
00000000
00000000
00000000
,
30010000
00000000
00000000
00000000
,
10000000
00000000
01000000
00000000
00100000
00000000
00010000
00000000
00100000
00000000
00001000
00010000
00001000
00000000
00010000
00000000
,
00000010
00000000
00001000
00000000
00000010
00000000
00001000
00000000
00000001
00001000
00000001
00001000
00000001
00000000
00000010
00000000
,
00000100
00000000
00001000
00000000
00000010
00000000
00010000
00000000
00001000
00000000
00100000
00010000
01000000
00000000
00100000
00000000
,
10000000
00010000
10000000
00010000
10000000
00000000
00100000
00000000
01000000
00000000
01010000
00000000
01001000
00000000
00011000
00000000
,
00010000
00000000
00000100
00000000
00001000
00000000
00000010
00000000
00000100
00000000
00000001
00000010
00000001
00000000
00000100
00000000
,
00001000
00000000
00010000
00000000
00100000
00000000
01000000
00000000
00010000
00000000
00100000
01000000
10000000
00000000
00010000
00000000
,
01000000
00000000
00001000
00010000
00000100
00000000
00001000
00000000
00000001
00000000
00000010
00000001
00000010
00000000
00000100
00000000
,
00001000
00000100
00001000
00000100
00010000
00000000
00001000
00000000
01000000
00010000
00000000
10000000
00100000
01000000
00010000
00000000
,
10000000
00000000
01000000
00000000
00010000
00000000
00001000
00000000
00000010
00000000
00000001
00001000
00000010
00000000
00000100
00000000
,
00000001
00000000
00000100
00000000
00001000
00000000
00010000
00000000
00100000
00000000
10000000
00010000
01000000
00000000
00010000
00000000
,
01010000
01010000
00000000
00011000
00011000
00000000
00001100
00001100
,
00001001
00000000
00000000
00000000
,
00000002
00000000
00000000
00000000
00000103
00000000
00001000
00010000
00002000
00000000
00000000
00000000
00013000
00000000
00100000
01000000
,
00200000
00000000
00000000
00000000
10300000
00000000
00010000
00100000
00010000
20000000
00000000
30010000
01000000
00100000
01000000
00000000
,
00010000
00200000
00000000
00000000
00301000
00000000
00010000
00000000
00000010
00000000
00001000
00000010
00001000
00000000
00000001
00000000
,
00000010
00000000
00000100
00000000
00001000
00000000
00000010
00000000
00010000
00000000
00001000
00000000
00010000
00000000
01000000
00000000
10000000
00000000
00100000
00000000
00000000
01000000
00000000
00000000
,
00010000
00000000
00100000
00000000
00010000
00000000
00100000
00000000
00001000
00000000
00010000
00001000
00010000
00000000
00000010
00000000
,
00001000
00000000
00000001
00000000
00001000
00000000
00000001
00000000
00001000
00000100
00001000
00000100
00010000
00000000
00001000
00000000
,
00011000
00011000
01000000
00000000
00011000
00011000
00000100
00000010
,
00000100
00000010
00000100
00000020
00000000
00000000
00000000
00000030
,
00000001
00000000
00000010
00000000
00000100
00000000
00001000
00000000
00000100
00000000
00010000
00001000
00010000
00000000
00001000
00000000
,
01000000
00000000
00010000
00000000
01000000
00000000
00010000
00000000
10000000
00010000
10000000
00010000
10000000
00000000
01000000
00000000
,
00100000
00000000
00010000
00000000
01000000
00000000
00001000
00000000
00010000
00000000
00000100
00001000
00000010
00000000
00000100
00000000
,
00000001
00001000
00000001
00001000
00000001
00000000
00000100
00000000
00000010
00000000
00001010
00000000
00010010
00000000
00011000
00000000
,
00001000
00000000
00100000
00000000
00010000
00000000
01000000
00000000
00100000
00000000
10000000
01000000
10000000
00000000
00100000
00000000
,
00010000
00000000
00001000
00000000
00000100
00000000
00000010
00000000
00001000
00000000
00000100
00000010
00000001
00000000
00001000
00000000
,
00000010
00000000
00010000
00001000
00100000
00000000
00010000
00000000
10000000
00000000
01000000
10000000
01000000
00000000
00100000
00000000
,
00010000
00100000
00010000
00100000
00001000
00000000
00010000
00000000
00000010
00001000
00000000
00000001
00000100
00000010
00001000
00000000
,
00000001
00000000
00000010
00000000
00001000
00000000
00010000
00000000
01000000
00000000
10000000
00010000
01000000
00000000
00100000
00000000
,
10000000
00000000
00100000
00000000
00010000
00000000
00001000
00000000
00000100
00000000
00000001
00001000
00000010
00000000
00001000
00000000
,
00001010
00001010
00000000
00011000
00011000
00000000
00110000
00110000
,
10010000
00000000
00000000
00000000
,
10000000
00010000
01000000
00000000
00010000
01000000
00001000
00000000
00010000
00000000
00000100
00001000
00000001
00001000
00000001
00000000
,
00000010
00000100
00000010
00000100
00000000
00001000
00000001
00000000
00000100
00000000
00001000
00010000
00001000
00000000
00010000
00000000
,
00100000
00000000
01000000
00100000
00000000
10000000
01000000
00000000
00100000
00000000
00010000
00100000
00010000
00000000
10000000
00000000
,
01000000
00010000
00001000
00010000
00000000
00001000
00000010
00000000
00000001
00000000
00000100
00000001
00000100
00000000
00000010
00000000
,
00001000
00000010
00010000
00000000
00001000
01000000
00010000
00000000
10000000
00000000
01000000
00100000
00010000
00100000
00010000
00000000
,
00100000
00001000
00010000
00000000
00000010
00001000
00000001
00000000
00000010
00000000
00001000
00000000
00010000
00001000
00010000
00000000
,
00001000
00000000
00010000
00000000
01000000
00000000
10000000
00000000
00010000
01000000
00010000
01000000
00001000
00000000
00010000
00000000
,
00000100
00001000
00000100
00001000
00000001
00000010
00000001
00000000
00000100
00001000
00000000
00010000
00000000
00001000
00010000
00001000
,
00000000
00000000
00000000
00000000
;
