
//----- song ID: oroc -----//
#TITLE:OROCHI STRIKE;
#ARTIST:Hommarju & BEMANI Sound Team "兎々";
#ARTISTTRANSLIT:Hommarju & BEMANI Sound Team "Totto";
#BANNER:OROCHI STRIKE.png;
#BACKGROUND:OROCHI STRIKE-bg.png;
#CDTITLE:./CDTitles/DDR WORLD.png;
#MUSIC:OROCHI STRIKE.ogg;
#SAMPLESTART:78.875;
#SAMPLELENGTH:15;
#BPMS:0=200,36=130,40=140,44=150,48=160,52=170,56=180,60=190,64=200,164=50,165=60,166=70,167=80,168=90,169=100,170=110,171=120,172=125,173=130,174=135,175=140,176=150,177=155,178=160,260=90,262=100,264=110,266=120,268=130,270=140,272=150,274=160,276=180;
#NOTES:
     dance-single:
     :
     Beginner:
     3:
     :
0000
0000
0000
0000
,
0000
0000
0000
0000
,
0000
0000
0000
0000
,
0000
0000
0000
0000
,
0000
0000
0000
0000
,
0000
0000
0000
0000
,
0000
0000
0000
0000
,
0000
0000
0000
0000
,
0000
0000
0000
0000
,
2000
0000
0000
0000
,
0000
0000
3000
0000
,
0002
0000
0000
0000
,
0000
0000
0003
0000
,
2000
0000
0000
0000
,
0000
0000
3000
0000
,
0002
0000
0000
0000
,
0000
0000
0003
0000
,
1000
0000
0000
0000
,
0000
0000
0000
0000
,
0100
0000
0000
0000
,
0000
0000
0000
0000
,
0010
0000
0000
0000
,
0000
0000
0000
0000
,
0001
0000
0000
0000
,
0000
0000
0000
0000
,
1000
0000
0000
0000
,
1000
0000
0000
0000
,
0002
0000
0000
0000
,
0003
0000
0000
0000
,
0010
0000
0000
0000
,
0010
0000
0000
0000
,
0002
0000
0000
0000
,
0003
0000
0000
0000
,
0001
0000
0000
0000
,
0001
0000
0000
0000
,
2000
0000
0000
0000
,
3000
0000
0000
0000
,
0010
0000
0000
0000
,
0010
0000
0000
0000
,
2000
0000
0000
0000
,
3000
0000
0000
0000
,
0001
0000
0000
0000
,
0001
0000
0000
0000
,
1000
0000
0000
0000
,
1000
0000
0000
0000
,
0100
0000
0000
0000
,
0000
0000
0000
0000
,
1000
0000
0000
0000
,
0000
0000
0000
0000
,
0001
0000
0001
0000
,
0001
0000
0000
0000
,
0010
0000
0000
0000
,
0002
0000
0003
0000
,
1000
0000
1000
0000
,
1000
0000
0000
0000
,
0020
0000
0000
0000
,
0030
0000
0000
0000
,
1000
0000
0010
0000
,
1000
0000
0000
0000
,
0001
0000
0010
0000
,
0001
0000
0000
0000
,
2000
0000
0000
0000
,
3000
0000
0000
0000
,
0002
0000
0000
0000
,
0003
0000
0000
0000
,
0020
0000
0030
0000
,
0002
0000
0003
0000
,
2000
0000
3000
0000
,
0002
0000
0003
0000
,
0100
0000
0000
0000
,
0000
0000
0000
0000
,
0100
0000
0000
0000
,
0000
0000
0000
0000
,
0001
0000
0000
0000
,
0001
0000
0000
0000
,
1000
0000
0001
0000
,
2000
0000
0000
0000
,
3000
0000
0000
0000
,
0000
0000
0000
0000
,
0001
0000
0000
0000
,
1000
0000
0000
0000
,
0100
0000
0000
0000
,
0100
0000
0000
0000
,
1000
0000
0000
0000
,
0001
0000
0000
0000
,
0100
0000
0000
0000
,
0000
0000
0000
0000
,
1001
0000
0000
0000
,
0000
0000
0000
0000
;
#NOTES:
     dance-single:
     :
     Easy:
     7:
     :
0000
0000
0000
0000
,
0000
0000
0000
0000
,
0000
0000
0000
0000
,
0000
0000
0000
0000
,
0000
0000
0000
0000
,
0000
0000
0000
0000
,
0000
0000
0000
0000
,
0000
0000
0000
0000
,
0000
0000
0000
0000
,
0002
0000
0000
0000
,
0000
0000
0000
0003
,
0200
0000
0000
0000
,
0000
0000
0000
0300
,
0020
0000
0000
0030
,
2000
0000
0000
3000
,
0001
0000
1000
0000
,
0001
0000
1000
1000
,
0001
0100
0001
0000
,
1000
0100
1000
0000
,
0001
0010
0001
0000
,
1000
0010
1000
0000
,
0001
1000
0001
1000
,
0100
0010
0100
0010
,
0001
0001
0001
0001
,
0002
0000
0000
0003
,
1000
1000
0010
0000
,
0100
0100
0001
0000
,
1000
0001
1000
0001
,
2000
0000
0000
3000
,
0001
0001
0010
0000
,
0100
0100
1000
0000
,
0001
0000
1000
0000
,
0002
0000
0000
0003
,
1000
0001
1000
0001
,
1000
0010
1000
0000
,
0001
1000
0001
1000
,
0001
0010
0001
0000
,
1000
0010
1000
0010
,
0100
0001
0100
0000
,
0001
0000
1000
0000
,
0001
0000
0000
0000
,
1000
0100
0010
0001
,
0010
0100
1000
0001
,
1000
0010
0100
0001
,
0100
0010
1000
0000
,
1001
0000
0001
0000
,
1000
0000
0001
0000
,
1000
0100
0010
0001
,
1000
0001
2000
3002
,
1003
0001
0100
0010
,
1000
0001
0010
0100
,
1000
0100
0010
0100
,
1000
1000
0001
0001
,
0100
0010
1000
0001
,
0010
0100
1000
0001
,
1000
0010
0001
0010
,
2000
0000
3001
0001
,
1000
0000
0100
0000
0010
0001
0010
0000
,
0001
0000
0100
0000
0010
1000
0010
0000
,
1000
0000
0001
0000
0010
0100
0010
0000
,
0001
0001
1000
1000
,
0001
0000
0100
0000
0010
1000
0010
0000
,
1000
0000
0100
0000
0010
0001
0010
0000
,
0001
0000
0100
0000
0010
0100
0010
0000
,
2000
0000
0002
3003
,
1000
0100
0010
0001
,
0100
0010
0100
0000
,
1000
0001
0100
0010
,
0100
1000
0100
0000
,
0110
0000
0000
0000
,
0110
0000
0000
0000
,
1001
0000
0000
0000
,
1001
0000
0000
0000
,
0001
0001
0100
0010
,
1000
1000
0100
0010
,
0001
0000
1000
0000
,
2002
0000
3003
0000
,
0001
0000
0100
0000
0010
0100
0010
0000
,
0200
0000
0300
0010
,
0010
0000
1000
0010
,
0100
0001
0010
0000
,
0001
0000
1000
0000
,
0100
0000
0000
0100
0000
0000
0100
0000
,
1000
0000
0001
0100
,
0010
1000
0100
1000
,
0001
0000
1000
0000
,
0001
0000
0010
0000
0100
0000
0010
0100
,
0010
0000
0000
0000
,
0000
0000
0000
0000
;
#NOTES:
     dance-single:
     :
     Medium:
     12:
     :
0000
0000
0000
0000
,
0000
0000
0000
0000
,
0000
0000
0000
0000
,
0000
0000
0000
0000
,
0000
0000
0000
0000
,
0000
0000
0000
0000
,
0000
0000
0000
0000
,
0000
0000
0000
0000
,
0000
0000
0000
0000
,
2002
0000
0000
0000
,
0000
0000
0000
3003
,
0220
0000
0000
0000
,
0000
0000
0000
0330
,
2002
0000
0000
3003
,
2002
0000
0000
3003
,
0001
0000
0010
0000
,
0100
0000
0010
0010
,
0001
0100
0010
1000
,
0010
1000
0010
0000
0100
0010
0100
0000
,
0001
0010
0100
1000
,
0100
1000
0100
0000
0010
0100
0010
0000
,
0001
0100
0010
0100
,
0010
1000
0001
1000
,
0001
1000
0001
1000
0001
1000
0001
1000
,
0002
0000
0000
1003
,
0001
0001
0010
0010
,
0100
0100
1000
1000
,
0001
0001
0100
0100
,
0010
0000
1000
0010
1000
0000
0010
0000
,
1000
1000
0001
0001
,
0010
0000
0010
0000
0100
0000
1000
0001
,
1000
0000
0000
0010
0000
0000
1000
0000
0001
0000
0000
0010
0000
0000
0001
0000
,
2000
0000
0000
3001
,
1000
0100
1000
0000
0100
0010
0100
0000
,
0010
0001
0010
0000
0001
0000
1000
0000
,
0001
0100
0001
0000
0100
0010
0100
0000
,
0010
0000
1000
0010
1000
0000
0001
0000
,
1000
0100
0010
0000
0100
0010
0001
0000
,
1000
0010
0100
0000
0010
0100
0001
0000
,
1000
0001
1000
0001
1000
0001
,
1000
0001
1001
0000
0000
0000
,
1000
0100
1000
0100
0010
0001
0010
0001
,
0100
0001
0100
0001
1000
0010
1000
0010
,
0100
0010
0100
0010
1000
0001
1000
0001
,
0020
0100
0100
0030
,
0110
0000
0011
0000
,
1001
0000
1010
0000
,
1000
0010
0100
0001
,
1000
0001
1000
0001
2000
0000
3002
0000
,
1003
0001
0010
0001
1000
0001
0010
0000
,
0001
1000
0010
1000
0001
1000
0010
0000
,
1000
0100
0010
0100
1000
0100
0010
0000
,
0001
0100
0010
0000
1000
0100
0010
0000
,
0001
1000
0010
1000
0001
1000
0010
0000
,
1000
0001
0010
0001
1000
0001
0010
0000
,
0100
1000
0010
0000
0100
0001
0010
0000
,
0220
0330
1000
0001
,
1000
0010
0100
0001
1000
0010
0100
0001
,
1000
0100
0010
0001
1000
0100
0010
0001
,
1000
0100
0001
0100
1000
0100
0001
0100
,
1000
0001
0100
0001
1000
0001
0100
0000
,
0001
0010
0100
1000
0001
0010
0100
1000
,
0001
0100
0010
1000
0001
0100
0010
1000
,
0001
0100
1000
0100
0001
0100
1000
0100
,
0001
1000
0100
1000
0001
1000
0100
0000
,
1000
0010
0100
0001
,
1000
0010
0001
0010
,
0001
0010
0100
1000
,
0100
0001
1000
0001
,
0100
0010
1000
0001
,
0100
0010
1000
0001
,
0010
0100
1000
0001
,
0010
0100
1000
0001
,
1001
1000
0001
1000
,
0110
0010
0100
0010
,
1001
0000
0110
0000
,
2002
0000
0000
3003
,
0001
0010
0100
1000
0001
1000
0002
0000
,
2000
0000
3003
1001
,
0001
0000
0000
0100
0000
0001
0000
0100
0000
0001
0000
0000
1000
0000
0000
0000
,
0001
0000
0010
0000
0100
0000
0010
0000
0000
0001
0000
0000
1000
0000
0001
0000
,
1000
0000
0000
0010
0000
1000
0000
0010
0000
1000
0000
0000
0001
0000
0000
0000
,
1000
0000
0000
0001
0000
0000
1000
0000
0000
0001
0000
0000
0010
0000
0100
0000
,
0010
0000
0000
0001
0000
0010
0000
0001
0000
0010
0000
0000
0001
0000
0000
0000
,
1000
0000
0010
0000
0100
0000
0010
0000
0000
1000
0000
0000
0001
0000
1000
0000
,
0001
0000
0000
1000
0000
0100
0000
1000
0000
0100
0000
0000
0010
0000
0000
0000
,
0001
0000
0000
1000
0000
0000
0001
0000
0000
1000
0000
0000
0001
1000
0001
1000
,
0001
0000
0000
0000
,
0000
0000
0000
0000
;
#NOTES:
     dance-single:
     :
     Hard:
     16:
     :
0000
0000
0000
0000
,
0000
0000
0000
0000
,
0000
0000
0000
0000
,
0000
0000
0000
0000
,
0000
0000
0000
0000
,
0000
0000
0000
0000
,
0000
0000
0000
0000
,
0000
0000
0000
0000
,
0000
0000
0000
0000
,
1002
0000
0000
0000
,
0000
0000
0000
0003
,
2001
0000
0000
0001
0000
0000
0000
0000
,
0000
0100
0100
0000
0001
0000
3000
0000
,
0102
0000
0000
0003
,
2100
0000
0000
3000
,
0110
0000
0110
0000
,
1001
0000
0001
0001
,
0001
0010
0100
0010
0001
0100
0010
1000
,
0001
0010
0100
1000
0001
0100
0010
0100
,
0001
1000
0100
0010
0001
1000
0010
0100
,
0001
0100
0010
1000
0010
0100
0001
1000
,
0001
0010
0001
0010
0100
1000
0100
1000
,
0010
1000
0010
1000
0001
0100
0001
0100
,
0001
1000
0001
1000
0001
1000
0001
1000
0001
1000
0001
1000
0001
1000
0001
1000
,
0002
0000
0000
1003
,
2020
3030
2020
3030
0202
0303
0202
0303
,
2002
3003
2020
3030
2002
3003
0022
0033
,
2002
3003
2200
3300
2002
3003
0202
0303
,
0001
0000
0100
0100
0100
0000
0001
0000
,
0202
0303
0022
0033
2200
3300
2020
3030
,
2002
0000
3003
0000
0220
0000
0330
0000
2002
0000
3003
0000
0001
1000
0001
0000
,
1000
0000
0000
0010
0000
0000
0100
0000
0001
0000
0000
0010
0000
0000
0100
0000
,
0220
0000
0330
1001
,
2000
3001
2000
3001
2000
3010
0200
0301
,
2000
3100
0020
0031
2000
3001
0200
0310
,
2000
3001
0020
0130
2000
3001
2000
3001
,
1000
0000
0100
0100
0100
0000
1000
0000
,
0001
0100
0000
0000
0010
1000
0000
0000
0001
0010
0000
0000
0100
1000
0000
0000
,
0010
0100
0000
0000
0001
1000
0000
0000
0100
1000
0000
0000
0001
0100
0001
0000
,
1000
0100
0010
0100
0010
0001
,
1000
0001
1001
0000
0000
0000
,
1000
0000
0001
0000
1000
0001
0100
0000
0001
0000
1000
0000
0001
1000
0100
0000
,
0010
0001
0100
0000
0010
1000
0100
0000
0010
0100
0010
0000
0001
1000
0001
0000
,
1000
0100
0010
0001
0010
0100
1000
0000
0001
0100
0010
1000
0010
0100
0001
0000
,
1000
0000
0000
0001
0000
0000
0010
0000
0000
0001
0000
0000
1000
0000
0000
0001
0000
0000
0010
0000
0000
0001
0000
0000
1000
0000
0000
0000
0000
0000
0001
0000
0000
0000
0000
0000
1000
0000
0001
0000
1000
0000
0001
0000
0000
0000
0000
0000
,
1000
1000
0001
0001
,
1000
1000
0001
0001
,
1000
1000
0100
0100
0010
0010
0001
0001
,
1000
0001
0010
0001
1000
0001
0010
0001
0200
0000
0310
1000
0200
0000
0320
0000
,
0031
0010
0001
0000
0010
0100
0010
0000
0100
1000
0100
0000
1000
0001
0100
0000
,
0010
1000
0010
0000
0100
0010
0100
0000
0001
0100
0001
0000
1000
0001
0010
0000
,
0100
1000
0010
0000
0100
0001
0010
0000
0001
1000
0100
0000
1000
0001
0100
0000
,
0001
0010
0001
0010
0100
1000
0100
0000
1000
0010
1000
0010
0100
0001
0100
0000
,
0001
0100
0010
0000
0100
0010
1000
0000
0010
1000
0100
0000
0010
0001
0100
0000
,
0001
0010
0100
0000
0010
0100
1000
0000
0100
1000
0010
0000
0100
0001
0010
0000
,
0001
1000
0100
1000
0001
1000
0100
1000
0001
1000
0010
1000
0001
1000
0010
1000
,
0002
0000
0003
0000
0020
0000
0001
1000
0000
0000
1000
0001
0000
0000
0032
0000
,
1003
0001
0100
0001
1000
0001
0100
0001
1000
0000
0001
0000
1000
0100
0010
0000
,
0001
1000
0100
1000
0001
1000
0100
1000
0001
0000
1000
0000
0001
0100
0010
0000
,
1000
0001
1000
0100
1000
0001
1000
0100
1000
0000
0001
0000
1000
0010
0100
0000
,
0001
1000
0100
1000
0001
0100
0010
0000
1000
0001
0100
0001
1000
0100
0010
0000
,
0001
0100
0010
1000
0001
0100
0010
1000
0001
0010
0100
1000
0001
1000
0001
0000
,
1000
0100
0010
0001
1000
0100
0010
0001
1000
0010
0100
0001
1000
0001
1000
0000
,
0001
0100
0010
1000
0001
0010
0100
1000
0001
0100
0010
1000
0001
1000
0001
0000
,
0100
0001
0100
0001
1000
0100
1000
0100
0010
0001
0010
0001
1000
0010
1000
0010
,
1000
0100
0010
0100
0010
0001
0100
0010
,
1000
0001
0010
0100
1000
0100
0010
0100
,
1000
0100
0010
0001
1000
0001
1000
0010
,
0100
0001
0100
0001
1000
0100
1000
0001
,
0110
0100
0100
0100
,
1001
0001
0001
0001
,
0110
0010
0010
0010
,
1001
1000
1000
1000
,
0101
0100
0100
0100
0100
0100
0100
0000
,
1100
0100
0100
0100
0100
0100
0100
0000
,
0110
0010
0010
0000
1001
0001
0001
0000
,
2002
0000
0000
3003
,
1000
0000
0010
0000
1000
0000
0001
0010
0000
0100
1000
0000
0001
0100
0001
0100
,
0002
0000
0003
1001
,
1000
0000
0000
0100
0000
0100
0000
0100
0000
0010
0001
0000
1000
0000
1000
0000
,
0001
0100
0010
0000
0100
0000
0010
1000
0000
0001
0100
0000
0010
0100
0010
0100
,
0010
0000
0000
0100
0000
0100
0000
0100
0000
0010
1000
0000
0001
0000
0001
0000
,
1000
0100
0000
0010
0001
0000
1000
0010
0000
0100
0001
0000
1000
0001
1000
0001
,
1000
0000
0000
0001
0000
0010
0000
0001
0000
0100
0010
0000
1000
0000
1000
0000
,
0001
1000
0100
0000
1000
0000
0100
0010
0000
0001
1000
0000
0001
0010
0001
0010
,
0001
0000
0000
1000
0000
0010
0000
1000
0000
0100
0010
0000
0001
0000
0001
0000
,
1000
0010
0000
0010
0100
0000
0100
0001
0000
0001
1000
0000
0001
1000
0001
1000
,
1001
0000
0000
0000
,
0000
0000
0000
0000
;
#NOTES:
     dance-double:
     :
     Easy:
     7:
     :
00000000
00000000
00000000
00000000
,
00000000
00000000
00000000
00000000
,
00000000
00000000
00000000
00000000
,
00000000
00000000
00000000
00000000
,
00000000
00000000
00000000
00000000
,
00000000
00000000
00000000
00000000
,
00000000
00000000
00000000
00000000
,
00000000
00000000
00000000
00000000
,
00000000
00000000
00000000
00000000
,
00002000
00000000
00000000
00000000
,
00000000
00000000
00000000
00003000
,
00020000
00000000
00000000
00000000
,
00000000
00000000
00000000
00030000
,
00000200
00000000
00000000
00000300
,
00002000
00000000
00000000
00003000
,
00000001
00000000
00001000
00000000
,
00000001
00000000
00001000
00001000
,
00000001
00000000
00000100
00000000
,
00001000
00000000
00010000
00000000
,
00100000
00000000
10000000
00000000
,
01000000
00000000
00010000
00000000
,
00001000
00010000
00001000
00000000
,
00010000
00001000
00010000
00000000
,
00001000
00001000
00001000
00001000
,
00002000
00000000
00000000
00003000
,
00010000
00010000
00010000
00000000
,
00000010
00000010
00000010
00000000
,
00001000
00001000
00001000
00000000
,
00000002
00000000
00000000
00000003
,
00001000
00001000
00001000
00000000
,
00000100
00000100
00000100
00000000
,
00010000
00000000
00001000
00000000
,
00020000
00000000
00000000
00030000
,
00001000
00010000
00001000
00000000
,
00100000
00010000
00100000
00000000
,
00010000
10000000
00010000
00000000
,
20000000
00000000
00000000
30000000
,
01000000
10000000
01000000
00000000
,
00100000
01000000
00100000
00000000
,
00010000
00000000
00100000
00000000
,
00001000
00000000
00000000
00000000
,
00010000
00001000
00010000
00001000
,
00010000
00000010
00010000
00000010
,
00001000
00000010
00001000
00000010
,
00000100
00000010
00000100
00000000
,
00000001
00000000
00000100
00000000
,
00001000
00000000
00010000
00000000
,
00001000
00000000
00010000
00000000
,
00001000
00010000
00002000
00023000
,
00031000
00010000
00100000
00000000
,
01000000
00100000
01000000
00000000
,
00010000
10000000
00010000
00000000
,
10000000
00000000
00010000
00000000
,
00100000
01000000
00100000
00000000
,
01000000
00010000
00001000
00000000
,
00010000
00000000
00001000
00000000
,
00020000
00000000
00030000
00000000
,
00001000
00010000
00000010
00001000
,
00000001
00001000
00000001
00000000
,
00000010
00000001
00001000
00000100
,
00010000
00001000
00010000
00000000
,
00001000
00010000
00100000
10000000
,
00010000
10000000
00010000
00000000
,
10000000
01000000
00010000
00001000
,
00010000
00000100
00002000
00003000
,
00001000
00000100
00000010
00000001
,
00000100
00000010
00000100
00000000
,
00001000
00010000
01000000
00100000
,
01000000
10000000
01000000
00000000
,
01000000
00000000
00000000
00000000
,
01000000
00000000
00000000
00000000
,
10000000
00000000
00000000
00000000
,
10000000
00000000
00000000
00000000
,
01100000
00000000
00000000
00000000
,
01100000
00000000
00000000
00000000
,
00100000
00000000
01000000
00000000
,
20020000
00000000
30030000
00000000
,
00010000
01000000
00001000
00010000
,
00002000
00000000
00000000
00003000
,
00010000
00000010
00001000
00000000
,
00000010
00000100
00000010
00000000
,
00001000
00000001
00001000
00000000
,
00000001
00000000
00000000
00000001
00000000
00000000
00000001
00000000
,
00000010
00000000
00000100
00001000
,
00000100
00000000
00010000
00001000
,
00010000
00000000
00001000
00000000
,
00100000
00000000
00010000
00000000
10000000
00000000
00010000
10000000
,
00010000
00000000
00000000
00000000
,
00000000
00000000
00000000
00000000
;
#NOTES:
     dance-double:
     :
     Medium:
     12:
     :
00000000
00000000
00000000
00000000
,
00000000
00000000
00000000
00000000
,
00000000
00000000
00000000
00000000
,
00000000
00000000
00000000
00000000
,
00000000
00000000
00000000
00000000
,
00000000
00000000
00000000
00000000
,
00000000
00000000
00000000
00000000
,
00000000
00000000
00000000
00000000
,
00000000
00000000
00000000
00000000
,
00022000
00000000
00000000
00000000
,
00000000
00000000
00000000
00033000
,
00020020
00000000
00000000
00000000
,
00000000
00000000
00000000
00030030
,
00002020
00000000
00000000
00003030
,
00002002
00000000
00000000
00003003
,
00000001
00000000
00000010
00000000
,
00000100
00000000
00001000
00001000
,
00000001
00000100
00001000
00010000
,
00001000
00010000
00001000
00000000
00100000
00010000
00100000
00000000
,
00010000
10000000
00100000
01000000
,
00010000
01000000
00010000
00000000
01000000
00001000
01000000
00000000
,
00001000
00010000
00000010
00001000
,
00000100
00010000
00001000
00100000
,
00010000
10000000
00010000
10000000
00010000
10000000
00010000
10000000
,
00020000
00000000
00000000
00030000
,
10000000
10000000
01000000
01000000
,
00100000
00100000
00010000
00010000
,
00001000
00001000
00000100
00000100
,
00000010
00000000
00000001
00000010
00000001
00000000
00000010
00000000
,
00000001
00000001
00001000
00001000
,
00000001
00000000
00000001
00000000
00000100
00000000
00000010
00000100
,
00000010
00000000
00000000
00001000
00000000
00000000
00000010
00000000
00010000
00000000
00000000
00001000
00000000
00000000
00010000
00000000
,
00002000
00000000
00000000
00013000
,
00001000
00010000
00001000
00000000
01000000
00010000
01000000
00000000
,
00010000
10000000
00010000
00000000
10000000
01000000
10000000
00000000
,
01000000
00100000
00010000
00100000
,
00001000
00000000
00010000
00001000
00010000
00000000
00001000
00000000
,
00010000
00001000
01000000
00000000
00001000
00010000
00000100
00000000
,
00010000
00001000
00100000
00000000
00001000
00010000
00000010
00000000
,
00010000
00001000
00010000
00001000
00010000
00001000
,
00010000
00001000
00011000
00000000
00000000
00000000
,
00010000
00000100
00010000
00000100
00001000
00000100
00001000
00000100
,
00000010
00000100
00000010
00000100
00000010
00000001
00000010
00000001
,
00001000
00000001
00001000
00000001
00001000
00000010
00001000
00000010
,
00020000
00001000
00001000
00030000
,
00011000
00000000
00110000
00000000
,
10100000
00000000
10010000
00000000
,
10000000
01000000
00100000
00010000
,
00100000
00001000
00100000
00001000
00200000
00000000
00302000
00000000
,
00013000
00001000
00100000
00001000
00010000
00001000
00100000
00000000
,
00001000
00010000
00000010
00010000
00001000
00010000
00000010
00000000
,
00010000
00001000
01000000
00001000
00010000
00001000
01000000
00000000
,
00001000
00010000
00000100
00000000
00001000
00000001
00000100
00000000
,
00000010
00001000
00000010
00010000
00000010
00001000
00000010
00000000
,
00010000
00001000
00010000
00000010
00010000
00001000
00010000
00000000
,
00001000
00010000
01000000
10000000
,
20020000
30030000
00010000
10000000
,
00100000
10000000
00010000
01000000
00001000
00010000
00001000
00000000
,
00010000
00000010
00001000
00000010
00000100
00000001
00001000
00000000
,
00000001
00000010
00000100
00001000
00000100
00010000
00001000
00000000
,
00010000
00001000
00100000
00010000
10000000
00010000
10000000
00000000
,
00010000
01000000
00001000
01000000
00010000
01000000
00001000
00010000
,
00000010
00010000
00001000
00010000
00000010
00001000
00000001
00000000
,
00000010
00000001
00001000
00000001
00000010
00000001
00001000
00000010
,
00010000
00001000
01000000
00001000
00010000
00001000
01000000
00000000
,
00001000
00010000
00100000
00010000
,
00100000
01000000
00100000
00010000
,
00001000
00000010
00000100
00000010
,
00000100
00000010
00001000
00010000
,
00100000
10000000
01000000
00010000
,
00001000
00010000
00001000
00010000
,
00001000
00000010
00000001
00000100
,
00001000
00010000
00001000
00010000
,
00011000
00001000
00001000
00001000
,
00011000
00010000
00010000
00010000
,
00010010
00000000
00101000
00000000
,
00022000
00000000
00000000
00033000
,
00001000
00010000
00000100
00001000
00000001
00000000
00002000
00000000
,
00000002
00000000
00003003
00001001
,
00000001
00000000
00000000
00000100
00000000
00000010
00000000
00000100
00000000
00000010
00000000
00000000
00001000
00000000
00000000
00000000
,
00000010
00000000
00001000
00000000
00000010
00000000
00010000
00000000
00000000
00001000
00000000
00000000
01000000
00000000
00010000
00000000
,
01000000
00000000
00000000
00010000
00000000
10000000
00000000
00010000
00000000
10000000
00000000
00000000
00010000
00000000
00000000
00000000
,
10000000
00000000
00000000
01000000
00000000
00000000
00100000
00000000
00000000
00010000
00000000
00000000
00100000
00000000
00010000
00000000
,
00100000
00000000
00000000
00001000
00000000
00010000
00000000
00001000
00000000
00010000
00000000
00000000
00000100
00000000
00000000
00000000
,
00001000
00000000
00000001
00000000
00000100
00000000
00000001
00000000
00000000
00000100
00000000
00000000
00000010
00000000
00001000
00000000
,
00000010
00000000
00000000
00010000
00000000
00001000
00000000
00010000
00000000
00001000
00000000
00000000
01000000
00000000
00000000
00000000
,
00010000
00000000
00000000
10000000
00000000
00000000
01000000
00000000
00000000
00100000
00000000
00000000
01000000
00000000
00100000
00000000
,
01000000
00000000
00000000
00000000
,
00000000
00000000
00000000
00000000
;
#NOTES:
     dance-double:
     :
     Hard:
     16:
     :
00000000
00000000
00000000
00000000
,
00000000
00000000
00000000
00000000
,
00000000
00000000
00000000
00000000
,
00000000
00000000
00000000
00000000
,
00000000
00000000
00000000
00000000
,
00000000
00000000
00000000
00000000
,
00000000
00000000
00000000
00000000
,
00000000
00000000
00000000
00000000
,
00000000
00000000
00000000
00000000
,
00021000
00000000
00000000
00000000
,
00000000
00000000
00000000
00030000
,
00010200
00000000
00000000
00010000
00000000
00000000
00000000
00000000
,
00000000
00001000
00001000
00000000
00001000
00000000
00000300
00000000
,
00000120
00000000
00000000
00000030
,
00000012
00000000
00000000
00000003
,
00001001
00000000
00000110
00000000
,
00001001
00000000
00000001
00000001
,
00000001
00000100
00000010
00000100
00000001
00000010
00000100
00001000
,
00000010
00000100
00001000
00010000
00001000
00010000
01000000
00100000
,
00010000
10000000
00100000
10000000
00010000
01000000
00001000
00010000
,
00000010
00001000
00000100
00000010
00000001
00000100
00001000
00000100
,
00000001
00000010
00000001
00000010
00000100
00000010
00000100
00000010
,
00000100
00001000
00000100
00001000
00000100
00010000
00000100
00010000
,
00001000
00010000
00001000
00010000
00001000
00010000
00001000
00010000
00001000
00010000
00001000
00010000
00001000
00010000
00001000
00010000
,
00002000
00000000
00000000
00013000
,
00022000
00033000
00022000
00033000
00220000
00330000
00220000
00330000
,
20200000
30300000
20200000
30300000
20020000
30030000
20020000
30030000
,
02020000
03030000
02002000
03003000
00022000
00033000
00020200
00030300
,
00010000
00000000
00001000
00001000
00001000
00000000
00010000
00000000
,
00022000
00033000
00022000
00033000
00002020
00003030
00002020
00003030
,
00000022
00000000
00000033
00000000
00000022
00000000
00000033
00000000
00002002
00000000
00003003
00000000
00001000
00000001
00001000
00000000
,
00000001
00000000
00000000
00000100
00000000
00000000
00000010
00000000
00000100
00000000
00000000
00001000
00000000
00000000
00010000
00000000
,
00002000
00000000
00000000
00013000
,
00002000
00023000
02030000
03020000
00032000
00023000
00230000
20300000
,
30020000
20030000
32000000
03020000
02030000
23000000
30200000
20300000
,
30020000
02030000
03002000
00023000
00030020
00002030
00003200
00000320
,
00000031
00000000
00000010
00000010
00000010
00000000
00000001
00000000
,
00000100
00000001
00000000
00000000
00001000
00000010
00000000
00000000
00010000
00001000
00000000
00000000
01000000
00010000
00000000
00000000
,
10000000
00100000
00000000
00000000
10000000
01000000
00000000
00000000
00100000
00010000
00000000
00000000
00100000
00001000
00100000
00000000
,
00001000
00010000
00001000
00000010
00000001
00000100
,
00001000
00010000
00011000
00000000
00000000
00000000
,
00010000
00000000
00001000
00000000
00100000
00010000
01000000
00000000
00001000
00000000
00010000
00000000
00000010
00001000
00000100
00000000
,
00010000
00001000
00100000
00000000
00001000
00010000
00000010
00000000
00010000
00001000
01000000
00000000
00001000
00010000
00000100
00000000
,
00001000
00000100
00001000
00000100
00000010
00000001
00000010
00000000
00000001
00000100
00000001
00000100
00000010
00001000
00000010
00000000
,
00001000
00000000
00000000
00000010
00000000
00000000
00001000
00000000
00000000
00000010
00000000
00000000
00010000
00000000
00000000
00001000
00000000
00000000
00010000
00000000
00000000
00001000
00000000
00000000
00020000
00000000
00000000
00000000
00000000
00000000
00000000
00000000
00000000
00030000
00000000
00000000
00001000
00000000
00010000
00000000
00001000
00000000
00010000
00000000
00000000
00000000
00000000
00000000
,
00001000
00001000
00010000
00010000
,
00100000
00100000
10000000
10000000
,
01000000
10000000
01000000
10000000
00010000
00100000
00010000
00100000
,
00001000
00010000
00000100
00010000
00001000
00010000
00000100
00010000
00002000
00000000
01003000
00001000
00020000
00000000
00032000
00000000
,
00013000
00001000
00010000
00000000
00000010
00001000
00000010
00000000
00000100
00000010
00000100
00000000
00000001
00000100
00000001
00000000
,
00001000
00000001
00001000
00000000
00000100
00001000
00000100
00000000
00010000
00000100
00010000
00000000
00001000
00010000
00001000
00000000
,
00100000
00001000
00100000
00000000
00010000
00100000
00010000
00000000
10000000
00010000
10000000
00000000
00010000
01000000
00010000
00000000
,
01000000
00010000
10000000
00000000
00010000
01000000
00001000
00000000
00010000
00001000
00100000
00001000
00010000
00001000
00100000
00000000
,
00001000
00010000
00001000
00000000
00010000
00000100
00010000
00000000
00000100
00001000
00000100
00000000
00000010
00000100
00000010
00000000
,
00000001
00000010
00000001
00000000
00001000
00000001
00001000
00000000
00000001
00000100
00000001
00000000
00000100
00000010
00000100
00000000
,
00000010
00001000
00000010
00001000
00000010
00010000
00000010
00000000
01000000
00001000
01000000
00001000
01000000
00010000
01000000
00010000
,
20000000
00000000
30000000
00000000
00010000
00000000
10000000
01000000
00100000
00000000
01000000
00100000
00010000
00000000
00200000
00000000
,
00310000
00100000
00001000
00000000
00010000
00001000
01000000
00000000
00001000
00010000
00001000
00010000
00000010
00001000
00000100
00000000
,
00001000
00000001
00000100
00000000
00000001
00000100
00000010
00000000
00001000
00000010
00001000
00000010
00010000
00001000
00010000
00000000
,
00001000
00010000
00000100
00000000
00010000
00001000
01000000
00000000
00010000
01000000
00010000
01000000
00100000
10000000
01000000
00000000
,
00100000
00010000
00100000
00010000
00100000
00001000
00010000
00000000
00001000
00010000
00001000
00010000
00000100
00001000
00000010
00000000
,
00000100
00000001
00000100
00000001
00000010
00000100
00001000
00000000
00000100
00010000
00001000
00010000
00000100
00010000
00001000
00000000
,
00100000
00010000
00100000
00010000
01000000
00100000
10000000
00000000
00100000
01000000
00010000
01000000
00100000
01000000
00010000
00000000
,
01000000
00001000
00010000
00001000
00010000
00000010
00001000
00000000
00000001
00001000
00000100
00001000
00000001
00001000
00000100
00000000
,
00000010
00000001
00000010
00000001
00001000
00000010
00001000
00000010
00010000
00001000
00010000
00001000
01000000
00010000
01000000
00010000
,
10000000
01000000
00100000
01000000
00100000
00001000
00010000
00001000
,
00010000
00000100
00000010
00000100
00001000
00000001
00000100
00000001
,
00001000
00000001
00000100
00000010
00001000
00000100
00010000
00001000
,
00010000
00100000
01000000
00100000
10000000
00100000
10000000
01000000
,
11000000
01000000
00010000
00001000
,
00011000
00010000
00001000
00000100
,
00000101
00000001
00000010
00001000
,
00011000
00001000
00010000
00100000
,
10100000
10000000
00100000
10000000
01000000
10000000
01000000
00000000
,
00110000
00010000
00100000
00010000
00100000
00001000
00100000
00000000
,
00011000
00010000
00001000
00000000
00011000
00001000
00010000
00000000
,
00022000
00000000
00000000
00033000
,
00010000
00000000
00001000
00000000
00010000
00000000
00000010
00001000
00000000
00000001
00000100
00000000
00000001
00001000
00000001
00001000
,
00000002
00000000
00000003
00001001
,
00000001
00000000
00000000
00000100
00000000
00000100
00000000
00000100
00000000
00000010
00001000
00000000
00000100
00000000
00010000
00000000
,
00001000
00010000
00001000
00000000
00100000
00000000
00010000
00100000
00000000
01000000
10000000
00000000
00010000
10000000
00010000
10000000
,
00010000
00000000
00000000
01000000
00000000
01000000
00000000
01000000
00000000
00100000
10000000
00000000
01000000
00000000
00100000
00000000
,
00010000
00100000
00000000
00001000
00010000
00000000
00000100
00001000
00000000
00000001
00000010
00000000
00000001
00001000
00000001
00001000
,
00000001
00000000
00000000
00000010
00000000
00000001
00000000
00000100
00000000
00000001
00001000
00000000
00000010
00000000
00010000
00000000
,
00001000
00010000
00001000
00000000
01000000
00000000
00010000
01000000
00000000
00100000
10000000
00000000
00010000
10000000
00010000
10000000
,
00010000
00000000
00000000
00100000
00000000
00010000
00000000
01000000
00000000
00010000
10000000
00000000
00010000
00000000
01000000
00000000
,
00001000
01000000
00000000
00000100
00010000
00000000
00001000
00100000
00000000
00000010
00010000
00000000
00001000
00010000
00001000
00010000
,
00001000
00000000
00000000
00000000
,
00000000
00000000
00000000
00000000
;
