
//----- song ID: ojiy -----//
#TITLE:O JIYA;
#ARTIST:ASMAT & emi;
#BANNER:O JIYA.png;
#BACKGROUND:O JIYA-bg.png;
#CDTITLE:./CDTitles/GF 7thMIX & dm 6thMIX.png;
#MUSIC:O JIYA.ogg;
#SAMPLESTART:66.74;
#SAMPLELENGTH:15;
#BPMS:0=151;
#NOTES:
     dance-single:
     :
     Beginner:
     2:
     :
0000
0000
0000
0000
,
0000
0000
0000
0000
,
0000
0000
0000
0000
,
0000
0000
0000
0000
,
0000
0000
0000
0000
,
0010
0000
0000
0000
,
0010
0000
0000
0000
,
0010
0000
0000
0000
,
0000
0000
0000
0000
,
1000
0000
0000
0000
,
0010
0000
0000
0000
,
1000
0000
0000
0000
,
0000
0000
0000
0000
,
0001
0000
0000
0000
,
0010
0000
0000
0000
,
0001
0000
0000
0000
,
0000
0000
0000
0000
,
0001
0000
0000
0000
,
0001
0000
0000
0000
,
0100
0000
0000
0000
,
0000
0000
0000
0000
,
1000
0000
0000
0000
,
1000
0000
0000
0000
,
0100
0000
0000
0000
,
0000
0000
0000
0000
,
1001
0000
0000
0000
,
0000
0000
0000
0000
,
1001
0000
0000
0000
,
0000
0000
0000
0000
,
1001
0000
0000
0000
,
0000
0000
0000
0000
,
1001
0000
0000
0000
,
0000
0000
0000
0000
,
1000
0000
1000
0000
,
0010
0000
0000
0000
,
0010
0000
0010
0000
,
0001
0000
0000
0000
,
0001
0000
0001
0000
,
0010
0000
0000
0000
,
0010
0000
0010
0000
,
1000
0000
0000
0000
,
0000
0000
0000
0000
,
1000
0000
0000
0000
,
0100
0000
0000
0000
,
1000
0000
0000
0000
,
0000
0000
0000
0000
,
0001
0000
0000
0000
,
0100
0000
0000
0000
,
0001
0000
0000
0000
,
0000
0000
0000
0000
,
0001
0000
0000
0000
,
0010
0000
0000
0000
,
1000
0000
0000
0000
,
0000
0000
0000
0000
,
1000
0000
0000
0000
,
0010
0000
0000
0000
,
0001
0000
0000
0000
,
1001
0000
0000
0000
,
0000
0000
0000
0000
;
#NOTES:
     dance-single:
     :
     Easy:
     4:
     :
0000
0000
0000
0000
,
0000
0000
0000
0000
,
0000
0000
0000
0000
,
0000
0000
0000
0000
,
0000
0000
0000
0000
,
0001
0010
0001
0000
,
0001
0100
0001
0000
,
1000
0010
1000
0000
,
1000
0100
1000
0000
,
0001
0100
0010
0000
,
0100
0000
0010
0000
,
1000
0100
0010
0000
,
0100
0000
0110
0000
,
0001
0010
0100
0000
,
0010
0000
0100
0000
,
1000
0010
0100
0000
,
0010
0000
0110
0000
,
0002
0000
0000
0003
,
0001
0001
0001
0000
,
2000
0000
0000
3000
,
1000
1000
1000
0000
,
0200
0000
0000
0300
,
0100
0100
0100
0000
,
0020
0000
0000
0030
,
0010
0010
0010
0000
,
0001
0000
0100
0000
,
1001
0000
0000
0000
,
1000
0000
0100
0000
,
1001
0000
0000
0000
,
0001
0000
0010
0000
,
1001
0000
0000
0000
,
1000
0000
0010
0000
,
1001
0000
0000
0000
,
1000
0010
1000
0000
,
0020
0000
0000
0030
,
1000
0100
1000
0000
,
0100
0000
1000
0000
,
0001
0010
0001
0000
,
0020
0000
0000
0030
,
0001
0100
0001
0000
,
0100
0000
0001
0000
,
1001
0000
0000
0000
,
1000
0000
0100
0000
,
0010
0001
0010
0000
,
0100
0000
1000
0000
,
0001
1000
0001
0000
,
0001
0000
0100
0000
,
0010
1000
0010
0000
,
0100
0000
0001
0000
,
1000
0001
1000
0000
,
0002
0000
0000
0003
,
0001
0000
0010
0000
,
0200
0000
0000
0300
,
0100
0000
1000
0000
,
2000
0000
0000
3000
,
1000
0000
0010
0000
,
0200
0000
0000
0300
,
0001
1000
0001
0000
,
0000
0000
0000
0000
;
#NOTES:
     dance-single:
     :
     Medium:
     9:
     :
0000
0000
0000
0000
,
0000
0000
0000
0000
,
0000
0000
0000
0000
,
0000
0000
0000
0000
,
0000
0000
0000
0000
,
0001
0010
0001
0010
0000
0100
0100
0000
,
1000
0010
1000
0010
0000
0100
0100
0000
,
0001
1000
0001
1000
0000
0100
0100
0000
,
0010
0100
1001
0000
,
1000
0000
0100
0010
0001
0000
0000
0001
,
0100
0000
0010
0100
0010
0000
1000
0000
,
0001
0000
0100
0010
1000
0000
0000
1000
,
0010
0100
0001
1001
,
0001
0000
0010
0100
1000
0000
0000
1000
,
0010
0000
0100
0010
0100
0000
0001
0000
,
1000
0000
0010
0100
0001
0000
0000
0001
,
0100
0010
1000
1001
,
0001
0000
0010
0100
0000
0010
0100
0000
,
1000
0000
0010
0100
0000
0010
0100
0000
,
0001
0000
0010
0100
0000
0010
0100
0000
,
1000
0001
0110
1001
,
1000
0000
0100
0010
0000
0100
0010
0000
,
0001
0000
0100
0010
0000
0100
0010
0000
,
1000
0000
0100
0010
0000
0100
0010
0000
,
0001
1000
0110
0000
,
1000
0000
0100
0010
0000
0010
0001
0000
,
2000
0010
0001
3100
,
0001
0000
0100
0010
0000
0010
1000
0000
,
0100
0000
0001
0100
0000
0100
1000
0000
,
0001
0000
0100
0010
0000
0010
1000
0000
,
0002
0010
1000
0103
,
1000
0000
0100
0010
0000
0010
0001
0000
,
0100
0000
0010
0100
0000
0000
0000
0000
,
0001
0000
0010
0000
1000
0010
0001
0000
,
1000
1000
0001
0001
,
1000
0000
0010
0000
0001
0010
1000
0000
,
0001
1000
0001
0000
1000
0001
0000
0001
,
1000
0000
0100
0000
0001
0100
1000
0000
,
0001
0001
1000
1000
,
0001
0000
0100
0000
1000
0100
0001
0000
,
1000
0001
1000
0000
0001
1000
0000
1000
,
0010
0100
1001
0000
,
1000
0000
0100
0010
0100
0000
0000
1000
,
0010
0000
0100
0001
0010
0000
0100
1000
,
0010
0000
0100
0001
1000
0000
0000
1000
,
0100
0010
0002
1003
,
0001
0000
0010
0100
0010
0000
0000
0001
,
0100
0000
0010
1000
0100
0000
0010
0001
,
0100
0000
0010
1000
0001
0000
0000
0001
,
0010
0100
1000
1001
,
0001
0000
0000
0001
0100
0000
0110
0000
,
0010
0000
1000
0010
0000
1000
0010
0000
,
1000
0100
0001
0100
,
1000
1100
0001
0011
,
1000
0000
0000
1000
0010
0000
0110
0000
,
0200
0320
2030
3002
,
1003
0010
1000
0000
0010
0100
0010
0000
,
1000
0001
2002
3003
,
0000
0000
0000
0000
;
#NOTES:
     dance-single:
     :
     Hard:
     13:
     :
0000
0000
0000
0000
,
0000
0000
0000
0000
,
0000
0000
0000
0000
,
0000
0000
0000
0000
,
0000
0000
0000
0000
,
0001
0000
0100
0010
1000
0000
0002
0000
0000
0000
1000
0000
1003
0000
0000
0000
,
1000
0000
0100
0010
0001
0000
2000
0000
0000
0000
0001
0000
3001
0000
0000
0000
,
1000
0000
0010
0100
0001
0000
2000
0000
0000
0000
0001
0000
3001
0000
0000
0000
,
0011
1100
2002
3003
,
0001
0100
0010
1000
0020
0000
0030
0010
,
1000
0100
1000
0100
0001
0100
1000
0001
,
0010
0001
1000
0100
2000
0000
3000
1000
,
0010
0100
0001
1000
0010
0000
1001
0000
,
1000
0010
0100
0001
0200
0000
0300
0100
,
0001
0010
0001
0010
1000
0010
0001
1000
,
0100
1000
0001
0010
0002
0000
0003
0001
,
0100
0010
1000
0001
0100
0000
1001
0000
,
0001
0000
0010
0100
0010
0000
0001
0000
0100
0000
0001
0000
0010
0000
0001
0000
,
0100
0000
0010
1000
0010
0000
1000
0000
0100
0000
1000
0000
0010
0000
0100
0000
,
0001
0000
0010
0100
0010
0000
0001
0000
1000
0000
0010
0000
0100
0000
0001
0000
,
0011
1100
1010
0101
,
1000
0000
0100
0010
0100
0000
1000
0000
0010
0000
1000
0000
0100
0000
1000
0000
,
0010
0000
0100
0001
0100
0000
0001
0000
0010
0000
0001
0000
0100
0000
0010
0000
,
1000
0000
0100
0010
0100
0000
1000
0000
0001
0000
0100
0000
0010
0000
1000
0000
,
1100
0011
2002
3003
,
1010
1000
0010
1010
1000
0010
1010
1000
,
1100
0000
0000
0000
0110
0000
0000
0000
0010
0001
0010
0001
0010
0000
0000
0000
,
0011
0001
0010
0011
0001
0010
0011
0001
,
0101
0000
0000
0000
0100
0000
1001
0000
0000
0000
1000
0001
1000
0000
0001
0000
,
1100
1000
0100
1100
1000
0100
1100
1000
,
1010
0000
0000
0000
0110
0000
0000
0000
0100
0001
0100
0001
0100
0000
0000
0000
,
0101
0001
0100
0101
0001
0100
0101
0001
,
0011
0000
0000
0000
0010
0000
1001
0000
0001
0010
0100
0000
0010
0100
1000
0000
,
0001
0001
0100
1000
0200
0000
0310
0000
,
1010
0001
1100
0001
1010
0001
1100
0000
,
0001
0001
0010
1000
0020
0000
0031
0000
,
0011
0011
0011
0000
1100
1100
0000
1100
,
1000
1000
0100
0001
0200
0000
0310
0000
,
0011
1000
0101
1000
0011
1000
0101
0000
,
1000
1000
0010
0001
0020
0000
1030
0000
,
1010
1010
1010
0000
0101
0101
0000
0101
,
0001
0100
0010
0000
0100
0010
1000
0000
0001
0000
0000
0000
0000
0000
0000
0000
,
0001
0100
1000
0001
0020
0000
0030
0010
,
1000
0100
0010
0100
0001
0100
0010
0100
,
1000
0001
0100
1000
0002
0000
0003
0001
,
0010
1000
0100
1000
0010
0000
1001
0000
,
1000
0100
0001
1000
0020
0000
0030
0010
,
0001
0100
0010
0100
1000
0100
0010
0100
,
0001
1000
0100
0001
2000
0000
3000
1000
,
0010
0001
0100
0001
0010
0000
1001
0000
,
1000
0000
0100
0010
0100
0000
0010
0000
0001
0000
1000
0001
1000
0000
0001
0000
,
0100
0000
0010
0100
0010
0000
1000
0000
0100
0000
0010
0000
0001
0000
0100
0000
,
0010
0000
1000
0001
0100
0000
0010
1000
0001
0000
0010
0100
1000
0000
0001
0000
,
0101
0011
1100
1010
,
0001
0000
0100
0010
0100
0000
0010
0000
1000
0000
0001
1000
0001
0000
1000
0000
,
0100
0000
0010
0100
0010
0000
0001
0000
0100
0000
0010
0000
1000
0000
0100
0000
,
0010
0000
0001
1000
0100
0000
0010
0001
1000
0000
0010
0100
0001
0000
1000
0000
,
1100
1010
2002
3003
,
0000
0000
0000
0000
;
#NOTES:
     dance-single:
     :
     Challenge:
     16:
     :
0000
0000
0000
0000
,
0000
0000
0000
0000
,
0000
0000
0000
0000
,
0000
0000
0000
0000
,
0000
0000
0000
0000
,
1001
0000
1000
0100
1000
0100
1000
0001
0100
0100
0001
0100
1000
0010
0001
0010
,
1000
0010
1000
0010
1000
0010
1000
0100
1000
0001
1000
0000
0010
0100
0010
1000
,
0001
0000
1000
0100
1000
0100
1000
0001
0100
0100
0001
0100
1000
0010
0001
0010
,
1000
1010
2002
3003
,
0001
0000
0100
0010
0100
0000
0001
0000
2000
0000
0000
0000
3000
0000
1000
0100
,
0010
0000
0001
0100
0010
0000
1000
0000
0002
0000
0203
0000
2300
0000
3200
0000
,
0301
0000
0010
0100
0010
0000
0001
0000
2000
0000
0000
0000
3000
0000
1000
0000
,
0100
0001
1000
0010
0001
0000
1001
0000
,
1000
0000
0100
0010
0100
0000
1000
0000
0002
0000
0000
0000
0003
0000
0001
0100
,
0010
0000
1000
0100
0010
0000
0001
0000
2000
0000
3200
0000
0302
0000
0203
0000
,
1300
0000
0010
0100
0010
0000
1000
0000
0002
0000
0000
0000
0003
0000
0001
0000
,
0100
0000
1000
0000
0001
0000
0010
0000
1000
0000
0000
0000
0001
1000
0001
1000
,
0001
0000
1000
0010
1000
0010
1000
0001
0010
0010
0001
0010
1000
0100
0001
0100
,
1000
0100
1000
0100
1000
0100
1000
0010
1000
0001
1000
0000
0100
0010
0100
1000
,
0001
0000
1000
0010
1000
0010
1000
0001
0010
0010
0001
0010
1000
0100
0001
0100
,
1000
0000
0010
0000
0001
0000
0010
0100
1000
0000
0100
0000
0001
0000
0000
0000
,
1000
0000
0001
0010
0001
0010
0001
1000
0010
0010
1000
0010
0001
0100
1000
0100
,
0001
0100
0001
0100
0001
0100
0001
0010
0001
1000
0001
0000
0100
0010
0100
0001
,
1000
0000
0001
0010
0001
0010
0001
1000
0010
0010
1000
0010
0001
0100
1000
0100
,
0001
0011
2002
3003
,
1010
0000
0010
1000
0010
0000
1010
0000
0010
1000
0010
0000
1000
0010
1000
0000
,
1010
0000
0000
0000
1100
0000
0000
0000
1000
0100
0010
0001
1000
0000
0001
0000
,
0011
0000
0010
0001
0010
0000
0011
0000
0010
0001
0010
0000
0001
0010
0001
0000
,
0011
0000
0001
0100
0010
0000
1001
0000
0000
0000
1001
0000
0001
0010
0100
0000
,
1100
0000
0100
1000
0100
0000
1100
0000
0100
1000
0100
0000
1000
0100
1000
0000
,
1100
0000
0000
0000
1010
0000
0000
0000
1000
0010
0100
0001
1000
0000
0001
0000
,
0101
0000
0100
0001
0100
0000
0101
0000
0100
0001
0100
0000
0001
0100
0001
0000
,
0101
0000
0001
0010
0100
0000
1001
0000
0001
0010
0001
0010
0100
1000
0100
1000
,
0001
0000
1000
0100
0010
0000
0001
0000
2000
0000
0010
0000
0001
0000
3100
0000
,
1100
0011
1100
0011
1100
0101
1001
0000
,
0001
0000
1000
0010
0100
0000
0001
0000
1000
0000
0001
0000
1000
0100
1000
0100
,
0011
0011
0011
0000
0101
1010
0000
1010
,
1000
0000
0001
0100
0010
0000
1000
0000
0002
0000
0010
0000
1000
0000
0103
0000
,
0101
1010
0101
1010
0101
1100
1001
0000
,
1000
0000
0001
0010
0100
0000
1000
0000
0001
0000
1000
0000
0001
0100
0001
0100
,
1010
1010
1010
0000
1100
0011
0000
0011
,
0001
1000
0001
1000
0100
0010
0100
0010
0001
0000
0000
0000
0000
0000
0000
0000
,
1000
0100
1000
0000
0010
0000
0100
0000
1000
0100
1000
0000
0100
0000
0001
0000
,
1000
0100
1000
0000
0010
0000
0001
0000
1000
0100
1000
0000
0100
0000
0001
0000
,
1000
0100
1000
0000
0010
0000
0100
0000
1000
0100
1000
0000
0100
0000
0101
0000
,
0000
0011
0011
0001
2002
0000
3003
0000
,
0001
0010
0001
0000
0100
0000
0010
0000
0001
0010
0001
0000
0010
0000
1000
0000
,
0001
0010
0001
0000
0100
0000
1000
0000
0001
0010
0001
0000
0010
0000
1000
0000
,
0001
0010
0001
0000
0100
0000
0010
0000
0001
0010
0001
0000
0010
0000
1010
0000
,
0000
0000
1100
0000
1100
0000
1000
0000
1001
0000
0001
0010
0100
1000
0100
0010
,
0001
0000
1000
0010
1000
0010
1000
0010
1000
0100
0010
0100
1000
0010
0001
1000
,
0100
0010
0100
0010
1000
0010
1000
0010
1000
0001
1000
0000
0001
0010
0100
1000
,
0001
0000
1000
0100
1000
0100
1000
0100
1000
0010
0100
0010
1000
0100
0001
1000
,
0010
0000
0001
0000
0101
0000
0100
0010
1000
0000
0100
0000
1100
0000
0000
0000
,
1001
0000
0001
0100
0001
0100
0001
1000
0100
0100
1000
0100
0001
0010
1000
0010
,
0001
0010
0001
0010
0001
0010
0001
0100
0001
1000
0001
0000
0010
0100
0010
0001
,
0010
0001
0010
0001
0010
0001
1000
0001
1000
0001
1000
0001
0100
0000
0010
0000
,
1010
0011
2002
3003
,
0000
0000
0000
0000
;
#NOTES:
     dance-double:
     :
     Easy:
     4:
     :
00000000
00000000
00000000
00000000
,
00000000
00000000
00000000
00000000
,
00000000
00000000
00000000
00000000
,
00000000
00000000
00000000
00000000
,
00000000
00000000
00000000
00000000
,
00001000
00010000
00001000
00000000
,
00010000
00001000
00010000
00000000
,
00001000
01000000
00010000
01000000
,
00100000
00000000
10010000
00000000
,
10000000
01000000
00100000
00000000
,
00100000
00000000
00001000
00000000
,
00010000
00001000
00010000
00000000
,
00011000
00000000
00000000
00000000
,
00001000
00010000
00000100
00000000
,
00000100
00000000
00001000
00000000
,
00000001
00001000
00000001
00000000
,
00001001
00000000
00000000
00000000
,
00000002
00000000
00000000
00000003
,
00000001
00000010
00000100
00000000
,
00000200
00000000
00000000
00000300
,
00000100
00010000
00001000
00000000
,
00020000
00000000
00000000
00030000
,
00010000
00001000
00100000
00000000
,
00200000
00000000
00000000
00300000
,
00100000
00010000
10000000
00000000
,
10000000
00000000
01000000
00000000
,
00100000
00000000
00000000
00000000
,
00100000
00000000
00001000
00000000
,
00010000
00000000
00000000
00000000
,
00001000
00000000
00010000
00000000
,
00000100
00000000
00000000
00000000
,
00000100
00000000
00000010
00000000
,
00000001
00000000
00000000
00000000
,
00000001
00000010
00000100
00000000
,
00002000
00000000
00000000
00003000
,
00001000
00000100
00010000
00000000
,
00011000
00000000
00000000
00000000
,
00010000
00001000
01000000
00000000
,
00020000
00000000
00000000
00030000
,
00010000
00100000
01000000
00000000
,
20000000
00000000
00000000
30000000
,
10010000
00000000
00000000
00000000
,
10000000
00000000
00100000
00000000
,
01000000
00010000
00100000
00000000
,
00001000
00000000
00010000
00000000
,
00001000
00010000
00001000
00000000
,
00001000
00000000
00010000
00000000
,
00000100
00001000
00000010
00000000
,
00001000
00000000
00000001
00000000
,
00000010
00000100
00000010
00000000
,
00000002
00000000
00000000
00000003
,
00000001
00000000
00001000
00000000
,
00000020
00000000
00000000
00000030
,
00000010
00000000
00010000
00000000
,
00002000
00000000
00000000
00003000
,
00001000
00000000
01000000
00000000
,
00020000
00000000
00000000
00030000
,
10000000
00010000
10000000
00000000
,
00000000
00000000
00000000
00000000
;
#NOTES:
     dance-double:
     :
     Medium:
     9:
     :
00000000
00000000
00000000
00000000
,
00000000
00000000
00000000
00000000
,
00000000
00000000
00000000
00000000
,
00000000
00000000
00000000
00000000
,
00000000
00000000
00000000
00000000
,
00001000
00000000
00010000
00001000
00000000
00100000
00010000
00000000
,
01000000
00000000
00010000
01000000
00000000
00100000
10000000
00000000
,
00010000
00000000
10000000
01000000
00000000
00100000
00010000
00100000
,
00001000
00010000
00011000
00000000
,
00001000
00000000
00010000
00000100
00010000
00000000
00000000
00010000
,
00000100
00000000
00001000
00000000
00000010
00000100
00000001
00000000
,
00000100
00000000
00000010
00001000
00000010
00000000
00000000
00000010
,
00010000
00001000
00010000
00011000
,
00010000
00000000
00001000
01000000
00001000
00000000
00000000
00001000
,
01000000
00000000
00010000
00000000
00100000
01000000
10000000
00000000
,
01000000
00000000
00100000
00010000
00100000
00000000
00000000
00100000
,
00001000
00010000
00001000
00011000
,
00001000
00000000
00010000
00000010
00000000
00000010
00001000
00000000
,
00000001
00000000
00000010
00000100
00000000
00000100
00001000
00000000
,
00000001
00000000
00000100
00001000
00000000
00001000
00010000
00000000
,
00001000
00100000
00001000
00011000
,
00010000
00000000
00001000
00100000
00000000
00100000
00010000
00000000
,
10000000
00000000
00100000
01000000
00000000
01000000
00010000
00000000
,
10000000
00000000
01000000
00010000
00000000
00010000
00001000
00000000
,
00010000
00001000
00011000
00000000
,
00010000
00000000
00001000
00010000
00000000
00000100
00001000
00000000
,
00000020
00002030
00003002
00000203
,
00000310
00000000
00001000
00000100
00000000
00010000
00001000
00000000
,
00010000
00000000
00100000
00010000
00000000
00001000
00010000
00000000
,
00001000
00000000
00010000
00001000
00000000
01000000
00010000
00000000
,
00200000
00320000
20030000
32000000
,
03100000
00000000
00010000
01000000
00000000
00001000
00010000
00000000
,
00001000
00000000
00000010
00001000
00000000
00000000
00011000
00000000
,
00010000
00000000
00000100
00000000
00001000
00000010
00001000
00000000
,
00000002
00000203
00002300
00023000
,
00031000
00000000
00000010
00000000
00000001
00001000
00000001
00000000
,
00000100
00000010
00000100
00000000
00001000
00010000
00000000
00010000
,
00001000
00000000
01000000
00000000
00010000
00100000
00010000
00000000
,
20000000
32000000
03020000
00032000
,
00013000
00000000
00100000
00000000
10000000
00010000
10000000
00000000
,
01000000
00100000
01000000
00000000
00010000
00001000
00000000
00001000
,
00010000
00000100
00000110
00000000
,
00000001
00000000
00000010
00000000
00000100
00000000
00000000
00000100
,
00001000
00000000
00000100
00010000
00000100
00000000
00010000
00001000
,
00010000
00000000
00001000
00000000
00100000
00000000
00000000
00100000
,
00010000
01000000
00200000
00300000
,
10000000
00000000
01000000
00000000
00100000
00000000
00000000
00100000
,
00010000
00000000
00100000
00001000
00100000
00000000
00001000
00010000
,
00001000
00000000
00010000
00000000
00000100
00000000
00000000
00000100
,
00001000
00000010
00000100
00000110
,
00000001
00000000
00001000
00000000
00000010
00000100
00000010
00000000
,
00001000
00000000
00000100
00010000
00000000
00000100
00010000
00000000
,
00001000
00000000
00100000
00000000
00010000
01000000
00010000
00000000
,
10000000
10000000
00010000
00010000
,
10000000
00000000
00010000
00000000
00100000
01000000
00100000
00000000
,
00020000
00230000
00302000
00023000
,
00030100
00000000
00001000
00000000
00000010
00000100
00000010
00000000
,
00001000
00000001
00002002
00003003
,
00000000
00000000
00000000
00000000
;
#NOTES:
     dance-double:
     :
     Hard:
     13:
     :
00000000
00000000
00000000
00000000
,
00000000
00000000
00000000
00000000
,
00000000
00000000
00000000
00000000
,
00000000
00000000
00000000
00000000
,
00000000
00000000
00000000
00000000
,
00001000
00000000
00010000
00001000
00010000
00000000
00002000
00000000
00000000
00000000
00103000
00000000
00020000
00000000
00000000
00000000
,
00130000
00000000
01000000
10000000
01000000
00000000
00200000
00000000
00000000
00000000
00301000
00000000
00020000
00000000
00000000
00000000
,
00031000
00000000
00010000
00001000
00010000
00000000
00000200
00000000
00000000
00000000
00001300
00000000
00000010
00000000
00000100
00000000
,
00000001
00000011
00002002
00003003
,
00000001
00000010
00000100
00001000
00000002
00000000
00000003
00000001
,
00000100
00000010
00000100
00001000
00010000
00100000
01000000
00010000
,
00100000
01000000
00100000
00001000
00020000
00000000
00030000
00010000
,
00001000
00100000
00010000
00100000
01000000
00000000
10010000
00000000
,
10000000
00100000
01000000
00010000
20000000
00000000
30000000
10000000
,
01000000
00100000
01000000
00010000
00001000
00000010
00000100
00001000
,
00000010
00000100
00000010
00010000
00002000
00000000
00003000
00001000
,
00010000
00000010
00001000
00000010
00000100
00000000
00001001
00000000
,
00000001
00000100
00000001
00000100
00001000
00000100
00001000
00000100
,
00001000
00010000
00001000
00010000
00100000
00010000
00100000
00010000
,
00100000
00000000
10000000
00000000
00100000
00000000
10000000
00000000
01000000
00000000
00100000
01000000
00100000
00000000
00010000
00000000
,
10010000
01100000
10010000
01100000
,
10000000
01000000
10000000
01000000
00010000
01000000
00010000
01000000
,
00010000
00001000
00010000
00001000
00000010
00001000
00000010
00001000
,
00000010
00000000
00000001
00000000
00000010
00000000
00000001
00000000
00000100
00000000
00000010
00000100
00000010
00000000
00001000
00000000
,
00001001
00000110
00002002
00003003
,
00000001
00000100
00000100
00001000
00000100
00000100
00000001
00000010
,
00000100
00000000
00000000
00000000
00010100
00000000
00000000
00000000
00010000
00001000
00010000
00001000
00010000
00000000
00000000
00000000
,
00001000
00010000
00010000
00100000
00010000
00010000
00001000
01000000
,
00010000
00000000
00100000
01100000
00000000
10000000
10010000
00010000
,
10000000
01000000
01000000
00010000
01000000
01000000
10000000
00100000
,
01000000
00000000
00000000
00000000
01001000
00000000
00000000
00000000
00001000
00010000
00001000
00010000
00001000
00000000
00000000
00000000
,
00010000
00001000
00001000
00000010
00001000
00001000
00010000
00000100
,
00001000
00000000
00000010
00000110
00000000
00000001
00001001
00000000
,
00000001
00000001
00000100
00001000
00020000
00000000
00031000
00000000
,
00001000
00010000
01000000
00010000
00001000
00010000
01000000
00000000
,
10000000
10000000
01000000
00010000
00002000
00000000
00013000
00000000
,
00010000
00000010
00001010
00000000
00001000
00000001
00000000
00001001
,
00000001
00000001
00000010
00001000
00020000
00000000
00031000
00000000
,
00001000
00010000
00100000
00010000
00001000
00010000
00100000
00000000
,
10000000
10000000
00100000
00010000
00002000
00000000
00013000
00000000
,
00010000
00000100
00001100
00000000
00001000
00000001
00000000
00001001
,
00001000
00000010
00001000
00000000
00000010
00010000
00000010
00000000
00010000
00000000
00000000
00000000
00000000
00000000
00000000
00000000
,
00010000
00001000
00010000
00100000
02000000
00000000
03000000
01000000
,
00010000
00100000
01000000
00100000
00001000
00010000
00001000
00000010
,
00000100
00001000
00000010
00000100
00000020
00000000
00000030
00000010
,
00001000
00000010
00010000
00001000
00020000
00000000
00031000
00000000
,
00001000
00010000
00001000
00000100
00000020
00000000
00000030
00000010
,
00001000
00000100
00000010
00000100
00010000
00001000
00010000
01000000
,
00100000
00010000
01000000
00100000
02000000
00000000
03000000
01000000
,
00010000
01000000
00001000
00010000
00001000
00000000
00011000
00000000
,
00010000
00000000
00000100
00001000
00000100
00000000
00000010
00000000
00000001
00000000
00000100
00000010
00000100
00000000
00000010
00000000
,
00000001
00000000
00000010
00000000
00000100
00000000
00000010
00000000
00001000
00000000
00000010
00010000
00000010
00000000
00010000
00000000
,
00001000
00010000
01000000
00100000
00001000
00010000
01000000
00100000
,
00110000
01010000
10100000
11000000
,
10000000
00000000
01000000
00100000
01000000
00000000
00010000
00000000
00001000
00000000
00010000
00001000
00010000
00000000
00001000
00000000
,
00000010
00000100
00010000
00001000
00000100
00000010
00001000
00000000
,
00000001
00000000
00000010
00000100
00001000
00000000
00000100
00010000
00001000
00000000
00010000
00001000
00100000
00000000
00010000
00000000
,
01010000
10100000
20020000
30030000
,
00000000
00000000
00000000
00000000
;
#NOTES:
     dance-double:
     :
     Challenge:
     17:
     :
00000000
00000000
00000000
00000000
,
00000000
00000000
00000000
00000000
,
00000000
00000000
00000000
00000000
,
00000000
00000000
00000000
00000000
,
00000000
00000000
00000000
00000000
,
00011000
00000000
00010000
00001000
01000000
00010000
01000000
00001000
00010000
00010000
00001000
00010000
00100000
01000000
10000000
00010000
,
00100000
01000000
00100000
01000000
00100000
01000000
00100000
00010000
00100000
01000000
00100000
00000000
00010000
00100000
00001000
00010000
,
00001000
00000000
00010000
00001000
01000000
00100000
01000000
00001000
00010000
00010000
00001000
00010000
00100000
00001000
00010000
00001000
,
00000100
00000110
00002002
00003003
,
00000001
00001000
00000100
00010000
00000010
00000100
00000001
00001000
,
00000100
00010000
00000010
00000100
00000001
00001000
00000100
00010000
,
00001000
01000000
00100000
00010000
00001000
01000000
00100000
00010000
,
00001000
00100000
01000000
10000000
00010000
00000000
10010000
00000000
,
10000000
00000000
01000000
00100000
00010000
00000000
00100000
00000000
00020000
00000000
00000000
00000000
00030000
00000000
00010000
01000000
,
00010000
00000000
01000000
00001000
01000000
00000000
00001000
00010000
00001000
00000000
00010000
00000010
00010000
00000000
00000010
00001000
,
00000010
00000000
00000100
00000001
00001000
00000000
00000100
00000000
00000020
00000000
00000000
00000000
00000030
00000000
00000010
00000100
,
00001000
00000000
00000100
00000000
00010000
00000000
00001000
00000000
00010000
00000000
00000000
00000000
00010000
00001000
00010000
00001000
,
00010000
00000000
00001000
00010000
00000100
00001000
00000100
00010000
00001000
00001000
00010000
00001000
00000010
00000100
00000001
00001000
,
00000010
00000100
00000010
00000100
00000010
00000100
00000010
00001000
00000010
00000100
00000010
00000000
00001000
00000010
00010000
00001000
,
00010000
00000000
00001000
00010000
00000100
00000010
00000100
00010000
00001000
00001000
00010000
00001000
00000010
00010000
00001000
00010000
,
01000000
00000000
00100000
00000000
01000000
00000000
00010000
00001000
00010000
00000000
00001000
00000000
00010000
00000000
00000000
00000000
,
00001000
00000000
00010000
00001000
00100000
00010000
00100000
00001000
00010000
00010000
00001000
00010000
01000000
00100000
10000000
00010000
,
01000000
00100000
01000000
00100000
01000000
00100000
01000000
00010000
01000000
00100000
01000000
00000000
00010000
01000000
00001000
00010000
,
00001000
00000000
00010000
00001000
00100000
01000000
00100000
00001000
00010000
00010000
00001000
00010000
01000000
00001000
00010000
00001000
,
00000010
00000110
00002002
00003003
,
00000011
00000000
00000001
00000010
00000001
00000000
00000011
00000000
00000001
00000010
00000001
00000000
00000010
00000001
00000010
00000000
,
00000011
00000000
00000000
00000000
00000101
00000000
00000000
00000000
00000001
00000100
00000010
00001000
00000010
00000000
00001000
00000000
,
00001100
00000000
00000100
00001000
00000100
00000000
00001100
00000000
00000100
00001000
00000100
00000000
00001000
00000100
00001000
00000000
,
00001100
00000000
00000100
00010000
00001000
00000000
00011000
00000000
00000000
00000000
00011000
00000000
00001000
00100000
00010000
00000000
,
00110000
00000000
00100000
00010000
00100000
00000000
00110000
00000000
00100000
00010000
00100000
00000000
00010000
00100000
00010000
00000000
,
00110000
00000000
00000000
00000000
01010000
00000000
00000000
00000000
00010000
01000000
00100000
10000000
00100000
00000000
10000000
00000000
,
11000000
00000000
10000000
01000000
10000000
00000000
11000000
00000000
10000000
01000000
10000000
00000000
01000000
10000000
01000000
00000000
,
11000000
00000000
10000000
01000000
00100000
00000000
10010000
00000000
00010000
00100000
00010000
00100000
00001000
00010000
00001000
00010000
,
00001000
00000000
00010000
00000100
00001000
00000000
00000010
00000000
00000200
00000000
00000000
00000000
00000301
00000000
00000000
00000000
,
00000101
00000101
00001010
00001010
01010000
01010000
10100000
00000000
,
10000000
00000000
00010000
00100000
01000000
00000000
10000000
00000000
00100000
00000000
01000000
00000000
00010000
00000000
10000000
01000000
,
00110000
00110000
00110000
00000000
00001100
00001100
00000000
00000011
,
00000001
00000000
00000100
00000010
00000100
00000000
00001000
00000000
00020000
00000000
00100000
00000000
00031000
00000000
00000000
00000000
,
00101000
00010010
01001000
00010100
00101000
00010010
00011000
00000000
,
00010000
00000000
00001000
00000100
00000010
00000000
00000100
00000000
00000002
00000000
00000000
00000000
00001003
00000000
00000001
00000100
,
00001010
00001010
00001010
00000000
01010000
01010000
00000000
10100000
,
10000000
01000000
10000000
01000000
00100000
00010000
00100000
01000000
10000000
00000000
00000000
00000000
00000000
00000000
00000000
00000000
,
10000000
00010000
00100000
00001000
01000000
00100000
10000000
00010000
,
00100000
00001000
01000000
00100000
10000000
00010000
00100000
00001000
,
00010000
00000010
00000100
00001000
00010000
00000010
00000100
00001000
,
00010000
00000100
00000010
00000001
00001000
00000000
00001001
00000000
,
00000001
00000000
00000010
00000100
00001000
00000000
00000100
00000000
00002000
00000000
00000000
00000000
00003000
00000000
00001000
00000010
,
00001000
00000000
00000010
00010000
00000010
00000000
00010000
00001000
00010000
00000000
00001000
01000000
00001000
00000000
01000000
00010000
,
01000000
00000000
00100000
10000000
00010000
00000000
00100000
00000000
02000000
00000000
00000000
00000000
03000000
00000000
01000000
00100000
,
00010000
00000000
00100000
00000000
00001000
00000000
00010000
00000000
00001000
00000000
00010000
00001000
00010000
00001000
00010000
00001000
,
00010000
00000000
00001000
00100000
00010000
00100000
00010000
00100000
01000000
00100000
00010000
00100000
01000000
00010000
00001000
00100000
,
00001000
00010000
00100000
00010000
00001000
00010000
00001000
00010000
00001000
00100000
00010000
00000000
01000000
00100000
01000000
00001000
,
00010000
00000000
00001000
01000000
00010000
01000000
00010000
01000000
00100000
01000000
00010000
01000000
00100000
00010000
00001000
00000100
,
00000010
00000000
00001000
00000100
00010000
00000000
00001000
00100000
00010000
00000000
00100000
00001000
00010000
00000000
00000000
00000000
,
00011000
00000000
00001000
00010000
00000010
00001000
00000010
00010000
00001000
00001000
00010000
00001000
00000100
00000010
00000001
00001000
,
00000100
00000010
00000100
00000010
00000100
00000010
00000100
00001000
00000100
00000010
00000100
00000000
00001000
00000100
00010000
00001000
,
00010000
00001000
00010000
00001000
00010000
00001000
00100000
00010000
00100000
00010000
00100000
00010000
10000000
00000000
01000000
00000000
,
01100000
00101000
00022000
00033000
,
00000000
00000000
00000000
00000000
;
