
//----- song ID: nmlv -----//
#TITLE:No More Love;
#ARTIST:EmoCosine;
#BANNER:No More Love.png;
#BACKGROUND:No More Love-bg.png;
#CDTITLE:./CDTitles/DDR WORLD.png;
#MUSIC:No More Love.ogg;
#SAMPLESTART:26.663;
#SAMPLELENGTH:15;
#DISPLAYBPM:81:323;
#BPMS:0=81,19=162,82=81,82.25=162,82.5=324,83=162,146=216,147=108,147.5=162,148=216,149=108,149.5=162,150=216,151=108,151.5=162,152=216,153=108,153.5=162,154=216,155=108,155.5=162,156=216,157=108,157.5=162,158=216,159=108,159.5=162,160=216,161=108,161.5=162,162=216,163=108,163.5=162,164=216,165=108,165.5=162,166=216,167=108,167.5=162,168=216,169=108,169.5=162,170=216,171=108,171.5=162,172=216,173=108,173.5=162,209=81,225=162,256=81,256.25=162,256.5=324,257=162;
#STOPS:18=0.185,18.25=0.185,18.5=0.185,18.75=0.185,57=0.093,57.25=0.093,57.5=0.093,57.75=0.093,190=0.062,190.16667=0.062,190.33333=0.062,190.5=0.062,190.66667=0.062,190.83333=0.062,231=0.093,231.25=0.093,231.5=0.093,231.75=0.093;
#NOTES:
     dance-single:
     :
     Beginner:
     3:
     :
0000
0000
0000
0000
,
0000
0000
0000
0000
,
0000
0000
0000
0000
,
0001
0000
0000
0000
,
0001
0000
0000
0000
,
0000
0010
0000
0000
,
0000
0010
0000
0000
,
0000
0100
0000
0000
,
0000
0100
0000
1000
,
0000
0000
0000
1000
,
0000
0000
0000
1000
,
0000
0010
0000
1000
,
0000
0000
0000
1000
,
0000
0000
0000
2000
,
0000
0000
3000
0000
,
0000
0000
0010
0000
,
0010
0000
1000
0000
,
0000
0000
0010
0000
,
0000
0000
0001
0000
,
0000
0000
0000
0000
,
0000
0000
1001
0000
,
0000
0000
0001
0000
,
0000
0000
0001
0000
,
0000
0000
0010
0000
,
0000
0000
1000
0000
,
0000
0000
1000
0000
,
0000
0000
0020
0000
,
0000
0000
0030
0000
,
0000
0000
1000
0000
,
0010
0000
0001
0000
,
0000
0000
0001
0000
,
0010
0000
1000
0000
,
0000
0000
1000
0000
,
0000
0000
0100
0000
,
0000
0000
0010
0000
,
0000
0000
0000
0000
,
0000
0000
0002
0000
,
0000
0000
0003
0000
,
0000
0000
0002
0000
,
0000
0000
0003
0000
,
0000
0000
0020
0000
,
0000
0000
0030
0000
,
0000
0000
0020
0000
,
0000
0000
0030
0000
,
0000
0000
1000
0000
,
0000
0000
1000
0000
,
0000
0000
1000
0000
,
1000
0000
1000
0000
,
0000
0000
0000
0000
,
0000
0010
0000
0000
,
0000
0010
0000
0000
,
0000
0000
0000
0000
,
0000
1001
0000
0000
,
0000
0001
0000
0001
,
0000
0010
0000
0000
,
0000
0010
0000
0010
,
0000
1000
0000
0000
,
0000
2000
0000
0000
,
3000
0000
0000
0000
,
1000
0000
1000
0000
,
0010
0000
0000
0000
,
0010
0000
0010
0000
,
0001
0000
0000
0000
,
0002
0000
0000
0000
,
0003
0000
0000
0000
,
0001
0000
0100
0000
,
0001
0000
0000
0000
,
0010
0000
0000
0000
,
1000
0000
0000
0000
,
1000
0000
0100
0000
,
1000
0000
0000
0000
,
1000
0000
0000
0000
,
0000
0000
0000
0000
;
#NOTES:
     dance-single:
     :
     Easy:
     7:
     :
0000
0000
0000
0000
,
0000
0000
0000
0000
,
0000
0000
0000
0000
,
0001
0001
1000
1000
,
0010
0010
0200
0300
,
0000
0100
0000
0010
,
0010
1000
0000
0001
,
0000
1000
0000
0100
,
0100
0010
0000
0001
,
0010
0001
0000
0001
,
0100
0001
0000
1000
,
0010
1000
0000
0100
,
0000
0000
0000
1001
,
0000
0110
0000
1000
,
0001
2000
3000
0000
,
1000
0000
0100
0100
,
0100
0000
1000
0000
,
0001
0000
0010
0010
,
0010
0000
0001
0000
,
0100
0000
0010
1000
,
0010
0000
0200
0000
,
0000
0300
0100
0100
,
0100
0000
0010
1000
,
0010
1000
0001
0000
,
0001
0000
1000
0100
,
0010
0000
0001
0100
,
0010
0000
1000
0100
,
0010
0001
1000
0001
,
1000
0000
1001
0000
,
0000
0000
1001
0000
,
0010
0010
0110
0000
,
0000
0000
0110
0000
,
1000
1000
0001
0100
,
0010
1000
0001
0100
,
0010
1000
0001
0001
,
1000
1000
1001
0000
,
0000
0000
0000
0000
0000
0000
0000
0000
0000
0000
0000
0000
0000
0000
0000
0000
0020
0030
0000
0000
0000
0000
0000
0000
0000
0000
0000
0000
0000
0000
0000
0000
,
0000
0000
0000
0000
0000
0000
0000
0000
0000
0000
0000
0000
0000
0000
0000
0000
0020
0030
0000
0000
0000
0000
0000
0000
0000
0000
0000
0000
0000
0000
0000
0000
,
0000
0000
0000
0000
0000
0000
0000
0000
0000
0000
0000
0000
0000
0000
0000
0000
0200
0300
0000
0000
0000
0000
0000
0000
0000
0000
0000
0000
0000
0000
0000
0000
,
0000
0000
0000
0000
0000
0000
0000
0000
0000
0000
0000
0000
0000
0000
0000
0000
0200
0300
0000
0000
0000
0000
0000
0000
0000
0000
0000
0000
0000
0000
0000
0000
,
0000
0000
0000
0000
0000
0000
0000
0000
0000
0000
0000
0000
0000
0000
0000
0000
0002
0003
0000
0000
0000
0000
0000
0000
0000
0000
0000
0000
0000
0000
0000
0000
,
0000
0000
0000
0000
0000
0000
0000
0000
0000
0000
0000
0000
0000
0000
0000
0000
0002
0003
0000
0000
0000
0000
0000
0000
0000
0000
0000
0000
0000
0000
0000
0000
,
0000
0000
0000
0000
0000
0000
0000
0000
0000
0000
0000
0000
0000
0000
0000
0000
2000
3000
0000
0000
0000
0000
0000
0000
0000
0000
0000
0000
0000
0000
0000
0000
,
0000
0000
1000
1000
,
1000
0000
0001
0001
,
0010
0000
0001
0001
,
0100
0000
0001
0001
,
0010
0000
0200
0300
,
0000
1000
1000
0010
,
0000
1000
1000
0100
,
0000
1000
1000
0010
,
0000
0100
0000
0000
,
0000
0001
0000
0001
,
0000
0001
0100
1000
,
0100
0001
0000
0001
,
0000
1000
0100
0001
,
0100
1000
0000
0000
,
0000
1000
1000
0002
,
0003
0000
0001
0000
,
0100
0010
1000
0010
,
0100
0000
0100
0000
,
0001
0010
0100
1000
,
0001
0000
0001
0000
,
0010
0100
0010
0000
,
0002
0000
0000
0003
,
0001
0001
0010
0010
,
0100
0000
1000
0000
,
1000
0001
1000
0000
,
0001
0000
0001
0000
,
1000
1000
0010
0010
,
0100
0000
0010
0000
,
1001
0000
0000
0000
,
0000
0000
0000
0000
;
#NOTES:
     dance-single:
     :
     Medium:
     10:
     :
0000
0000
0000
0000
,
0000
0000
0000
0000
,
0000
0000
0000
0000
,
0001
0010
0001
0000
1000
0100
1000
0000
,
0001
0000
0000
0000
1000
0000
0000
0000
0001
0000
0000
0000
1000
0000
0000
0000
0002
0003
0002
0003
0002
0003
0000
0000
0001
0000
0000
0000
0000
0000
0000
0000
,
0001
0100
0000
0001
,
0100
0010
0000
1000
,
1000
0100
0000
1000
,
0100
0010
0000
0001
,
0100
0000
0001
0010
0001
0000
1000
0000
,
0100
0000
1000
0010
1000
0000
0001
0100
,
0010
0000
1000
0100
0010
0000
0001
0000
,
0000
0000
0000
1001
,
0000
0110
0000
1000
,
0001
0000
2000
3000
1000
0000
1000
0000
,
0100
0000
0100
0000
0010
0001
0010
0000
,
0001
1000
0001
0000
0001
0000
0001
0000
,
0100
0000
0100
0000
0010
1000
0010
0000
,
1000
0001
1000
0000
0001
0000
0100
0000
,
1000
0000
0100
0000
0001
1000
0001
1000
,
0001
0000
2002
3003
,
1000
0001
1000
0000
0010
0100
0010
0000
,
0100
0000
0100
0000
0001
0100
0010
0000
,
0100
0010
1000
0000
0001
0000
0010
0000
,
0100
1000
0100
0000
1000
0000
0100
0000
,
0010
0001
0010
0001
1000
0000
0010
0000
,
0100
0001
0100
0001
1000
0000
0100
0000
,
0001
0100
1000
0000
0001
0000
0100
0000
,
1000
0100
0001
0001
,
0010
0010
0100
0000
,
0100
0010
0100
0000
1000
0000
1000
0000
,
0010
0010
0100
0000
,
0100
0010
0100
0000
0001
0100
0010
1000
,
0001
0100
0010
0000
1000
0100
0010
0001
,
1000
0100
0010
0001
0000
0011
0000
0011
,
0000
1100
0000
1100
1000
0000
1000
0001
,
1000
0000
2200
3300
,
2200
3300
0022
0033
,
0022
0033
0202
0303
,
0202
0303
2020
3030
,
2020
0000
0000
0000
0000
0000
3030
0000
0000
0000
0000
0000
2000
3000
0000
0000
0000
0000
0000
2000
3000
0000
0000
0000
,
2000
3000
0000
0000
0000
0000
0000
0000
0000
0000
0000
0000
0002
0003
0000
0000
0000
0000
0000
0002
0003
0000
0000
0000
,
0002
0003
0000
0000
0000
0000
0000
0000
0000
0000
0000
0000
0200
0300
0000
0000
0000
0000
0000
0200
0300
0000
0000
0000
,
0200
0300
0000
0000
0000
0000
0000
0000
0000
0000
0000
0000
0010
0000
0000
0000
0000
0000
0010
0000
0000
0000
0000
0000
,
0010
0000
0000
0000
1000
0010
1000
0000
,
0100
0000
0000
0100
0000
0000
0100
0000
0010
0000
0001
0000
0010
0000
0000
0000
,
0100
0000
0000
0100
0000
0000
0100
0000
1000
0000
0001
0000
0100
0000
0000
0000
,
0001
0000
0000
0000
1000
0000
0000
0000
0100
0000
0000
0000
0000
0000
0000
0000
0020
0030
0000
0000
0200
0300
0000
0000
0110
0000
0000
0000
0000
0000
0000
0000
,
0000
0000
1000
0100
0001
0100
1000
0000
,
1000
0000
0001
0100
1000
0100
0001
0000
,
0001
0000
1000
0010
0001
0000
0001
0010
,
1000
0000
0001
0010
1000
0010
0001
0000
,
0000
0000
1000
0000
1000
0000
0100
0010
,
0100
0000
0010
0000
0010
0000
0001
1000
,
0001
0000
0001
0100
0001
0100
0010
1000
,
0010
0000
1000
0100
1000
0100
0010
0001
,
0010
1001
0000
0110
,
0000
0000
0000
0000
0000
0000
0000
0000
0001
0000
0000
0000
0000
0000
0000
0000
1000
0000
0000
0000
0000
0000
0000
0000
0002
0003
2000
3000
0002
0003
0000
0000
,
1000
1100
0100
1100
,
1000
0100
0010
0000
0100
0010
0001
0000
,
0001
0011
0010
0011
,
0001
0100
0010
0000
0100
0010
1000
0000
,
0001
0100
1000
0100
,
0001
1000
0100
0000
0010
0001
0100
0000
,
0020
0000
0030
0000
0010
1000
0010
0000
,
1000
0000
0100
0000
0001
0100
1000
0000
,
0001
0010
0100
1000
,
0001
0100
0001
0000
1000
0100
1000
0000
,
0001
0010
0001
0010
0001
0100
0001
0000
,
1000
0010
1000
0010
1000
0100
1000
0000
,
1100
0000
0101
0000
,
1001
0000
0000
0000
,
0000
0000
0000
0000
;
#NOTES:
     dance-single:
     :
     Hard:
     16:
     :
0000
0000
0000
0000
,
0000
0000
0000
0000
,
0000
0000
0000
0000
,
0001
0100
0010
0010
1000
0100
0010
0010
,
0001
0000
0000
0000
0010
0000
0000
0000
0100
0000
0000
0000
1000
0000
0000
0000
0002
0003
0002
0003
2000
3000
2000
3000
0001
0000
0000
0000
0000
0000
0000
0000
,
0011
0010
0110
0100
,
1100
0000
1000
0001
1000
0000
1000
0000
,
1010
0010
0110
0100
,
0101
0000
0001
1000
0001
0000
1000
0100
,
0001
0100
1000
0100
0010
0001
1000
0010
,
0001
0000
0010
0000
1000
0000
0010
0000
0100
0000
0001
0000
1000
0100
1000
0100
,
0010
0001
0010
0001
1000
0010
1000
0010
1000
0001
1000
0001
1000
0000
0100
0010
,
0100
0000
1000
0001
1000
0000
0010
0100
0010
0000
0000
0000
0110
0000
0000
0000
,
0000
0000
0001
0100
1000
0000
0000
0100
0000
0000
0100
0000
0001
0000
0000
0010
,
0000
0000
0000
0000
1000
0000
0000
0000
0020
0030
0200
0300
0020
0030
0200
0300
1000
0000
0000
0000
0000
0000
0000
0000
1100
0000
0000
0000
0000
0000
0000
0000
,
0100
0000
0010
0001
0000
0010
0001
0000
1000
0000
0100
0000
0001
0000
0100
0000
,
1000
0000
0100
0010
0001
0000
0100
0000
0110
0000
0000
0000
1001
0000
0000
0000
,
0001
0000
0100
0010
0000
1000
0010
0000
1000
0000
0001
0100
0010
0000
0001
0000
,
0010
0000
1000
0100
1000
0000
0100
0010
0001
0000
0000
0000
0011
0000
0000
0000
,
0010
0000
0100
1000
0000
0100
1000
0000
0010
0000
1000
0100
0010
0000
0001
0100
,
0010
0000
1000
0100
0010
0000
0001
0000
2000
0000
0000
0000
3001
0000
0000
0000
,
1000
0000
0100
0010
0000
0001
0010
0000
0100
0000
1000
0010
1000
0000
0001
0000
,
0100
0010
1000
0100
0010
0000
0011
0000
,
0001
0000
1000
0010
0000
1000
0100
0000
0010
0000
0001
0000
1000
0000
0100
0000
,
0010
0000
0001
0010
0100
0000
1000
0000
0010
0000
0100
0000
0010
0000
0100
0000
,
0001
0000
1000
0000
0001
0000
1000
0001
0010
0000
0100
0000
0010
0000
0100
0000
,
1000
0000
0001
0000
1000
0000
0001
1000
0010
0100
0010
0100
0001
0100
0001
0000
,
1000
0100
1000
0100
0010
0100
0010
0000
0001
0000
0000
0000
0011
0000
0000
0000
,
0110
0000
0000
0000
1100
0000
0000
0000
1010
0000
0000
0010
0100
0000
0001
0000
,
0101
0000
0000
0001
0010
0000
0100
0000
1100
0000
0000
1000
0100
0000
0010
0000
,
0001
0010
0000
0001
1000
0000
0010
0100
0010
0000
0000
0010
1000
0000
0100
0000
,
1100
0000
0000
1000
0001
0000
0100
0000
0101
0000
0000
0001
1000
0000
0010
0000
,
1000
0010
0000
1000
0001
0000
0010
0001
0010
0000
0100
0000
0010
0000
1000
0000
,
0010
0000
0100
0000
0010
0000
0001
1000
0001
0000
0100
0000
0010
0000
0100
0000
,
1000
0000
0100
0000
0010
0000
0100
0001
1000
0100
1000
0000
0001
0100
0001
0000
,
1000
0010
1000
0010
1000
0001
0010
0001
1000
0000
0000
0000
1000
0000
1000
0000
,
0001
0000
0000
0000
0000
0000
0000
0000
1001
0000
0000
0000
0000
0000
0000
0000
0220
0330
0000
0000
0000
0000
0000
0000
1000
0000
0000
0000
0001
0000
0000
0000
,
0220
0000
0000
0330
0000
0000
0000
0000
0000
0000
0000
0000
0000
0000
0000
0000
0000
0000
0000
0000
0000
0000
0000
0000
0000
0000
0000
0000
1001
0000
0000
0000
0000
0000
0000
0000
0000
0000
0000
0000
0000
0000
0000
0000
0000
0000
0000
0000
0220
0000
0000
0330
0000
0000
0000
0000
0000
0000
0000
0000
0000
0000
0000
0000
0000
0000
0000
0000
0000
0000
0000
0000
0001
0000
0000
0000
0000
0000
0000
0000
0000
0000
0000
0000
1000
0000
0000
0000
0000
0000
0000
0000
0000
0000
0000
0000
,
0220
0000
0000
0330
0000
0000
0000
0000
0000
0000
0000
0000
0000
0000
0000
0000
0001
0000
0000
0000
0000
0000
0000
0000
0010
0000
0000
0000
0100
0000
0000
0000
0000
0000
0000
0000
0000
0000
0000
0000
0000
0000
0000
0000
0000
0000
0000
0000
2002
0000
0000
3003
0000
0000
0000
0000
0000
0000
0000
0000
0000
0000
0000
0000
0000
0000
0000
0000
0000
0000
0000
0000
0010
0000
0000
0000
0000
0000
0000
0000
0000
0000
0000
0000
0100
0000
0000
0000
0000
0000
0000
0000
0000
0000
0000
0000
,
2002
0000
0000
3003
0000
0000
0000
0000
0000
0000
0000
0000
0000
0000
0000
0000
0000
0000
0000
0000
0000
0000
0000
0000
0000
0000
0000
0000
0110
0000
0000
0000
0000
0000
0000
0000
0000
0000
0000
0000
0000
0000
0000
0000
0000
0000
0000
0000
2002
0000
0000
3003
0000
0000
0000
0000
0000
0000
0000
0000
0000
0000
0000
0000
0000
0000
0000
0000
0000
0000
0000
0000
0100
0000
0000
0000
0000
0000
0000
0000
0000
0000
0000
0000
0010
0000
0000
0000
0000
0000
0000
0000
0000
0000
0000
0000
,
2002
0000
0000
3003
0000
0000
0000
0000
0000
0000
0000
0000
0000
0000
0000
0000
0100
0000
0000
0000
0000
0000
0000
0000
0000
0000
0000
0000
0110
0000
0000
0000
0000
0000
0000
0000
0000
0000
0000
0000
0000
0000
0000
0000
0000
0000
0000
0000
2002
0000
0000
3003
0000
0000
0000
0000
0000
0000
0000
0000
0000
0000
0000
0000
1000
0000
0000
0000
0000
0000
0000
0000
0100
0000
0000
0000
0000
0000
0000
0000
0010
0000
0000
0000
0001
0000
0000
0000
0000
0000
0000
0000
0000
0000
0000
0000
,
2002
0000
0000
3003
0000
0000
0000
0000
0000
0000
0000
0000
0000
0000
0000
0000
0010
0000
0000
0000
0000
0000
0000
0000
0000
0000
0000
0000
1001
0000
0000
0000
0000
0000
0000
0000
0000
0000
0000
0000
0000
0000
0000
0000
0000
0000
0000
0000
2002
0000
0000
3003
0000
0000
0000
0000
0000
0000
0000
0000
0000
0000
0000
0000
0001
0000
0000
0000
0000
0000
0000
0000
0100
0000
0000
0000
0000
0000
0000
0000
0010
0000
0000
0000
1000
0000
0000
0000
0000
0000
0000
0000
0000
0000
0000
0000
,
2002
0000
0000
3003
0000
0000
0000
0000
0000
0000
0000
0000
0000
0000
0000
0000
0100
0000
0000
0000
0000
0000
0000
0000
0000
0000
0000
0000
1001
0000
0000
0000
0000
0000
0000
0000
0000
0000
0000
0000
0000
0000
0000
0000
0000
0000
0000
0000
0220
0000
0000
0330
0000
0000
0000
0000
0000
0000
0000
0000
0000
0000
0000
0000
1000
0000
0000
0000
0000
0000
0000
0000
0100
0000
0000
0000
0000
0000
0000
0000
0010
0000
0000
0000
0001
0000
0000
0000
0000
0000
0000
0000
0000
0000
0000
0000
,
0220
0000
0000
0330
0000
0000
0000
0000
0000
0000
0000
0000
0000
0000
0000
0000
1000
0000
0000
0000
0000
0000
0000
0000
0100
0000
0000
0000
0001
0000
0000
0000
0000
0000
0000
0000
0100
0000
0000
0000
0000
0000
0000
0000
0000
0000
0000
0000
1000
0000
0000
0000
0000
0000
0000
0000
0000
0000
0000
0000
0000
0000
0000
0000
0000
0000
0000
0000
0000
0000
0000
0000
1100
0000
0000
0000
0000
0000
0000
0000
0000
0000
0000
0000
0000
0000
0000
0000
0000
0000
0000
0000
0000
0000
0000
0000
,
1010
0000
1001
0000
0001
0100
0010
0100
,
0001
0000
0010
0100
0000
0010
0100
0000
1000
0000
0100
0000
0010
0000
0100
0000
,
1000
0000
0010
0100
0000
0010
0100
0000
0001
0000
0010
0000
1000
0000
0001
0000
,
0100
0000
0000
0000
0000
0000
1000
0000
0000
0001
0000
0000
0000
0000
0000
1000
0000
0000
0001
0000
0000
0000
0000
0000
2000
3000
0200
0300
0020
0030
0002
0003
0200
0300
0020
0030
1000
0000
0000
0000
0000
0000
0000
0000
0000
0000
0000
0000
,
1001
0000
0000
0000
0001
0000
1000
0010
0100
0000
0001
0100
0001
0000
1000
0100
,
0000
0010
0001
0000
0010
0000
0100
1000
0001
0000
1000
0001
0100
0000
0001
1000
,
0000
0100
0010
0000
0001
0000
0100
0010
0100
0000
0001
1000
0100
0000
0001
0100
,
0000
1000
0100
0000
0010
0000
0000
0000
0011
0000
0000
0000
0110
0000
0000
0000
,
1100
0000
1000
0000
1001
0000
0001
0100
,
0010
0000
1000
0000
0000
0000
0010
1000
0001
0000
0000
0000
0100
0000
0000
0000
0010
0000
0100
0000
0010
0000
0100
0000
0010
0000
0000
0000
1001
0000
0000
0000
,
1000
0000
0100
0000
0010
0000
0001
0010
0001
0000
0010
0000
0001
0000
0010
0000
0100
0000
0010
0000
0100
0000
0010
0000
0100
0000
1000
0000
0100
0000
1000
0000
,
0000
0000
1000
0000
0100
0000
1000
0000
0000
0000
1000
0000
0100
0000
0010
0000
0000
0000
0001
0000
0100
0000
0010
0000
1000
0010
1000
0000
0001
0100
0001
1000
,
0001
0000
0100
0010
0100
0000
0000
0000
0110
0000
0000
0000
0000
0000
0000
0000
0000
0000
0000
0000
0001
0000
0010
0000
1000
0000
0000
0000
0000
0000
0010
0000
,
0000
0000
0000
0000
0001
0000
0000
0000
1000
0000
0100
0000
0010
0000
0000
0000
0100
0000
0010
0000
0001
0000
0000
0000
2000
3000
0020
0030
0020
0030
0002
0003
,
1000
0000
0000
0000
1100
0000
0000
0000
0100
0000
0010
0001
0010
0000
0001
0000
,
1000
0000
0001
1000
0001
0000
0000
0000
0010
0000
0110
0000
0100
0000
0110
0000
,
0000
0000
0000
0000
0010
0100
0010
0000
0001
0000
1000
0010
0100
0000
0001
0010
,
0100
0010
0010
0000
0100
0000
0110
0000
,
0001
0100
0001
0100
0001
0000
0110
0000
1000
0010
1000
0000
0100
1000
0100
0000
,
1000
0000
0001
0010
0100
0000
1000
0000
1010
0000
0010
0000
0011
0000
0010
0000
,
0200
0000
0000
0000
0310
0000
0000
0000
1000
0000
0010
0100
0010
0000
1000
0000
,
0100
0010
0100
0010
0001
0000
0001
0000
0100
0010
1000
0010
0100
0000
0001
0000
,
1000
0100
1000
0000
0100
1000
0010
0100
0001
0000
0100
0000
0001
0000
0010
0000
,
0000
0000
0010
0000
0100
0000
0010
0000
0001
1000
0100
0010
0001
1000
0100
1000
,
0010
0000
0100
0000
0001
0000
0100
0000
0010
1000
0100
0010
0001
0000
1000
0010
,
1000
0000
0010
0100
0010
0000
0100
0000
0001
0010
0100
1000
0100
0010
0001
0000
,
1000
0000
0001
0000
,
1001
0000
0000
0000
,
0000
0000
0000
0000
;
#NOTES:
     dance-double:
     :
     Easy:
     6:
     :
00000000
00000000
00000000
00000000
,
00000000
00000000
00000000
00000000
,
00000000
00000000
00000000
00000000
,
00001000
00001000
00010000
00010000
,
00001000
00001000
00020000
00030000
,
00000000
00010000
00000000
00001000
,
00010000
00001000
00000000
00000010
,
00000000
00000010
00000000
00000001
,
00001000
00000001
00000000
00001000
,
00000100
00001000
00000000
00000100
,
00010000
00001000
00000000
00010000
,
00001000
00100000
00010000
00100000
,
00000000
00000000
00000000
01100000
,
00000000
10010000
00000000
10000000
,
01000000
00200000
00300000
00000000
,
00100000
00000000
00001000
00010000
,
00001000
00000000
00010000
00000000
,
00010000
00000000
00000100
00001000
,
00000100
00000000
00000010
00000000
,
00000010
00000000
00000001
00001000
,
00000001
00000000
00000200
00000000
,
00000000
00000300
00000100
00000100
,
00000100
00000000
00000010
00000000
,
00001000
00000000
00000010
00010000
,
00001000
00000000
00001000
00010000
,
00001000
00000000
00010000
00001000
,
01000000
00000000
00010000
01000000
,
00100000
10000000
00010000
00000000
,
00000000
00000000
10010000
00000000
,
00000000
00000000
10000000
01000000
,
00100000
00001000
00010000
00000000
,
00000000
00000000
00001000
00010000
,
00000010
00001000
00000100
00000100
,
00000010
00000000
00000100
00000100
,
00000010
00000000
00000001
00000100
,
00000001
00000100
00001000
00001000
,
00010000
00000000
00000000
00000000
00000000
00000000
00000000
00000000
00000000
00000000
00000000
00000000
00000000
00000000
00000000
00000000
00200000
00300000
00000000
00000000
00000000
00000000
00000000
00000000
00000000
00000000
00000000
00000000
00000000
00000000
00000000
00000000
,
00000000
00000000
00000000
00000000
00000000
00000000
00000000
00000000
00000000
00000000
00000000
00000000
00000000
00000000
00000000
00000000
00200000
00300000
00000000
00000000
00000000
00000000
00000000
00000000
00000000
00000000
00000000
00000000
00000000
00000000
00000000
00000000
,
00000000
00000000
00000000
00000000
00000000
00000000
00000000
00000000
00000000
00000000
00000000
00000000
00000000
00000000
00000000
00000000
02000000
03000000
00000000
00000000
00000000
00000000
00000000
00000000
00000000
00000000
00000000
00000000
00000000
00000000
00000000
00000000
,
00000000
00000000
00000000
00000000
00000000
00000000
00000000
00000000
00000000
00000000
00000000
00000000
00000000
00000000
00000000
00000000
02000000
03000000
00000000
00000000
00000000
00000000
00000000
00000000
00000000
00000000
00000000
00000000
00000000
00000000
00000000
00000000
,
00000000
00000000
00000000
00000000
00000000
00000000
00000000
00000000
00000000
00000000
00000000
00000000
00000000
00000000
00000000
00000000
00002000
00003000
00000000
00000000
00000000
00000000
00000000
00000000
00000000
00000000
00000000
00000000
00000000
00000000
00000000
00000000
,
00000000
00000000
00000000
00000000
00000000
00000000
00000000
00000000
00000000
00000000
00000000
00000000
00000000
00000000
00000000
00000000
00002000
00003000
00000000
00000000
00000000
00000000
00000000
00000000
00000000
00000000
00000000
00000000
00000000
00000000
00000000
00000000
,
00000000
00000000
00000000
00000000
00000000
00000000
00000000
00000000
00000000
00000000
00000000
00000000
00000000
00000000
00000000
00000000
00020000
00030000
00000000
00000000
00000000
00000000
00000000
00000000
00000000
00000000
00000000
00000000
00000000
00000000
00000000
00000000
,
00000000
00000000
00010000
00010000
,
00010000
00000000
00001000
00010000
,
00001000
00000000
00001000
00010000
,
00000010
00000000
00000010
00001000
,
00000010
00000000
00000200
00000300
,
00000000
00000001
00001000
00000001
,
00000000
00000001
00001000
00000100
,
00000000
00000100
00010000
00000100
,
00000000
00010000
00000000
00000000
,
00000000
00001000
00000000
00001000
,
00000000
00010000
00001000
00100000
,
00010000
00100000
00000000
00100000
,
00000000
00010000
10000000
01000000
,
00010000
00001000
00000000
00000000
,
00000000
00010000
00010000
00002000
,
00003000
00000000
00001000
00000000
,
00010000
00000010
00001000
00000010
,
00000100
00000000
00000100
00000000
,
00000001
00000100
00000010
00001000
,
00000010
00000000
00000010
00000000
,
00010000
00001000
00010000
00000000
,
00002000
00000000
00000000
00003000
,
00001000
00100000
00010000
01000000
,
00100000
00000000
10000000
00000000
,
01000000
00100000
01000000
00000000
,
10000000
01000000
00010000
00000000
,
00001000
00000000
00010000
00000000
,
00001000
00000010
00000001
00000000
,
00001000
00000000
00000000
00000000
,
00000000
00000000
00000000
00000000
;
#NOTES:
     dance-double:
     :
     Medium:
     10:
     :
00000000
00000000
00000000
00000000
,
00000000
00000000
00000000
00000000
,
00000000
00000000
00000000
00000000
,
00001000
00010000
00001000
00000000
00010000
00001000
00100000
00000000
,
00010000
00000000
00000000
00000000
00100000
00000000
00000000
00000000
00010000
00000000
00000000
00000000
00100000
00000000
00000000
00000000
02000000
03000000
02000000
03000000
02000000
03000000
00000000
00000000
01000000
00000000
00000000
00000000
00000000
00000000
00000000
00000000
,
10000000
01000000
10000000
00010000
,
00100000
00010000
00000000
00010000
,
00100000
00010000
00100000
00001000
,
00010000
00001000
00000000
00010000
,
00000010
00001000
00000100
00010000
,
00000010
00000000
00001000
00000100
00001000
00000000
00000100
00000010
,
00000001
00000000
00000100
00000010
00001000
00000000
00000001
00000000
,
00000000
00000000
00000000
00001001
,
00000000
00000001
00000100
00001000
,
00010000
00000000
00002000
00003000
00001000
00000000
00001000
00000000
,
00100000
00000000
00100000
00000000
00010000
01000000
00010000
00000000
,
00100000
00010000
00100000
00000000
01000000
00000000
01000000
00000000
,
10000000
00000000
10000000
00000000
00010000
01000000
00100000
00000000
,
10000000
01000000
00100000
00000000
00010000
00000000
00100000
00000000
,
00001000
00000000
00010000
00000000
00000100
00001000
00000100
00000000
,
00000010
00000000
00002002
00003003
,
00000001
00001000
00000001
00000000
00000100
00000010
00001000
00000000
,
00000010
00000000
00000010
00000000
00001000
00000010
00010000
00000000
,
00001000
00010000
00001000
00000000
00100000
00000000
00010000
00000000
,
01000000
00100000
10000000
00000000
01000000
00000000
00100000
00000000
,
00010000
00100000
00010000
00100000
00001000
00000000
00010000
00000000
,
00000100
00001000
00000100
00001000
00000001
00000000
00000100
00000000
,
00000010
00001000
00000100
00000000
00000010
00000000
00000010
00000000
,
00000100
00000100
00001000
00000100
,
00010000
00001000
00011000
00000000
,
00010000
00001000
00010000
00000000
00001000
00000000
01000000
00000000
,
00010000
00100000
01100000
00000000
,
10000000
00010000
10000000
00000000
00010000
01000000
00100000
01000000
,
00010000
00100000
00001000
00000000
00010000
00000100
00001000
00000010
,
00001000
00000100
00010000
00001000
00000000
00001000
00010000
00000100
,
00000000
00000100
00001000
00000001
00000010
00000000
00000010
00000100
,
00000010
00000000
00000022
00000033
,
00000022
00000033
00002200
00003300
,
00002200
00003300
00220000
00330000
,
22000000
33000000
20200000
30300000
,
20200000
00000000
00000000
00000000
00000000
00000000
30300000
00000000
00000000
00000000
00000000
00000000
20000000
30000000
00000000
00000000
00000000
00000000
00000000
00020000
00030000
00000000
00000000
00000000
,
00200000
00300000
00000000
00000000
00000000
00000000
00000000
00000000
00000000
00000000
00000000
00000000
00200000
00300000
00000000
00000000
00000000
00000000
00000000
00002000
00003000
00000000
00000000
00000000
,
00020000
00030000
00000000
00000000
00000000
00000000
00000000
00000000
00000000
00000000
00000000
00000000
00020000
00030000
00000000
00000000
00000000
00000000
00000000
00000020
00000030
00000000
00000000
00000000
,
00002000
00003000
00000000
00000000
00000000
00000000
00000000
00000000
00000000
00000000
00000000
00000000
00000001
00000000
00000000
00000000
00000000
00000000
00000001
00000000
00000000
00000000
00000000
00000000
,
00000001
00000000
00000000
00000000
00000001
00000100
00000010
00000000
,
00000100
00000000
00000000
00000100
00000000
00000000
00000100
00000000
00000010
00000000
00000100
00000000
00001000
00000000
00000000
00000000
,
00010000
00000000
00000000
00010000
00000000
00000000
00010000
00000000
00001000
00000000
00100000
00000000
00010000
00000000
00000000
00000000
,
00010000
00000000
00000000
00000000
00100000
00000000
00000000
00000000
01000000
00000000
00000000
00000000
00000000
00000000
00000000
00000000
20000000
30000000
00000000
00000000
00020000
00030000
00000000
00000000
10010000
00000000
00000000
00000000
00000000
00000000
00000000
00000000
,
00000000
00000000
10000000
01000000
00100000
00010000
10000000
00000000
,
10000000
01000000
00010000
00001000
00010000
00001000
00010000
00000000
,
00001000
00010000
00001000
00000010
00000001
00001000
00000100
00000000
,
00000100
00000010
00000001
00000100
00000001
00000010
00000001
00000000
,
00000000
00000000
00000001
00000000
00000100
00000000
00001000
00010000
,
00100000
00000000
10000000
00000000
10000000
00000000
01000000
00010000
,
00001000
00000000
00010000
00001000
00000010
00000000
00000010
00001000
,
00010000
00000000
00001000
00010000
00100000
00000000
00100000
00010000
,
00001000
00011000
00000000
00010000
,
00001000
00000000
00000000
00000000
00000000
00000000
00000000
00000000
00000010
00000000
00000000
00000000
00000000
00000000
00000000
00000000
00000010
00000000
00000000
00000000
00000000
00000000
00000000
00000000
00000002
00000003
00002000
00003000
00000002
00000003
00000000
00000000
,
00001000
00001100
00000100
00010100
,
00010000
00001000
01000000
00000000
00010000
10000000
00010000
00000000
,
10000000
00000000
11000000
00000000
01000000
00100000
00010000
00000000
,
00100000
00000000
00101000
00000000
00001000
00010000
00001000
00000000
,
00010000
00001000
00000100
00000001
,
00000010
00001000
00010000
00000000
00001000
00010000
01000000
00000000
,
20000000
00000000
30000000
00000000
10000000
00010000
10000000
00000000
,
01000000
00000000
00100000
00000000
00010000
00100000
00001000
00000000
,
00010000
00000010
00000100
00000010
,
00010000
00001000
00010000
00000000
00000100
00000000
00000010
00000000
,
00000001
00000010
00000001
00000010
00000001
00001000
00000010
00000000
,
00010000
00001000
00010000
00001000
01000000
00010000
01000000
00000000
,
00100000
00010000
00001000
00000000
,
00011000
00000000
00000000
00000000
,
00000000
00000000
00000000
00000000
;
#NOTES:
     dance-double:
     :
     Hard:
     16:
     :
00000000
00000000
00000000
00000000
,
00000000
00000000
00000000
00000000
,
00000000
00000000
00000000
00000000
,
00001000
00010000
00100000
00100000
10000000
00010000
00100000
00100000
,
01000000
00000000
00000000
00000000
00010000
00000000
00000000
00000000
00001000
00000000
00000000
00000000
00001000
00000000
00000000
00000000
00020000
00030000
00020000
00030000
00002000
00003000
00002000
00003000
00010000
00000000
00000000
00000000
00000000
00000000
00000000
00000000
,
00011000
00000000
00001000
00000010
00000001
00000000
00001000
00000000
,
00001001
00000000
00000001
00001000
00000100
00010000
00001000
00000000
,
00011000
00000000
00010000
00100000
10000000
00000000
00010000
00000000
,
10010000
00000000
10000000
00010000
01000000
00001000
00010000
00000100
,
00001000
00000100
00000010
00000001
00000100
00000001
00000010
00000100
,
00000001
00000000
00000100
00000000
00000010
00000000
00000100
00000000
00001000
00000000
00000100
00000000
00010000
00001000
00010000
00000000
,
00001000
00100000
00001000
00000000
00100000
00010000
00100000
00010000
00100000
01000000
00100000
01000000
10000000
00000000
00010000
01000000
,
00010000
00000000
10000000
00100000
10000000
00000000
00100000
00000000
00100000
00000000
00000000
00000000
01100000
00000000
00000000
00000000
,
00000000
00000000
10000000
01000000
00010000
00000000
00000000
00001000
00000000
00000000
00001000
00000000
00000010
00000000
00000000
00000001
,
00000000
00000000
00000000
00000000
00000001
00000000
00000000
00000000
00000200
00000300
00000020
00000030
00000200
00000300
00000020
00000030
00000100
00000000
00000000
00000000
00000000
00000000
00000000
00000000
00000110
00000000
00000000
00000000
00000000
00000000
00000000
00000000
,
00000001
00000000
00000100
00000010
00000000
00000100
00000010
00000000
00001000
00000000
00000010
00000000
00010000
00000000
00001000
00000000
,
01000000
00000000
00010000
01000000
00100000
00000000
10000000
00000000
10010000
00000000
00000000
00000000
01100000
00000000
00000000
00000000
,
10000000
00000000
01000000
00100000
00000000
01000000
00100000
00000000
00010000
00000000
10000000
00000000
00100000
00000000
00010000
00000000
,
00001000
00000000
00010000
00001000
00010000
00000000
00001000
00000000
00010000
00000000
00000100
00000000
00001100
00000000
00000000
00000000
,
00001000
00000000
00000100
00000010
00000000
00000100
00000010
00000000
00000001
00000000
00000100
00000000
00000010
00001000
00000010
00000000
,
00010000
00000000
00001000
00010000
00001000
00000000
00000000
00000000
00020000
00000000
00000000
00000000
00031000
00000000
00000000
00000000
,
00001000
00000000
00100000
00001000
00000000
00100000
00010000
00000000
00100000
00000000
01000000
10000000
01000000
00000000
10000000
00000000
,
00100000
00010000
00100000
01000000
00010000
00000000
00110000
00000000
,
00100000
00000000
00001000
00010000
00000000
00001000
00010000
00000000
00000010
00000000
00001000
00000000
00000100
00000000
00001000
00000000
,
00000010
00000000
00000100
00000001
00001000
00000000
00000100
00000000
00000010
00000000
00000001
00000000
00000010
00000000
00000001
00000000
,
00000100
00000000
00000010
00000000
00000100
00000000
00000010
00001000
00000100
00000000
00010000
00000000
00000100
00000000
00010000
00000000
,
00001000
00000000
00010000
00000000
00001000
00000000
01000000
00010000
01000000
00100000
01000000
00100000
10000000
00100000
10000000
00000000
,
01000000
00100000
01000000
00100000
00010000
00100000
00010000
00000000
00100000
00000000
00000000
00000000
00101000
00000000
00000000
00000000
,
00011000
00000000
00000000
00000000
00010100
00000000
00000000
00000000
00001100
00000000
00000000
00001000
00000100
00000000
00000010
00000000
,
00000011
00000000
00000000
00000001
00001000
00000000
00000100
00000000
00010100
00000000
00000000
00010000
00001000
00000000
00100000
00000000
,
00010000
01000000
00000000
00010000
01000000
00000000
00100000
01000000
00100000
00000000
00000000
00100000
10000000
00000000
00010000
00000000
,
01010000
00000000
00000000
01000000
00001000
00000000
00010000
00000000
00011000
00000000
00000000
00001000
00010000
00000000
00000100
00000000
,
00001000
00000100
00000000
00000010
00000100
00000000
00001000
00000001
00001000
00000000
00000001
00000000
00000100
00000000
00000010
00000000
,
00001000
00000000
00000001
00000000
00000010
00000000
00000100
00001000
00000100
00000000
00010000
00000000
00001000
00000000
00100000
00000000
,
00010000
00000000
01000000
00000000
00100000
00000000
10000000
01000000
00100000
00010000
10000000
00000000
01000000
00100000
00010000
00000000
,
00100000
00001000
00100000
00001000
00010000
00001000
00010000
00001000
00010000
00000000
00000000
00000000
00001000
00000000
00001000
00000000
,
00010000
00000000
00000000
00000000
00000000
00000000
00000000
00000000
00011000
00000000
00000000
00000000
00000000
00000000
00000000
00000000
00022000
00033000
00000000
00000000
00000000
00000000
00000000
00000000
00010000
00000000
00000000
00000000
00000100
00000000
00000000
00000000
,
00002000
00000000
00000000
00003000
00000000
00000000
00000000
00000000
00000000
00000000
00000000
00000000
00000000
00000000
00000000
00000000
00000000
00000000
00000000
00000000
00000000
00000000
00000000
00000000
00000000
00000000
00000000
00000000
00000110
00000000
00000000
00000000
00000000
00000000
00000000
00000000
00000000
00000000
00000000
00000000
00000000
00000000
00000000
00000000
00000000
00000000
00000000
00000000
00002002
00000000
00000000
00003003
00000000
00000000
00000000
00000000
00000000
00000000
00000000
00000000
00000000
00000000
00000000
00000000
00000000
00000000
00000000
00000000
00000000
00000000
00000000
00000000
00000001
00000000
00000000
00000000
00000000
00000000
00000000
00000000
00000000
00000000
00000000
00000000
00000100
00000000
00000000
00000000
00000000
00000000
00000000
00000000
00000000
00000000
00000000
00000000
,
00002000
00000000
00000000
00003000
00000000
00000000
00000000
00000000
00000000
00000000
00000000
00000000
00000000
00000000
00000000
00000000
00010000
00000000
00000000
00000000
00000000
00000000
00000000
00000000
00001000
00000000
00000000
00000000
00010000
00000000
00000000
00000000
00000000
00000000
00000000
00000000
00000000
00000000
00000000
00000000
00000000
00000000
00000000
00000000
00000000
00000000
00000000
00000000
00022000
00000000
00000000
00033000
00000000
00000000
00000000
00000000
00000000
00000000
00000000
00000000
00000000
00000000
00000000
00000000
00000000
00000000
00000000
00000000
00000000
00000000
00000000
00000000
00001000
00000000
00000000
00000000
00000000
00000000
00000000
00000000
00000000
00000000
00000000
00000000
00010000
00000000
00000000
00000000
00000000
00000000
00000000
00000000
00000000
00000000
00000000
00000000
,
00200000
00000000
00000000
00300000
00000000
00000000
00000000
00000000
00000000
00000000
00000000
00000000
00000000
00000000
00000000
00000000
00000000
00000000
00000000
00000000
00000000
00000000
00000000
00000000
00000000
00000000
00000000
00000000
01100000
00000000
00000000
00000000
00000000
00000000
00000000
00000000
00000000
00000000
00000000
00000000
00000000
00000000
00000000
00000000
00000000
00000000
00000000
00000000
20020000
00000000
00000000
30030000
00000000
00000000
00000000
00000000
00000000
00000000
00000000
00000000
00000000
00000000
00000000
00000000
00000000
00000000
00000000
00000000
00000000
00000000
00000000
00000000
10000000
00000000
00000000
00000000
00000000
00000000
00000000
00000000
00000000
00000000
00000000
00000000
01000000
00000000
00000000
00000000
00000000
00000000
00000000
00000000
00000000
00000000
00000000
00000000
,
00020000
00000000
00000000
00030000
00000000
00000000
00000000
00000000
00000000
00000000
00000000
00000000
00000000
00000000
00000000
00000000
00001000
00000000
00000000
00000000
00000000
00000000
00000000
00000000
00000000
00000000
00000000
00000000
00011000
00000000
00000000
00000000
00000000
00000000
00000000
00000000
00000000
00000000
00000000
00000000
00000000
00000000
00000000
00000000
00000000
00000000
00000000
00000000
00022000
00000000
00000000
00033000
00000000
00000000
00000000
00000000
00000000
00000000
00000000
00000000
00000000
00000000
00000000
00000000
00010000
00000000
00000000
00000000
00000000
00000000
00000000
00000000
00000010
00000000
00000000
00000000
00000000
00000000
00000000
00000000
00001000
00000000
00000000
00000000
00000010
00000000
00000000
00000000
00000000
00000000
00000000
00000000
00000000
00000000
00000000
00000000
,
00000220
00000000
00000000
00000330
00000000
00000000
00000000
00000000
00000000
00000000
00000000
00000000
00000000
00000000
00000000
00000000
00000100
00000000
00000000
00000000
00000000
00000000
00000000
00000000
00000000
00000000
00000000
00000000
00001001
00000000
00000000
00000000
00000000
00000000
00000000
00000000
00000000
00000000
00000000
00000000
00000000
00000000
00000000
00000000
00000000
00000000
00000000
00000000
00000220
00000000
00000000
00000330
00000000
00000000
00000000
00000000
00000000
00000000
00000000
00000000
00000000
00000000
00000000
00000000
00000001
00000000
00000000
00000000
00000000
00000000
00000000
00000000
00000010
00000000
00000000
00000000
00000000
00000000
00000000
00000000
00000100
00000000
00000000
00000000
00001000
00000000
00000000
00000000
00000000
00000000
00000000
00000000
00000000
00000000
00000000
00000000
,
00020200
00000000
00000000
00030300
00000000
00000000
00000000
00000000
00000000
00000000
00000000
00000000
00000000
00000000
00000000
00000000
00010000
00000000
00000000
00000000
00000000
00000000
00000000
00000000
00000000
00000000
00000000
00000000
00011000
00000000
00000000
00000000
00000000
00000000
00000000
00000000
00000000
00000000
00000000
00000000
00000000
00000000
00000000
00000000
00000000
00000000
00000000
00000000
00022000
00000000
00000000
00033000
00000000
00000000
00000000
00000000
00000000
00000000
00000000
00000000
00000000
00000000
00000000
00000000
00001000
00000000
00000000
00000000
00000000
00000000
00000000
00000000
00100000
00000000
00000000
00000000
00000000
00000000
00000000
00000000
00010000
00000000
00000000
00000000
00100000
00000000
00000000
00000000
00000000
00000000
00000000
00000000
00000000
00000000
00000000
00000000
,
02200000
00000000
00000000
03300000
00000000
00000000
00000000
00000000
00000000
00000000
00000000
00000000
00000000
00000000
00000000
00000000
01000000
00000000
00000000
00000000
00000000
00000000
00000000
00000000
10000000
00000000
00000000
00000000
00010000
00000000
00000000
00000000
00000000
00000000
00000000
00000000
01000000
00000000
00000000
00000000
00000000
00000000
00000000
00000000
00000000
00000000
00000000
00000000
00100000
00000000
00000000
00000000
00000000
00000000
00000000
00000000
00000000
00000000
00000000
00000000
00000000
00000000
00000000
00000000
00000000
00000000
00000000
00000000
00000000
00000000
00000000
00000000
10100000
00000000
00000000
00000000
00000000
00000000
00000000
00000000
00000000
00000000
00000000
00000000
00000000
00000000
00000000
00000000
00000000
00000000
00000000
00000000
00000000
00000000
00000000
00000000
,
10000000
01000000
00100000
00000000
00100000
00001000
00010000
00000100
,
00001000
00000000
00000100
00000010
00000000
00000100
00000010
00000000
00000001
00000000
00000100
00000000
00001000
00000000
00000100
00000000
,
00000001
00000000
00000010
00000100
00000000
00000010
00000100
00000000
00001000
00000000
00000100
00000000
00010000
00000000
00001000
00000000
,
00100000
00000000
00000000
00000000
00000000
00000000
00010000
00000000
00000000
01000000
00000000
00000000
00000000
00000000
00000000
00010000
00000000
00000000
01000000
00000000
00000000
00000000
00000000
00000000
00200000
00300000
20000000
30000000
02000000
03000000
00200000
00300000
00020000
00030000
02000000
03000000
00100000
00000000
00000000
00000000
00000000
00000000
00000000
00000000
00000000
00000000
00000000
00000000
,
10010000
00000000
00000000
00000000
10000000
00000000
00100000
01000000
00010000
00000000
00100000
00010000
00100000
00000000
00001000
00010000
,
00000000
00001000
00010000
00000000
00000010
00000000
00001000
00000100
00000010
00000000
00000001
00001000
00000010
00000000
00000100
00000001
,
00000000
00000100
00000010
00000000
00001000
00000000
00000100
00010000
00000100
00000000
00010000
00001000
00010000
00000000
00001000
00100000
,
00000000
00010000
00100000
00000000
01000000
00000000
01000000
00000000
10000000
00000000
10000000
00000000
10100000
00000000
00000000
00000000
,
01100000
00000000
01000000
00000000
10010000
00000000
10000000
01000000
,
00010000
00000000
00001000
00000000
00000000
00000000
00001000
00010000
00001000
00000000
00000000
00000000
00010000
00000000
00000000
00000000
00000010
00000000
00001000
00000000
00000010
00000000
00000100
00000000
00000010
00000000
00000000
00000000
00001000
00000000
00000100
00000000
,
00000010
00000000
00000001
00000000
00000100
00000000
00000001
00001000
00000001
00000000
00000100
00000000
00000001
00000000
00000100
00000000
00000010
00000000
00001000
00000000
00000010
00000000
00001000
00000000
00010000
00000000
01000000
00000000
00010000
00000000
01000000
00000000
,
00000000
00000000
01000000
00000000
00100000
00000000
10000000
00000000
00000000
00000000
10000000
00000000
01000000
00000000
00010000
00000000
00000000
00000000
00010000
00000000
00001000
00000000
00010000
00000000
00000010
00001000
00000010
00000000
00000100
00000001
00000100
00000000
,
00000010
00000000
00001000
00000001
00001000
00000000
00000000
00000000
00001001
00000000
00000000
00000000
00000000
00000000
00000000
00000000
00000000
00000000
00000000
00000000
00000001
00000000
00000100
00000000
00001000
00000000
00000000
00000000
00000000
00000000
00010000
00000000
,
00000000
00000000
00000000
00000000
00010000
00000000
00000000
00000000
00100000
00000000
01000000
00000000
00100000
00000000
00000000
00000000
10000000
00000000
00100000
00000000
10000000
00000000
00000000
00000000
00020000
00030000
02000000
03000000
02000000
03000000
20000000
30000000
,
00010000
00000000
00000000
00000000
10010000
00000000
00000000
00000000
10000000
00000000
00100000
01000000
00010000
00000000
00100000
00000000
,
01000000
00010000
00001000
00000010
00000001
00000100
00001000
00000100
,
00000000
00000000
00000000
00000000
00000100
00000010
00000100
00000000
00000001
00000000
00001000
00000100
00010000
00000000
00001000
00100000
,
00010000
01000000
01000000
00000000
00100000
00000000
01100000
00000000
,
00100000
10000000
01000000
00000000
00100000
00010000
01000000
00000000
00100000
00000000
00010000
00001000
00010000
00000000
00001000
00000100
,
00000010
00000000
00001000
00000100
00000010
00000000
00000001
00000000
00001000
00000000
00001000
00000000
00000010
00000000
00000010
00000000
,
00020000
00000000
00000000
00000000
00031000
00000000
00000000
00000000
00010000
00000000
00001000
00100000
00001000
00000000
00010000
00000000
,
00100000
01000000
00100000
01000000
00010000
00000000
00100000
01000000
00010000
00000000
00001000
00010000
00001000
00000000
00010000
00000000
,
00000100
00001000
00000100
00000000
00001000
00000100
00000010
00000001
00000010
00000000
00000001
00000000
00001000
00000000
00000001
00000000
,
00000000
00000000
00000001
00000000
00000100
00000000
00001000
00000000
00010000
00000000
00100000
10000000
00010000
01000000
00100000
00000000
,
10000000
00000000
01000000
00000000
00100000
00000000
01000000
00000000
00010000
00001000
00010000
00000000
00001000
00010000
00001000
00000000
,
00010000
00000000
00001000
00000000
00000010
00000000
00000001
00000000
00000100
00000010
00000100
00000000
00000001
00000010
00000100
00001000
,
00000001
00000010
00000010
00001000
,
00011000
00000000
00000000
00000000
,
00000000
00000000
00000000
00000000
;
