
//----- song ID: noma -----//
#TITLE:No Matter What;
#ARTIST:jun feat.Rita Boudreau;
#BANNER:No Matter What.png;
#BACKGROUND:No Matter What-bg.png;
#CDTITLE:./CDTitles/DDR HOTTEST PARTY2.png;
#MUSIC:No Matter What.ogg;
#SAMPLESTART:64.796;
#SAMPLELENGTH:15;
#BPMS:0=100;
#BGSTAGE:1;
#NOTES:
     dance-single:
     :
     Beginner:
     2:
     :
0000
0000
0000
0000
,
0000
0000
0000
0000
,
0000
0000
0000
0000
,
0000
0000
0000
0000
,
0001
0000
0000
0000
,
1000
0000
0000
0000
,
1000
0000
0000
0000
,
0001
0000
0000
0000
,
0001
0000
0000
0000
,
0100
0000
0010
0000
,
1000
0000
0010
0000
,
1000
0000
0000
0000
,
0001
0000
0010
0000
,
0001
0000
0000
0000
,
1000
0000
0100
0000
,
1000
0000
0000
0000
,
0001
0000
0100
0000
,
0001
0000
0100
0000
,
0010
0000
1000
0000
,
0010
0000
1000
0000
,
0001
0000
1000
0000
,
0001
0000
0000
0000
,
1001
0000
0000
0000
,
1000
0000
0001
0000
,
0100
0000
0010
0000
,
2000
0000
3000
0000
,
0002
0000
0003
0000
,
1000
0000
0010
0000
,
1000
0000
0000
0000
,
0001
0000
0010
0000
,
0001
0000
0000
0000
,
1000
0000
0001
0000
,
1000
0000
0000
0000
,
0010
0000
0100
0000
,
0020
0000
0030
0000
,
1000
0000
0001
0000
,
0100
0000
0001
0000
,
1000
0000
0010
0000
,
1000
0000
0001
0000
,
0010
0000
0100
0000
,
0010
0000
0001
0000
,
1000
0000
0010
0000
,
0100
0000
0010
0000
,
1000
0000
0000
0000
,
0000
0000
0000
0000
;
#NOTES:
     dance-single:
     :
     Easy:
     5:
     :
0000
0000
0000
0000
,
0000
0000
0000
0000
,
0000
0000
0000
0000
,
0000
0000
0000
0000
,
1000
0100
0000
0100
,
0010
0100
0000
0100
,
1000
0001
0000
0001
,
0100
0010
0000
0010
,
1000
0001
0000
0001
,
1000
0100
0010
0001
,
1000
0010
1000
0001
,
0010
0100
0010
0000
,
0001
1000
0010
0100
,
0001
1000
0100
0000
,
1000
0100
0010
0001
,
1000
0001
1000
0000
,
0010
0100
0010
1000
,
0001
0010
0100
1000
,
0001
0100
0001
1000
,
0010
0100
0010
1000
,
0001
0010
0100
1000
,
0001
1000
0001
0000
,
1001
0000
1000
0010
,
0100
0010
0100
0000
,
0001
0000
0010
0000
,
0002
0000
1003
0000
,
2000
0000
3020
0000
,
0130
0001
0100
0001
,
1000
0100
0010
0000
,
0001
1000
0001
0000
,
0100
0010
0100
0000
,
0001
0010
0001
0010
,
0100
1000
0001
0000
,
1001
0000
0110
0000
,
2000
0000
3002
0000
,
1003
0100
1000
0001
,
0100
0001
0100
0010
,
1000
0001
1000
0100
,
0010
0001
1000
0010
,
0100
0010
0100
0001
,
1000
0100
1000
0001
,
0010
0100
0010
0001
,
1000
0010
0100
0001
,
1000
0000
0000
0000
,
0000
0000
0000
0000
;
#NOTES:
     dance-single:
     :
     Medium:
     9:
     :
0000
0000
0000
0000
,
0000
0000
0000
0000
,
0000
0000
0000
0000
,
0000
0000
0000
0000
,
0001
0000
0100
0001
0000
1000
0100
0000
,
1000
0000
0010
1000
0000
0001
0010
0000
,
0001
0000
0100
0010
0000
0100
0001
0000
,
1000
0000
0100
0010
0000
0100
1000
0000
,
0001
0000
0100
1000
0000
0100
0001
0000
,
1000
0100
0010
0000
0001
0010
0100
0000
,
1000
0000
0001
0100
0000
0010
1000
0000
,
0001
0010
0001
0010
0001
0000
0100
0000
,
0010
0000
1000
0001
0100
0010
1000
0001
,
1000
0000
0100
0010
0001
0000
1000
0000
,
0100
0000
1000
0000
0001
0100
0010
0100
,
0010
0000
1000
0010
1000
0000
0001
2000
,
0000
3200
0000
0310
0000
0001
1000
0010
,
0100
0000
0010
0100
0010
0000
1000
0000
,
0001
0000
0010
0001
1000
0100
1000
0000
,
0001
0000
0100
0010
1000
0000
0010
0000
,
0100
0000
0000
0001
0100
0000
0001
0000
1000
0000
0000
0010
1000
0000
0010
0000
,
0100
0000
0000
0001
0010
0000
0001
0000
1000
0000
0000
0000
0100
0000
0000
0000
,
0010
0000
0001
0000
1000
0001
0010
0100
,
1000
0000
0000
0010
0100
0000
0010
0000
1000
0000
0000
0000
0000
0000
0001
0000
,
0100
1000
0100
0010
0000
1000
0100
0001
,
0100
0000
1000
0001
0100
0000
0010
0100
,
0002
0000
1000
1000
2003
0000
3100
0000
,
1000
0000
0000
0010
0100
0000
0010
0000
0100
0000
0000
0001
0010
0000
0001
0000
,
0010
0000
0000
0100
1000
0000
0100
0000
0010
0000
0000
0000
0001
0000
1000
0000
,
0001
0000
0000
0100
0010
0000
0100
0000
0010
0000
0000
0000
1000
0000
0001
0000
,
0010
0000
0000
0100
0010
0000
0100
0000
1000
0000
0001
0000
0100
0000
0000
0000
,
0001
0000
0000
1000
0010
0000
1000
0000
0100
0000
0000
0010
0001
0000
0010
0000
,
0100
0000
0000
1000
0010
0000
0000
0100
0001
0000
0000
0020
0000
0000
0031
0000
,
1000
0000
0000
0010
0100
0000
0000
0000
0001
0000
0000
1000
0100
0000
1000
0000
,
0020
0000
0000
0000
0000
0000
0000
0000
0230
0000
0000
0302
0000
0000
1003
0000
,
0100
1000
0100
0010
0001
1000
0010
0100
,
0001
0010
0001
1000
0100
0010
0001
1000
,
0010
1000
0010
0100
0001
0010
0100
1000
,
0010
0100
0001
1000
0010
0100
0001
1000
,
0100
0010
0100
1000
0001
0100
0010
1000
,
0010
0100
0010
1000
0001
0010
0100
1000
,
0001
0100
0001
0010
0100
1000
0001
1000
,
0010
0100
0001
0000
1000
0100
0010
0001
,
1000
0000
0000
0000
,
0000
0000
0000
0000
;
#NOTES:
     dance-single:
     :
     Hard:
     13:
     :
0000
0000
0000
0000
,
0000
0000
0000
0000
,
0000
0000
0000
0000
,
0000
0000
0000
0000
,
1000
0100
0010
0001
0000
1000
0100
1000
,
0001
0010
0100
1000
0000
0001
0010
0001
,
1000
0100
0010
0001
0000
1000
0100
1000
,
0001
0010
0100
1000
0000
0001
0010
0001
,
1000
0100
0010
0001
0000
1000
0100
1000
,
0001
0010
0100
1000
0001
0010
0100
1000
,
0001
0000
0100
0000
0001
0100
0001
0100
0001
0000
0100
0000
0010
0000
1000
0000
,
0100
0000
1000
0000
0100
1000
0100
1000
0100
0000
1000
0000
0001
0000
0010
0000
,
0100
0000
0010
0000
0100
0010
0100
0010
0100
0000
1000
0000
0001
0000
0100
0000
,
0010
0000
1000
0000
0001
0010
0001
0010
0100
1000
0100
0000
1000
0000
0001
0000
,
1000
0000
0010
0000
1000
0010
1000
0010
1000
0000
0010
0000
0100
0000
0001
0000
,
0010
0000
0001
0000
0010
0001
0010
0001
0010
0000
0001
0000
1000
0000
1001
0000
,
0001
0101
0100
0110
0010
1000
0001
0010
,
0100
0000
1000
0000
0001
0100
0001
0100
0010
1000
0010
0000
0100
0000
0010
0000
,
1000
0000
0100
1000
0100
0000
0010
0000
0001
0010
0001
0000
1000
0000
0010
0000
,
1000
0000
0010
0100
0010
0000
1000
0000
0100
0010
0100
0000
1000
0000
0001
0010
,
0100
0000
0010
0001
1000
0000
0010
1000
0001
0000
1000
0100
0010
0000
0001
0000
,
0100
0000
0001
1000
0100
1000
0100
0000
0010
0000
0001
0000
1000
0000
0100
0000
,
0010
0000
0001
0000
1000
0010
1000
0010
1000
0000
0100
0000
0010
0000
0001
0000
,
1000
0000
0001
0100
0010
0000
0100
0000
0110
0000
0000
0000
0000
0000
1002
0000
,
0013
0021
0130
1200
0310
0011
0101
1010
,
0001
0000
0100
0010
0100
0000
0001
1000
0100
1000
0100
0000
1000
0000
0100
0010
,
0002
0000
1000
0000
1003
0000
0100
0010
0200
0000
0001
0000
0301
0000
0000
0000
,
1000
0000
0001
0010
0100
0000
0010
0000
0001
0000
1000
0010
0100
0000
0010
0000
,
1000
0000
0100
0010
0001
0010
0001
0010
0001
0000
0000
0000
0100
0000
0010
0000
,
1000
0000
0100
0010
0100
0000
1000
0000
1001
0000
0000
0000
0001
0000
0100
0000
,
0010
0000
1000
0010
0100
0001
0100
0001
1000
0100
1000
0100
0010
0000
0001
0000
,
1000
0000
0010
1000
0010
0000
0100
0000
0001
0000
0010
0001
0010
0000
0001
0000
,
0100
0000
0010
1000
0001
0000
0010
0001
1000
0000
0000
0002
0000
0000
1003
0000
,
0100
0000
0010
0001
0010
0000
0000
0000
0002
0000
0000
1003
0010
0100
0001
0010
,
0100
0000
0010
0001
0010
0100
1000
0000
0001
0100
0001
0100
0010
1000
0010
1000
,
0100
0000
1000
0100
1000
0100
0010
0001
1000
0100
1000
0000
0001
0100
0001
0000
,
0100
0000
0001
0010
0001
0010
0100
1000
0001
0100
0001
0000
1000
0100
1000
0000
,
0100
0000
1000
0010
1000
0010
0100
0001
1000
0010
1000
0000
0001
0100
0001
0000
,
0010
0000
0001
0100
0001
0100
0010
1000
0001
0010
0001
0000
0110
0000
1100
0000
,
1000
0100
0010
0000
0100
0000
1000
0010
0100
0001
1000
0000
0001
0010
0001
0000
,
0100
0000
0001
0010
0001
0010
0100
1000
0100
0010
0001
0000
0100
0010
0100
0000
,
0010
0000
1000
0100
1000
0100
0010
0001
0010
0100
1000
0000
0010
0100
0010
0000
,
0100
0000
0001
0010
0100
1000
0010
0100
0010
0000
1000
0100
1000
0010
0100
0001
,
0010
0000
0000
0000
,
0000
0000
0000
0000
;
#NOTES:
     dance-double:
     :
     Easy:
     5:
     :
00000000
00000000
00000000
00000000
,
00000000
00000000
00000000
00000000
,
00000000
00000000
00000000
00000000
,
00000000
00000000
00000000
00000000
,
00010000
00001000
00000000
00001000
,
01000000
00010000
00000000
00010000
,
10000000
01000000
00000000
01000000
,
00010000
00001000
00000000
00001000
,
00000100
00000010
00000000
00000010
,
00001000
00000100
00000010
00000001
,
00001000
00000100
00010000
00001000
,
00100000
00010000
00100000
00000000
,
00010000
10000000
00100000
01000000
,
00010000
00100000
00001000
00000000
,
00010000
00001000
00000100
00000001
,
00001000
00000100
00001000
00000000
,
00000001
00000010
00001000
00010000
,
00001000
00010000
01000000
10000000
,
00010000
01000000
00001000
00010000
,
00001000
00000100
00000010
00001000
,
00000001
00000010
00000100
00001000
,
00010000
00100000
01000000
00000000
,
10010000
00000000
00010000
01000000
,
00001000
00010000
00001000
00000000
,
00000100
00000000
00000001
00000000
,
00002000
00000000
00003100
00000000
,
00020000
00000000
00032000
00000000
,
01003000
00010000
01000000
00010000
,
10000000
00100000
01000000
00000000
,
00001000
00010000
00001000
00000000
,
00000010
00000100
00000010
00000000
,
00000001
00000100
00000001
00000100
,
00000010
00001000
00000010
00000000
,
00010000
00000000
00011000
00000000
,
00002000
00000000
00203000
00000000
,
00310000
10000000
01000000
00010000
,
00001000
00000010
00000001
00001000
,
00000001
00000100
00001000
00010000
,
00100000
10000000
00010000
01000000
,
00001000
00010000
00001000
00010000
,
00000010
00000100
00000010
00001000
,
00000001
00000010
00001000
00010000
,
01000000
10000000
00010000
01000000
,
00001000
00000000
00000000
00000000
,
00000000
00000000
00000000
00000000
;
#NOTES:
     dance-double:
     :
     Medium:
     9:
     :
00000000
00000000
00000000
00000000
,
00000000
00000000
00000000
00000000
,
00000000
00000000
00000000
00000000
,
00000000
00000000
00000000
00000000
,
10000000
00000000
01000000
00100000
00000000
00010000
00100000
00000000
,
00001000
00000000
00010000
00000100
00000000
00001000
00000100
00000000
,
00000010
00000000
00000001
00001000
00000000
00000010
00001000
00000000
,
00000100
00000000
00010000
00001000
00000000
01000000
00010000
00000000
,
10000000
00000000
01000000
00010000
00000000
00001000
00000100
00000000
,
00000001
00000010
00000100
00000000
00001000
00000100
00010000
00000000
,
00001000
00000000
00010000
00100000
00000000
01000000
00100000
00000000
,
10000000
01000000
10000000
01000000
10000000
00000000
00010000
00000000
,
00100000
00000000
00001000
00010000
00000100
00001000
00000001
00000010
,
00000001
00000000
00001000
00000100
00000010
00000000
00000001
00000000
,
00000100
00000000
00001000
00000000
00010000
00001000
00010000
00001000
,
01000000
00000000
00010000
01000000
00010000
00000000
10000000
02000000
,
00000000
03020000
00000000
00031000
00000000
00010000
00000010
00001000
,
00000001
00000000
00000010
00000100
00000010
00000000
00000001
00000000
,
00001000
00000000
00000100
00010000
00001000
00100000
00010000
00000000
,
10000000
00000000
00100000
01000000
00010000
00000000
00100000
00000000
,
00001000
00000000
00000000
00010000
00001000
00000000
00010000
00000000
00000010
00000000
00000000
00001000
00000010
00000000
00001000
00000000
,
00000001
00000000
00000000
00000010
00000001
00000000
00000010
00000000
00000100
00000000
00000000
00000000
00001000
00000000
00000000
00000000
,
00000001
00000000
00000100
00000000
00000001
00000100
00001000
00010000
,
00100000
00000000
00000000
10000000
00100000
00000000
01000000
00000000
00010000
00000000
00000000
00000000
00000000
00000000
10000000
00000000
,
00100000
00010000
00001000
00010000
00000000
00001000
00000010
00000001
,
00000010
00000000
00000001
00001000
00000100
00000000
00010000
00001000
,
02000000
00000000
00010000
00010000
03020000
00000000
10030000
00000000
,
10000000
00000000
00000000
01000000
00100000
00000000
01000000
00000000
00010000
00000000
00000000
00001000
00010000
00000000
00001000
00000000
,
00000010
00000000
00000000
00000001
00000010
00000000
00000001
00000000
00001000
00000000
00000000
00000000
00000001
00000000
00000100
00000000
,
00000001
00000000
00000000
00000100
00000010
00000000
00000100
00000000
00001000
00000000
00000000
00000000
00010000
00000000
00001000
00000000
,
00010000
00000000
00000000
00100000
01000000
00000000
00100000
00000000
10000000
00000000
00010000
00000000
01000000
00000000
00000000
00000000
,
00001000
00000000
00000000
00010000
00000100
00000000
00001000
00000000
00000010
00000000
00000000
00010000
00001000
00000000
01000000
00000000
,
00010000
00000000
00000000
10000000
00100000
00000000
00000000
00010000
00001000
00000000
00000000
00000200
00000000
00000000
00000310
00000000
,
00000100
00000000
00000000
00000001
00000010
00000000
00000000
00000000
00000001
00000000
00000000
00000010
00000100
00000000
00001000
00000000
,
00020000
00000000
00000000
00000000
00000000
00000000
00000000
00000000
00230000
00000000
00000000
02300000
00000000
00000000
13000000
00000000
,
00010000
00100000
00001000
00100000
00001000
00010000
00000100
00001000
,
00000001
00000100
00000010
00000100
00000010
00001000
00000100
00010000
,
00001000
00100000
00010000
00100000
00010000
10000000
01000000
00100000
,
00010000
01000000
00001000
00010000
00000100
00001000
00000001
00001000
,
00000001
00000010
00000100
00000010
00000001
00001000
00000100
00010000
,
00001000
01000000
00010000
00100000
00010000
10000000
01000000
00100000
,
00010000
10000000
00100000
00010000
00001000
00000100
00000001
00000100
,
00000010
00001000
00000100
00000000
00010000
00001000
01000000
00010000
,
00100000
00000000
00000000
00000000
,
00000000
00000000
00000000
00000000
;
#NOTES:
     dance-double:
     :
     Hard:
     13:
     :
00000000
00000000
00000000
00000000
,
00000000
00000000
00000000
00000000
,
00000000
00000000
00000000
00000000
,
00000000
00000000
00000000
00000000
,
00000001
00000100
00001000
00010000
00000000
00001000
00010000
00001000
,
00010000
01000000
10000000
01000000
00000000
00100000
00010000
00100000
,
01000000
10000000
00100000
00010000
00000000
00001000
00010000
00001000
,
00000010
00000001
00000010
00000100
00000000
00001000
00000010
00001000
,
00000001
00000100
00001000
00010000
00000000
00001000
00100000
00010000
,
10000000
01000000
00100000
00010000
00001000
00000100
00000010
00000001
,
00001000
00000000
00000010
00000000
00010000
00001000
00010000
00001000
00010000
00000000
00001000
00000000
01000000
00000000
00010000
00000000
,
10000000
00000000
00100000
00000000
01000000
00010000
01000000
00010000
01000000
00000000
00001000
00000000
00010000
00000000
00000100
00000000
,
00001000
00000000
00000001
00000000
00000010
00000100
00000010
00000100
00000010
00000000
00000001
00000000
00000100
00000000
00001000
00000000
,
00010000
00000000
00001000
00000000
00100000
00010000
00100000
00000000
00001000
00010000
00001000
00000000
00010000
00000000
00000100
00000000
,
00001000
00000000
00000010
00000000
00000100
00000001
00000100
00000001
00000100
00000000
00001000
00000000
00010000
00000000
00100000
00000000
,
10000000
00000000
00010000
00000000
01000000
00100000
01000000
00100000
01000000
00000000
00001000
00000000
00010000
00000000
00010010
00000000
,
00000010
00010010
00010000
00011000
00001000
01000000
00010000
10000000
,
01000000
00000000
00010000
00000000
00001000
00010000
00001000
00000000
00010000
00000100
00010000
00000000
00000010
00000000
00001000
00000000
,
00000001
00000000
00000010
00000100
00001000
00000000
00000100
00000000
00010000
00001000
00010000
00000000
00001000
00000000
00100000
00000000
,
00010000
00000000
10000000
01000000
00100000
00000000
01000000
00000000
00100000
00010000
00100000
00000000
00001000
00000000
00010000
00000100
,
00001000
00000000
00000100
00010000
00001000
00000000
00100000
00001000
00010000
00000000
00001000
01000000
00010000
00000000
10000000
00000000
,
01000000
00000000
00100000
00010000
00100000
00000000
00001000
00000000
00100000
00000000
00010000
00000000
00001000
00000000
00000100
00000000
,
00000010
00000000
00000001
00000000
00000100
00000010
00000100
00000010
00000100
00000000
00000001
00000000
00000010
00000000
00001000
00000000
,
00010000
00000000
00001000
01000000
00010000
00000000
10000000
00000000
10010000
00000000
00000000
00000000
00000000
00000000
20000000
00000000
,
30100000
00020000
00031000
00000020
00001030
00010000
00000100
00000010
,
00000001
00000000
00001000
00000100
00001000
00000000
00000100
00010000
00001000
00010000
00001000
00000000
00010000
00000000
01000000
00100000
,
02000000
00000000
10000000
00000000
13000000
00000000
01000000
00010000
00002000
00000000
00010000
00000000
00013000
00000000
00000000
00000000
,
00001000
00000000
00010000
00001000
00000100
00000000
00000010
00000000
00000100
00000000
00001000
00010000
00100000
00000000
01000000
00000000
,
00010000
00000000
10000000
01000000
00100000
00010000
00100000
00010000
00100000
00000000
00000000
00000000
00001000
00000000
00010000
00000000
,
00000010
00000000
00000100
00000010
00000100
00000000
00000001
00000000
00001001
00000000
00000000
00000000
00001000
00000000
00000001
00000000
,
00000100
00000000
00000010
00001000
00000010
00010000
00001000
00000000
01000000
00010000
01000000
00010000
10000000
00000000
00100000
00000000
,
10000000
00000000
01000000
00010000
00001000
00000000
00010000
00000000
00001000
00000000
00010000
01000000
10000000
00000000
00010000
00000000
,
01000000
00000000
00001000
00010000
00000100
00000000
00001000
00000100
00000001
00000000
00000000
00000200
00000000
00000000
00000310
00000000
,
00000001
00000000
00000100
00001000
00010000
00000000
00000000
00000000
00000200
00000000
00000000
00010300
00001000
00000000
01000000
00000000
,
00010000
00000000
10000000
00100000
10000000
00100000
00010000
00000000
00001000
00000100
00001000
00000100
00000001
00000100
00000001
00000100
,
00000010
00000000
00001000
00000001
00000100
00000001
00000100
00000010
00010000
00000010
00010000
00000000
00001000
00100000
00001000
00000000
,
00100000
00000000
01000000
00100000
01000000
10000000
01000000
00100000
00001000
00100000
00001000
00000000
00010000
00000100
00010000
00000000
,
00000100
00000000
00000010
00000100
00000010
00000001
00000010
00000100
00010000
00000100
00010000
00000000
00001000
01000000
00001000
00000000
,
01000000
00000000
00100000
10000000
00010000
10000000
01000000
00010000
00001000
00010000
00001000
00000000
00010010
00000000
00001010
00000000
,
00001000
00000010
00000001
00000000
00000010
00000000
00001000
00000100
00000010
00000100
00001000
00000000
00000001
00000010
00000001
00000000
,
00001000
00000000
00000001
00000100
00001000
00010000
00001000
00010000
00100000
10000000
00100000
00000000
01000000
00010000
01000000
00000000
,
00001000
00000000
00010000
00001000
00010000
00001000
00000100
00000010
00000100
00001000
00010000
00000000
00001000
00000100
00000001
00000000
,
00001000
00000000
00000010
00010000
00001000
00100000
00010000
10000000
01000000
00000000
10000000
00100000
00010000
00001000
00000100
00000001
,
00000100
00000000
00000000
00000000
,
00000000
00000000
00000000
00000000
;
