
//----- song ID: nise -----//
#TITLE:Niji no Sekai;
#ARTIST:SOUND HOLIC feat. taru;
#BANNER:Niji no Sekai.png;
#BACKGROUND:Niji no Sekai-bg.png;
#CDTITLE:./CDTitles/DDR WORLD.png;
#MUSIC:Niji no Sekai.ogg;
#SAMPLESTART:43.303;
#SAMPLELENGTH:15;
#BPMS:0=151;
#BGSTAGE:16;
#NOTES:
     dance-single:
     :
     Beginner:
     3:
     :
0000
0000
0000
0000
,
0000
0000
0000
0000
,
0000
0000
0000
0000
,
0000
0000
0000
0000
,
0000
0000
0000
0000
,
0000
0000
0000
0000
,
1000
0000
0001
0000
,
1000
0000
0000
0000
,
0010
0000
0100
0000
,
0010
0000
0000
0000
,
1000
0000
0001
0000
,
1000
0000
0000
0000
,
0001
0000
0100
0000
,
0001
0000
0000
0000
,
0100
0000
0010
0000
,
0100
0000
0000
0000
,
0010
0000
1000
0000
,
0001
0000
0000
0000
,
1001
0000
0000
0000
,
0100
0000
0000
0000
,
0110
0000
0000
0000
,
0002
0000
0000
0000
0000
0003
0000
0000
,
1000
0000
0100
0000
,
1000
0000
0100
0000
,
0010
0000
0001
0000
,
0010
0000
0001
0000
,
1000
0000
0000
0000
,
0000
0000
0000
0000
,
0001
0000
0001
0000
,
0100
0000
0100
0000
,
0010
0000
0100
0000
,
0010
0000
0100
0000
,
0001
0000
1000
0000
,
0001
0000
1000
0000
,
0100
0000
0000
0000
,
0010
0000
0000
0000
,
0001
0000
1000
0000
,
0010
0000
0100
0000
,
0001
0000
1000
0000
,
0001
0000
0010
0000
,
0100
0000
0010
0000
,
0100
0000
1000
0000
,
0001
0000
0000
0000
,
0000
0000
0000
0000
,
1000
0000
0000
0000
,
0010
0000
0010
0000
,
0100
0000
0000
0000
,
0110
0000
0000
0000
,
0001
0000
0100
0000
,
0001
0000
1000
0000
,
0010
0000
0100
0000
,
0010
0000
0000
0000
,
1000
0000
1000
0000
,
0010
0000
0010
0000
,
0100
0000
0010
0000
,
0100
0000
0010
0000
,
1000
0000
0001
0000
,
1000
0000
0001
0000
,
0010
0000
0000
0000
,
0100
0000
0000
0000
,
1000
0000
0001
0000
,
0100
0000
0010
0000
,
1000
0000
0001
0000
,
1000
0000
0100
0000
,
0010
0000
0100
0000
,
0010
0000
0001
0000
,
1000
0000
0000
0000
,
0000
0000
0000
0000
,
0001
0000
0100
0000
,
0001
0000
0100
0000
,
0010
0000
1000
0000
,
0001
0000
1000
0000
,
0100
0000
0010
0000
,
0100
0000
0010
0000
,
0001
0000
1000
0000
,
0001
0000
0000
0000
,
0000
0000
0000
0000
;
#NOTES:
     dance-single:
     :
     Easy:
     6:
     :
0000
0000
0000
0000
,
0000
0000
0000
0000
,
0000
0000
0000
0000
,
0000
0000
0000
0000
,
0000
0000
0000
0000
,
0000
0000
0000
0000
,
0001
0100
0001
1000
,
0100
1000
0001
1000
,
0010
0100
0010
0100
,
1001
0000
0000
0000
,
1000
0010
1000
0000
,
0001
0100
0000
0100
,
0010
1000
0010
0000
,
1000
0001
0000
0010
,
0001
0100
0001
0000
,
1000
0100
0000
0100
,
1000
0010
0100
0001
,
1000
0001
0000
0010
,
0000
0110
0000
0000
0110
0000
0000
0000
,
1000
0010
0000
0100
,
0000
0110
0000
0000
0110
0000
0000
2000
,
0000
0000
0000
3002
0000
0000
0003
0000
,
0100
0001
0100
0010
,
1000
0001
0010
0001
,
1000
1000
1010
1010
,
0001
0001
0011
0011
,
1000
0001
0000
1001
,
0000
0220
0000
0330
,
0001
0100
0001
0100
,
0010
1000
0010
1000
,
0001
0001
1000
1000
,
0100
0010
0001
1000
,
0001
0010
0001
0010
,
0100
1000
0001
0010
,
0100
0000
0010
0000
0100
0000
0000
0110
,
0000
0000
0000
1001
0000
0000
0000
0000
,
1000
0100
1000
0001
,
0100
0010
0100
0001
,
1000
0100
0010
0001
,
1000
0001
1000
0010
,
0100
0100
0101
1001
,
1000
0100
0010
0001
,
1000
0000
0001
0000
,
0000
0000
0000
0000
,
1001
0000
0000
0110
0000
0000
1001
0000
,
0001
0100
0010
0100
,
0110
0000
0000
1001
0000
0000
0110
0000
,
0001
1000
0001
0000
,
1000
1000
0100
1000
,
0001
0100
0002
0000
,
1003
0100
0010
0001
,
0000
0000
0000
0000
,
1000
0010
1000
0010
,
0100
0001
0100
0001
,
1000
1000
0001
0001
,
0100
0010
1000
0001
,
1000
0100
1000
0100
,
0010
0001
1000
0010
,
0100
0000
0010
0000
0100
0000
0000
0110
,
0000
0000
0000
1001
0000
0000
0000
0000
,
0001
0010
0001
1000
,
0010
0100
0010
1000
,
0001
0010
0100
1000
,
0001
1000
0001
0100
,
0010
0010
1010
1001
,
0001
0010
0100
1000
,
0001
0000
1000
0000
,
0000
0000
0000
0000
,
0010
0100
0010
1000
,
0001
0010
0100
1000
,
0001
0010
0001
1000
,
0010
0100
0001
1000
,
0100
0010
0100
1000
,
0001
1000
0010
0100
,
0001
1000
0010
0100
,
0000
0001
0000
0000
1000
0000
0010
0000
,
0000
0000
0000
0000
;
#NOTES:
     dance-single:
     :
     Medium:
     11:
     :
0000
0000
0000
0000
,
0000
0000
0000
0000
,
0000
0000
0000
0000
,
0000
0000
0000
0000
,
0000
0000
0000
0000
,
0000
0000
0000
0000
,
1000
0100
1000
0000
0010
0100
0000
0100
,
0001
0100
0001
0000
0010
0100
0010
0000
,
0100
1000
0100
1000
0001
0010
0001
0010
,
0000
0001
0010
0100
1000
0001
1000
0000
,
0010
0000
0100
0010
0100
0010
0000
0000
,
1000
0001
1000
0100
0000
0010
0100
0000
,
1000
0000
0001
1000
0010
0100
0000
0000
,
0010
1000
0010
1000
0000
0001
0010
0000
,
0100
0000
0010
0100
0010
0100
0000
0000
,
1000
0010
0100
0001
0000
1000
0001
0000
,
1000
0000
0100
0000
0010
0100
0010
0000
,
0001
0100
0001
0100
0000
0010
1000
0010
,
0000
1000
0100
0000
0001
0100
0000
1000
,
0010
1000
0010
0100
0000
0001
0010
0001
,
0000
1000
0010
0000
0001
0010
0000
2000
,
0000
3000
0001
0200
0000
0310
0100
0000
,
0001
1000
0100
0000
0010
0100
0010
0000
,
0001
1000
0010
0000
0100
0000
0110
0000
,
0010
0100
0010
0000
1000
0001
1000
0000
,
1100
0000
0011
0000
0010
0001
0010
0001
,
1000
1000
0000
0010
0000
0100
0100
0000
,
0000
2002
0000
3003
,
1000
0100
0001
0000
0001
0100
1000
0000
,
0001
0010
1000
0010
0001
0000
1000
0000
,
0010
0100
0010
0000
0100
0010
0100
0000
,
0001
0010
0001
0000
1000
0100
1000
0000
,
0001
0101
0110
1010
,
1100
0000
0101
0000
1001
0000
1000
0100
,
0001
0000
0100
0000
1000
0001
0000
0100
,
0000
0010
0100
0010
0000
1001
0000
0000
,
1000
0010
1000
0000
0001
0100
0001
0000
,
1000
0100
0010
0100
1000
0000
0001
0000
,
0100
0010
0100
0000
0010
1000
0010
0000
,
1000
0001
0010
0100
1000
0000
0001
0000
,
1010
0110
0101
1001
,
1100
0000
0101
0000
0110
0000
1000
0001
,
0100
0000
0001
0000
0010
0000
0100
0010
,
0000
0000
0000
0000
,
1001
0000
0001
0100
0000
0100
0001
0100
,
0010
1000
0001
1000
0000
1000
0100
0000
,
1000
0100
0010
0001
0000
0001
1000
0010
,
0200
0000
0000
0302
0000
0000
2003
0000
0000
0000
3001
0000
1000
0000
0000
0000
,
0001
0010
0100
0000
0010
0001
1000
0000
,
0010
0100
0010
0100
0002
0000
2003
0000
,
3001
0000
0010
0000
0100
0010
0100
0010
,
0000
0000
0000
0000
,
0001
0100
1000
0000
1000
0100
0001
0000
,
1000
0010
0001
0010
1000
0000
0001
0000
,
0010
0100
0010
0000
0100
0010
0100
0000
,
1000
0010
1000
0000
0001
0100
0001
0000
,
1000
1100
0110
0011
,
0101
0000
1100
0000
1001
0000
0001
0100
,
1000
0000
0100
0000
0001
1000
0000
0100
,
0000
0010
0100
0010
0000
1001
0000
0000
,
0001
0010
0001
0000
1000
0100
1000
0000
,
0001
0100
0010
0100
0001
0000
1000
0000
,
0100
0010
0100
0000
0010
0001
0010
0000
,
0001
1000
0010
0100
0001
0000
1000
0000
,
0011
0110
1100
1001
,
0101
0000
1100
0000
0110
0000
0001
1000
,
0100
0000
1000
0000
0010
0100
0010
0100
,
0000
0000
0000
0000
,
0001
0010
0001
0000
0100
0010
0000
0010
,
1000
0010
0100
0000
0001
0000
1001
0000
,
1000
0100
1000
0000
0001
0010
0000
0010
,
0100
0000
1000
0000
0010
0100
0010
0100
,
0001
1000
0001
0000
0010
0100
0000
0100
,
1000
0001
0100
0000
0010
0000
1000
0000
,
0001
0010
0001
0010
0100
1000
0100
1000
,
0000
0001
0100
0001
1000
0001
0100
0010
,
0000
0000
0000
0000
;
#NOTES:
     dance-single:
     :
     Hard:
     14:
     :
0000
0000
0000
0000
,
0000
0000
0000
0000
,
0000
0000
0000
0000
,
0000
0000
0000
0000
,
0000
0000
0000
0000
,
0000
0000
0000
0000
,
0000
0001
0010
1000
0010
0001
0000
1000
,
0100
0010
0100
1000
0000
0001
0100
0010
,
0000
0000
1000
0000
0001
0000
0010
0000
0100
0000
0010
0100
0010
0100
0010
0000
,
0000
0001
1000
0100
0010
0001
1000
0010
,
0100
0000
0000
0010
0100
0000
0001
0000
1000
0000
0100
0000
0000
0000
1000
0000
,
0100
0000
0010
0100
0010
0000
0100
0000
0000
0000
1000
0000
0001
0000
0000
0000
,
0100
0000
0000
0010
1000
0000
0001
0000
1000
0000
0100
0000
0000
0000
0010
0000
,
0001
0000
1000
0010
0100
0000
0010
0000
0000
1000
0100
0000
1000
0000
0001
0010
,
0100
0000
0000
0010
0001
0000
1000
0000
0010
0000
0100
0000
0000
0000
0001
0000
,
1000
0000
0100
0010
0100
0000
1000
0000
0000
0000
0001
0000
0100
0000
0010
0000
,
1000
0001
1000
0010
0001
0010
0100
0001
,
1000
0000
0001
0000
0011
0000
0110
0000
0000
0000
1000
0010
1000
0000
0001
0000
,
0010
0000
0100
0000
0110
0000
0000
0000
1000
0001
1000
0000
0000
0000
0001
0000
,
0010
0100
1000
0001
0000
1000
0010
0001
,
0000
0000
0010
0000
0110
0000
0000
0000
1000
0001
1000
0000
0010
0000
0200
0000
,
0000
0000
0310
0000
1000
0000
0200
0000
0000
0000
1300
0000
0001
0100
0001
0100
,
0001
0000
0010
0100
0010
0000
0001
0000
0100
0010
0100
0000
0001
0000
1000
0000
,
0100
1000
0001
0010
0100
1000
0010
0100
,
0001
0000
1000
0010
1000
0000
0001
0000
0010
0000
0100
1000
0100
0000
0010
0000
,
0001
0000
1000
0000
0001
0000
0100
0000
0010
0100
0010
0100
0010
0100
0010
0100
,
0001
0001
0000
1000
0000
1001
1001
0000
,
0000
0220
0000
0330
,
0001
0000
0100
0000
1000
0000
0100
0010
0100
0000
0001
0000
0010
0000
0100
0000
,
1000
0000
0010
0000
0001
0000
0010
0100
0010
0000
1000
0000
0001
0000
0010
0100
,
1000
0000
0001
0000
1000
0000
0001
0010
0100
0000
1000
0000
0001
0000
1000
0100
,
0010
0000
0100
1000
0001
0000
0100
0010
1000
0000
0010
0100
0010
0100
0010
0000
,
1000
0000
0001
0001
0010
0010
0100
0100
,
1000
0000
1000
0000
0010
0000
0010
0000
0001
0000
0001
0000
0010
0000
1000
0001
,
1000
0000
0000
0000
0001
0000
0100
0000
0010
0000
1000
0100
1000
0100
1000
0000
,
0000
0001
0001
0101
0000
1010
0000
1001
,
0000
1000
0100
1000
0001
0010
0100
1000
,
0010
0001
0010
0100
0001
0010
1000
0010
,
0100
0000
1000
0010
1000
0000
0001
0000
0010
0100
0010
0000
0001
0000
0100
0000
,
0010
0000
1000
0000
0100
0000
0010
0000
0001
0000
1000
0000
0010
0000
0100
0010
,
0100
0000
0001
0001
0100
0100
0010
0010
,
1000
0000
0100
0000
0001
0000
0100
0000
1000
0000
0000
0000
0010
0000
0100
0001
,
0100
0000
0000
0000
0001
0000
0010
0000
0100
0000
0010
0100
0010
0100
0010
0000
,
0000
0000
0000
0000
,
0011
0000
0000
0000
1000
0000
0001
0100
0000
0100
0001
0000
0010
0000
0100
0010
,
0100
0000
1000
0100
1000
0000
0001
0010
0000
0010
0100
0000
1000
0010
0000
0010
,
1000
0000
1000
0000
0001
0100
0001
0100
0000
0100
0010
0000
1000
0000
0001
0100
,
0002
0000
0000
0023
0000
0000
0230
0000
0000
0000
1300
0001
0100
0000
0001
0010
,
0100
0000
0010
0000
0100
0000
1000
0001
0100
0000
0010
0100
0001
0000
0010
0000
,
0001
0000
0000
0000
0000
0000
1000
0000
0000
0010
0000
0000
0100
0000
0000
0000
0000
0000
0001
0000
0000
1000
0000
0000
0100
0000
0000
0000
0100
0000
0000
0000
0100
0000
0000
0000
0010
0000
0000
0000
0010
0000
0000
0000
0010
0000
0000
0000
,
0001
0000
1000
0000
0010
0100
0010
0000
1000
0000
0001
0100
0001
0100
0010
0000
,
0000
0000
0000
0000
,
1000
0000
0010
0000
0001
0000
0010
0100
0010
0000
1000
0000
0100
0000
0010
0000
,
0001
0000
0100
0000
1000
0000
0100
0010
0100
0000
0001
0000
1000
0000
0100
0010
,
0001
0000
1000
0000
0001
0000
1000
0100
0010
0000
0001
0000
1000
0000
0001
0010
,
0100
0000
0010
0001
1000
0000
0010
0100
0001
0000
0100
0010
0100
0010
0100
0000
,
0001
0000
1000
1000
0100
0100
0010
0010
,
0001
0000
0001
0000
0100
0000
0100
0000
1000
0000
1000
0000
0100
0000
0001
1000
,
0001
0000
0000
0000
1000
0000
0010
0000
0100
0000
0001
0010
0001
0010
0001
0000
,
0000
1000
1000
1010
0000
0101
0000
1001
,
0000
0001
0010
0001
1000
0100
0010
0001
,
0100
1000
0100
0010
1000
0100
0001
0100
,
0010
0000
0001
0100
0001
0000
1000
0000
0100
0010
0100
0000
1000
0000
0010
0000
,
0100
0000
0001
0000
0010
0000
0100
0000
1000
0000
0001
0000
0100
0000
0010
0100
,
0010
0000
1000
1000
0010
0010
0100
0100
,
0001
0000
0010
0000
1000
0000
0010
0000
0001
0000
0000
0000
0100
0000
0010
1000
,
0010
0000
0000
0000
1000
0000
0100
0000
0010
0000
0100
0010
0100
0010
0100
0000
,
0000
0000
0000
0000
,
1000
0000
0001
0100
0010
0000
0100
0000
0001
1000
0100
0000
1000
0000
0010
0000
,
0100
0000
0001
0000
0010
0100
1000
0000
0100
0000
0010
0000
0001
0000
1000
0000
,
0001
0000
1000
0010
0100
0000
0010
0000
1000
0001
0010
0000
0001
0000
0100
0000
,
0010
0000
1000
0001
0010
0000
0001
0000
0100
0000
0010
1000
0010
1000
0010
0000
,
0100
0000
0001
1000
0100
0000
1000
0000
0001
0010
0100
0000
0010
0000
0001
0000
,
1000
0000
0001
0100
0010
0000
0100
0000
0001
0000
1000
0100
0010
0000
0100
1000
,
0001
0000
0100
0000
0001
0000
0100
0000
0010
0100
0010
0100
0010
0100
0010
0000
,
0000
1000
0100
0010
0001
0100
1000
0100
,
0000
0000
0000
0000
;
#NOTES:
     dance-double:
     :
     Easy:
     6:
     :
00000000
00000000
00000000
00000000
,
00000000
00000000
00000000
00000000
,
00000000
00000000
00000000
00000000
,
00000000
00000000
00000000
00000000
,
00000000
00000000
00000000
00000000
,
00000000
00000000
00000000
00000000
,
10000000
00010000
01000000
00000000
,
00001000
00010000
00001000
00010000
,
00000010
00001000
00000001
00001000
,
00001001
00000000
00000000
00000000
,
00000001
00000100
00001000
00000000
,
00010000
00100000
00000000
00100000
,
10000000
00010000
10000000
00000000
,
00010000
01000000
00000000
01000000
,
00001000
00010000
00001000
00000000
,
00000010
00000001
00000000
00000001
,
00000100
00000010
00001000
00000010
,
00010000
00001000
00000000
01000000
,
00000000
01100000
00000000
00000000
10010000
00000000
00000000
00000000
,
10000000
01000000
00000000
00010000
,
00000000
00011000
00000000
00000000
00000110
00000000
00000000
00000002
,
00000000
00000000
00000000
00002003
00000000
00000000
00003000
00000000
,
00000001
00000010
00000001
00001000
,
00000001
00000010
00001000
00010000
,
00001000
00001000
00101000
00101000
,
00100000
00100000
01100000
01100000
,
10000000
00010000
00000000
10010000
,
00000000
02200000
00000000
03300000
,
10000000
01000000
00010000
00001000
,
00010000
00001000
00000010
00000001
,
00001000
00001000
00000010
00000010
,
00010000
00001000
00010000
00000000
,
00001000
01000000
00010000
01000000
,
00100000
10000000
00010000
01000000
,
00001000
00000000
00000000
00000000
00010000
00000000
00000000
00001100
,
00000000
00000000
00000000
00000101
00000000
00000000
00000000
00000000
,
00000001
00001000
00000001
00000100
,
00001000
00010000
00100000
10000000
,
00010000
10000000
01000000
00100000
,
00010000
00100000
00001000
00010000
,
00000010
00000010
00001010
00001010
,
00001000
00000100
00000010
00000001
,
00001000
00000000
00000100
00000000
,
00000000
00000000
00000000
00000000
,
00011000
00000000
00000000
01001000
00000000
00000000
01010000
00000000
,
00010000
10000000
01000000
00100000
,
01100000
00000000
00000000
00101000
00000000
00000000
00011000
00000000
,
00010000
00000100
00001000
00000000
,
00000001
00000001
00000010
00001000
,
00010000
00001000
00200000
00000000
,
00310000
10000000
00010000
10000000
,
00000000
00000000
00000000
00000000
,
10000000
01000000
10000000
01000000
,
00010000
00001000
00010000
00000100
,
00001000
00001000
00000001
00000001
,
00000010
00000100
00001000
00000001
,
00000100
00000010
00000100
00000010
,
00010000
00001000
01000000
00100000
,
01000000
00000000
00000000
00000000
00100000
00000000
00000000
01100000
,
00000000
00000000
00000000
10010000
00000000
00000000
00000000
00000000
,
10000000
00010000
10000000
00100000
,
00010000
00001000
00000100
00000001
,
00001000
00000010
00000100
00000001
,
00001000
00000010
00010000
00001000
,
01000000
01000000
01010000
10010000
,
10000000
00100000
00010000
00001000
,
00010000
00000000
00000100
00000000
,
00000000
00000000
00000000
00000000
,
00001000
00000001
00001000
00000000
,
00000001
00000010
00001000
00010000
,
01000000
00100000
01000000
00000000
,
10000000
01000000
00010000
00001000
,
00010000
00001000
00010000
00000000
,
00000010
00001000
00000001
00000100
,
00000001
00000100
00001000
00010000
,
00000000
00100000
00000000
00000000
01000000
00000000
00100000
00000000
,
00000000
00000000
00000000
00000000
;
#NOTES:
     dance-double:
     :
     Medium:
     11:
     :
00000000
00000000
00000000
00000000
,
00000000
00000000
00000000
00000000
,
00000000
00000000
00000000
00000000
,
00000000
00000000
00000000
00000000
,
00000000
00000000
00000000
00000000
,
00000000
00000000
00000000
00000000
,
00001000
00010000
00001000
00000000
00100000
00000000
00010000
00000000
,
10000000
00100000
10000000
00000000
00010000
01000000
00010000
00000000
,
10000000
01000000
10000000
01000000
00100000
00010000
00100000
00001000
,
00000000
00010000
00001000
00000000
00000100
00000000
00000001
00000000
,
00001000
00000000
00000100
00000010
00000100
00000010
00000000
00000000
,
00000001
00000100
00000010
00001000
00000000
00000010
00010000
00000000
,
00001000
00000000
01000000
00010000
01000000
00010000
00000000
00000000
,
10000000
01000000
00100000
00010000
00000000
01000000
00001000
00000000
,
00010000
00000000
00000100
00001000
00000100
00001000
00000000
00000000
,
00000001
00000010
00000100
00001000
00000000
00000010
00010000
00000000
,
00001000
00000000
00100000
00000000
00010000
10000000
00010000
00000000
,
10000000
00100000
01000000
00010000
00000000
00100000
00001000
00010000
,
00000000
00001000
00000100
00000000
00000001
00000100
00000000
00001000
,
00010000
00001000
00100000
00010000
00000000
10000000
00100000
10000000
,
00000000
01000000
00010000
00000000
01000000
10000000
00000000
00200000
,
00000000
00300000
00010000
00002000
00000000
00013000
00001000
00000000
,
00010000
00000000
00000100
00000000
00001000
00000100
00001000
00000000
,
00000001
00000010
00000100
00000110
,
00001000
00000010
00001000
00000000
00000010
00010000
00000010
00000000
,
00011000
00000000
00101000
00000000
00100000
00010000
00100000
00010000
,
10000000
10000000
00000000
00100000
00000000
01000000
01000000
00000000
,
00000000
20020000
00000000
30030000
,
10000000
01000000
00010000
00000000
00001000
00000010
00000001
00000000
,
00001000
00000010
00000001
00000010
00001000
00000000
00000001
00000000
,
00001000
00000100
00001000
00000000
00000100
00010000
00000100
00000000
,
00010000
00001000
00010000
00000000
00001000
00100000
00001000
00000000
,
00100000
00110000
10100000
11000000
,
01100000
00000000
01010000
00000000
01100000
00000000
10000000
01000000
,
10000000
00000000
01000000
00000000
00010000
00001000
00000000
00010000
,
00000000
00000010
00001000
00000010
00000000
00000110
00000000
00000000
,
00000001
00000010
00000001
00000000
00001000
00000100
00001000
00000000
,
00000001
00000010
00001000
00010000
01000000
00000000
10000000
00000000
,
00010000
00100000
00010000
00000000
10000000
01000000
10000000
00000000
,
00100000
00010000
00001000
00000100
00000001
00000000
00001000
00000000
,
00001010
00010010
00011000
00101000
,
00110000
00000000
01100000
00000000
11000000
00000000
10000000
00010000
,
01000000
00000000
00001000
00000000
00010000
00000000
00001000
00010000
,
00000000
00000000
00000000
00000000
,
00011000
00000000
00010000
00000100
00000000
00000100
00001000
00000000
,
00000001
00000010
00000001
00000000
00000010
00000001
00001000
00000000
,
00000010
00010000
00001000
00010000
00000000
00010000
00001000
00000000
,
00020000
00000000
00000000
02030000
00000000
00000000
23000000
00000000
00000000
00000000
30010000
00000000
10000000
00000000
00000000
00000000
,
01000000
00010000
00001000
00000000
00010000
00001000
00010000
00000000
,
00000010
00001000
00000010
00000100
00000002
00000000
00002003
00000000
,
00003001
00000010
00000100
00000000
00001000
00000001
00001000
00000001
,
00000000
00000000
00000000
00000000
,
00000001
00000010
00001000
00000000
00010000
01000000
10000000
00000000
,
00010000
01000000
10000000
01000000
00010000
00000000
10000000
00000000
,
00010000
00100000
00010000
00000000
00100000
00001000
00100000
00000000
,
00001000
00010000
00001000
00000000
00010000
00000100
00010000
00000000
,
00000100
00001100
00000101
00000011
,
00000110
00000000
00001010
00000000
00000110
00000000
00000001
00000010
,
00000001
00000000
00000010
00000000
00001000
00010000
00000000
00001000
,
00000000
01000000
00010000
01000000
00000000
01100000
00000000
00000000
,
10000000
01000000
10000000
00000000
00010000
00100000
00010000
00000000
,
10000000
01000000
00010000
00001000
00000010
00000000
00000001
00000000
,
00001000
00000100
00001000
00000000
00000001
00000010
00000001
00000000
,
00000100
00001000
00010000
00100000
10000000
00000000
00010000
00000000
,
01010000
01001000
00011000
00010100
,
00001100
00000000
00000110
00000000
00000011
00000000
00000001
00001000
,
00000010
00000000
00010000
00000000
00001000
00000000
00010000
00001000
,
00000000
00000000
00000000
00000000
,
00100000
00000000
00010000
00000000
10000000
00010000
00000000
00010000
,
01000000
00001000
00010000
00000000
00000100
00000000
00001100
00000000
,
00001000
00000000
00000001
00000000
00000100
00000001
00000000
00000001
,
00000010
00000000
00001000
00000000
00010000
00001000
00010000
00001000
,
01000000
00000000
00010000
00000000
10000000
00010000
00000000
00010000
,
00100000
00001000
00010000
00000000
00000100
00000000
00001000
00000000
,
00000001
00000010
00000001
00000010
00000100
00001000
00000100
00001000
,
00000000
00000010
00010000
00001000
01000000
00010000
10000000
00010000
,
00000000
00000000
00000000
00000000
;
#NOTES:
     dance-double:
     :
     Hard:
     14:
     :
00000000
00000000
00000000
00000000
,
00000000
00000000
00000000
00000000
,
00000000
00000000
00000000
00000000
,
00000000
00000000
00000000
00000000
,
00000000
00000000
00000000
00000000
,
00000000
00000000
00000000
00000000
,
00000000
00000001
00000100
00001000
00000100
00000001
00000000
00000100
,
00001000
00010000
00100000
10000000
00000000
00010000
01000000
00010000
,
00000000
00000000
10000000
00000000
00010000
00000000
00100000
00000000
00001000
00000000
00010000
00001000
00010000
00001000
00010000
00000000
,
00000000
00000100
00001000
00000001
00000010
00000100
00001000
00000001
,
00000100
00000000
00000000
00000010
00001000
00000000
00000010
00000000
00010000
00000000
00001000
00000000
00000000
00000000
00100000
00000000
,
00010000
10000000
00010000
01000000
00000000
00001000
00010000
00000000
,
00000100
00000000
00000000
00001000
00000100
00000000
00000010
00000000
00000001
00000000
00001000
00000000
00000000
00000000
00000010
00000000
,
00010000
00000000
00001000
00000000
01000000
00000000
00010000
00000000
00000000
10000000
00100000
00000000
01000000
00000000
00010000
00000000
,
10000000
00000000
00000000
01000000
00100000
00000000
01000000
00000000
00010000
00000000
00001000
00000000
00000000
00000000
00010000
00000000
,
00001000
00000100
00000001
00000100
00000000
00000010
00001000
00000100
,
00010000
00001000
00010000
01000000
10000000
01000000
00000000
10000000
,
00100000
00000000
01000000
00000000
00010000
00000000
01010000
00000000
00000000
00000000
01000000
00001000
00010000
00000000
00001000
00000000
,
00010000
00000000
00000010
00000000
00001010
00000000
00000000
00000000
00001000
00000001
00001000
00000000
00000000
00000000
00000001
00000000
,
00000010
00000100
00001000
00010000
00000000
00100000
01000000
00100000
,
00000000
00000000
00010000
00000000
00110000
00000000
00000000
00000000
00100000
00001000
00010000
00000000
00001000
00000000
00000200
00000000
,
00000000
00000000
00000301
00000000
00001000
00000000
00000200
00000000
00000000
00000000
00010300
00000000
00001000
00010000
00001000
00010000
,
00001000
00000000
01000000
00010000
01000000
00000000
00100000
00000000
10000000
00100000
10000000
00000000
00010000
00000000
01000000
00000000
,
00100000
10000000
01000000
00010000
00001000
00000010
00000001
00000010
,
00000100
00000000
00001000
00000100
00001000
00000000
00000100
00000000
00010000
00000000
00001000
00100000
00001000
00000000
00100000
00000000
,
00010000
00000000
01000000
00000000
00100000
00000000
10000000
00000000
00010000
10000000
00010000
10000000
00010000
10000000
00010000
10000000
,
00010000
00010000
00000000
00100000
00000000
00001000
00001000
00000000
,
00000000
00022000
00000000
00033000
,
00010000
00000000
00000100
00000000
00001000
00000000
00000001
00000010
00000001
00000000
00000010
00000000
00000100
00000000
00001000
00000000
,
00000100
00000000
00010000
00000000
00001000
00000000
01000000
00010000
01000000
00000000
00010000
00000000
10000000
00000000
01000000
00000000
,
00010000
00000000
00001000
00000000
00010000
00000000
00001000
00000000
00000010
00000000
00001000
00000000
00010000
00000000
00000010
00001000
,
00000010
00000000
00001000
00000100
00001000
00000000
00000100
00000000
00000010
00000000
00000001
00001000
00000001
00001000
00000001
00000000
,
00001000
00000000
00000001
00000001
00000100
00000100
00001000
00001000
,
00010000
00000000
00010000
00000000
00100000
00000000
00100000
00000000
10000000
00000000
10000000
00000000
00010000
00000000
00100000
00001000
,
00100000
00000000
00000000
00000000
00001000
00000000
00010000
00000000
00000010
00000000
00001000
00000001
00001000
00000000
00000001
00000000
,
00000000
00000100
00000100
00000110
00000000
00001010
00000000
00000101
,
00000000
00000001
00000100
00001000
00010000
00100000
10000000
01000000
,
00100000
00010000
00001000
00000100
00000010
00000001
00000100
00000010
,
00001000
00000000
00000001
00000100
00000001
00000000
00001000
00000000
00000100
00010000
00000100
00000000
00010000
00000000
00001000
00000000
,
01000000
00000000
00010000
00000000
00100000
00000000
01000000
00000000
10000000
00000000
00010000
00000000
00100000
00000000
00001000
00010000
,
00001000
00000000
00010000
00010000
00000100
00000100
00001000
00001000
,
00000001
00000010
00001000
00010000
01000000
00000000
10000000
00010000
,
10000000
00000000
00000000
00000000
00010000
00000000
00100000
00000000
00001000
00000000
00010000
00001000
00010000
00001000
00010000
00000000
,
00000000
00000000
00000000
00000000
,
00010100
00000000
00000000
00000000
00000100
00000000
00001000
00000001
00000000
00000001
00000010
00000000
00000001
00000000
00001000
00000010
,
00001000
00000000
00000010
00000000
00010000
00000000
00001000
00100000
00000000
00100000
01000000
00000000
10000000
00100000
00000000
00100000
,
10000000
00000000
10000000
00000000
01000000
00000000
00010000
00001000
00000000
00001000
00010000
00000000
00001000
00000000
00000010
00000001
,
00000020
00000000
00000000
00000230
00000000
00000000
00002300
00000000
00000000
00000000
00003001
00000100
00000001
00000000
00001000
00000000
,
00000100
00010000
00001000
01000000
00100000
00010000
00001000
00010000
,
00000010
00000000
00000000
00000100
00000000
00000000
00001000
00000000
00000000
00010000
00000000
00000000
00000100
00000000
00001000
00000000
00000100
00000000
00000010
00000000
00000001
00000000
00000010
00000000
,
00000001
00000000
00000100
00000000
00000010
00000000
00001000
00000000
00000100
00000000
00010000
00001000
00010000
00001000
00010000
00000000
,
00000000
00000000
00000000
00000000
,
00001000
00000000
00100000
00000000
00010000
00000000
10000000
01000000
10000000
00000000
01000000
00000000
00100000
00000000
00010000
00000000
,
00100000
00000000
00001000
00000000
00010000
00000000
00000010
00001000
00000010
00000000
00001000
00000000
00000001
00000000
00000010
00000000
,
00001000
00000000
00010000
00000000
00001000
00000000
00010000
00000000
01000000
00000000
00010000
00000000
00001000
00000000
01000000
00010000
,
01000000
00000000
00010000
00100000
00010000
00000000
00100000
00000000
01000000
00000000
10000000
00010000
10000000
00010000
10000000
00000000
,
00010000
00000000
10000000
10000000
00100000
00100000
00010000
00010000
,
00001000
00000000
00001000
00000000
00000100
00000000
00000100
00000000
00000001
00000000
00000001
00000000
00001000
00000000
00000100
00010000
,
00000100
00000000
00000000
00000000
00010000
00000000
00001000
00000000
01000000
00000000
00010000
10000000
00010000
00000000
10000000
00000000
,
00000000
00100000
00100000
01100000
00000000
01010000
00000000
10100000
,
00000000
10000000
00100000
00010000
00001000
00000100
00000001
00000010
,
00000100
00001000
00010000
00100000
01000000
10000000
00100000
01000000
,
00010000
00000000
10000000
00100000
10000000
00000000
00010000
00000000
00100000
00001000
00100000
00000000
00001000
00000000
00010000
00000000
,
00000010
00000000
00001000
00000000
00000100
00000000
00000010
00000000
00000001
00000000
00001000
00000000
00000100
00000000
00010000
00001000
,
00010000
00000000
00001000
00001000
00100000
00100000
00010000
00010000
,
10000000
01000000
00010000
00001000
00000010
00000000
00000001
00001000
,
00000001
00000000
00000000
00000000
00001000
00000000
00000100
00000000
00010000
00000000
00001000
00010000
00001000
00010000
00001000
00000000
,
00000000
00000000
00000000
00000000
,
00100000
00000000
00010000
10000000
01000000
00000000
10000000
00000000
00010000
00100000
00001000
00000000
00010000
00000000
00001000
00000000
,
00000100
00000010
00000100
00000001
00000010
00000100
00001000
00000001
,
00001000
00000000
00000100
00010000
00001000
00000000
00010000
00000000
00001000
01000000
00010000
00000000
10000000
00000000
00100000
00000000
,
01000000
00000000
00100000
00000000
01000000
00000000
00001000
00000000
00010000
00000000
00000100
00000000
00001000
00000100
00001000
00000000
,
00000001
00000000
00000010
00000100
00001000
00000000
00000001
00000000
00001000
00000100
00010000
00000000
00001000
00000000
00100000
00000000
,
00001000
00010000
00000100
00010000
00001000
00000100
00000001
00000010
,
00000001
00000000
00000100
00000000
00001000
00000000
00010000
00000000
00100000
00000000
01000000
00100000
01000000
00100000
01000000
00000000
,
00000000
00010000
00100000
00001000
00010000
00000100
00001000
00000001
,
00000000
00000000
00000000
00000000
;
