
//----- song ID: newm2 -----//
#TITLE:New Millennium Pt.2;
#ARTIST:Remixed by Zekk;
#BANNER:New Millennium Pt.2.png;
#BACKGROUND:New Millennium Pt.2-bg.png;
#CDTITLE:./CDTitles/DDR WORLD.png;
#MUSIC:New Millennium Pt.2.ogg;
#SAMPLESTART:74.25;
#SAMPLELENGTH:15;
#BPMS:0=160;
#NOTES:
     dance-single:
     :
     Beginner:
     3:
     :
0000
0000
0000
0000
,
0000
0000
0000
0000
,
0000
0000
0000
0000
,
0000
0000
0000
0000
,
0000
0000
0000
0000
,
0000
0000
0000
0000
,
0001
0000
0001
0000
,
0010
0000
0010
0000
,
0100
0000
0100
0000
,
1000
0000
1000
0000
,
0010
0000
0000
0000
,
0010
0000
0000
0000
,
0100
0000
0000
0000
,
0001
0000
0100
0100
,
0001
0000
0000
0000
,
1000
0000
0000
0000
,
0001
0000
0000
0000
,
0100
0000
0100
0100
,
0001
0000
0000
0000
,
0010
0000
0000
0000
,
0100
0000
0000
0000
,
1000
0000
0010
0000
,
1000
0000
0000
0000
,
0001
0000
0100
0000
,
0001
0000
0000
0000
,
0001
0000
0100
0100
,
0001
0000
0000
0000
,
1000
0000
0001
0000
,
1000
0000
0000
0000
,
0010
0000
0000
0000
,
1001
0000
1000
0000
,
0110
0000
0000
0000
,
0001
0000
0000
0000
,
1000
0000
0000
0000
,
0110
0000
0010
0000
,
1001
0000
0000
0000
,
0001
0000
0000
0000
,
1000
0000
0001
0001
,
0002
0000
0000
0000
,
0003
0000
0000
0000
,
0100
0000
0000
0000
,
0100
0000
0000
0000
,
0100
0000
0000
0000
,
0100
0000
0000
0000
,
0100
0100
0001
0000
,
0100
0100
0001
0000
,
0100
0000
0100
0000
,
0100
0000
0100
0000
,
1001
0000
0000
0000
,
0001
0000
0100
0100
,
0001
0000
0000
0000
,
0001
0000
1000
0000
,
0010
0000
0000
0000
,
0100
0000
0001
0000
,
1000
0000
0000
0000
,
0001
0000
1000
0000
,
0100
0000
0000
0000
,
0110
0000
0000
0000
,
1001
0000
0001
0000
,
0001
0000
0000
0000
,
1000
0000
0010
0000
,
0200
0000
0300
0000
,
0001
0000
1000
0000
,
0010
0000
0000
0000
,
0100
0000
0100
0000
,
0100
0000
0000
0000
,
0001
0000
0010
0000
,
0100
0000
0000
0000
,
1000
0000
0010
0000
,
0100
0000
0000
0000
,
0010
0000
0010
0000
,
0000
0000
2002
3003
,
0000
0000
0000
0000
;
#NOTES:
     dance-single:
     :
     Easy:
     7:
     :
0000
0000
0000
0000
,
0000
0000
0000
0000
,
0000
0000
0000
0000
,
0000
0000
0000
0000
,
0000
0000
0000
0000
,
0000
0000
0000
0000
,
0001
1000
0001
0100
,
0001
1000
0100
1000
,
0001
0010
0001
0100
,
0010
0000
0100
1001
,
0001
0000
0010
0000
,
0100
0000
1000
0000
,
0010
0100
0001
1000
,
0010
0000
0000
0000
0100
0100
0001
0000
,
2002
3003
1000
0100
,
1000
0010
0100
0001
,
0010
0001
1000
0100
,
1000
0000
0010
0000
0100
0100
0001
0000
,
1000
0100
0010
0001
,
0100
0010
1010
0101
,
0001
0010
0001
1000
,
0020
0000
0130
0000
,
0001
0011
0010
0100
,
1000
1010
0010
0100
,
0001
1001
1000
0100
,
0010
0000
0001
0000
0100
0100
0001
0000
,
1000
0100
1000
1010
,
0001
0100
0001
0011
,
1000
1000
0001
0001
,
2002
0000
3003
0000
,
2000
0001
0100
0010
,
3002
0100
0010
1003
,
0000
1001
0000
0000
0001
0000
0100
0000
,
0001
1000
0100
0010
,
0002
1000
0010
0100
,
2003
0010
0100
3001
,
1000
1000
0001
0001
,
0100
0100
0100
0100
,
0020
0000
0000
0000
,
0000
0000
0000
0030
,
1000
0000
1000
0000
,
0010
0000
0010
0000
,
0100
0000
0100
0000
,
0001
0000
0001
0000
,
0100
0100
0001
0000
,
0100
0100
0001
0000
,
0100
0001
0100
0001
,
0100
0000
0000
0100
0000
0000
0000
0000
0100
0000
0000
0100
0000
0000
0000
0000
,
0010
0000
0000
0010
0010
0000
0110
0000
,
0000
0000
0000
0000
0100
0100
0001
0000
,
2002
3003
1000
0001
,
0100
0010
0100
0001
,
1000
0100
0010
0001
,
0100
0000
0010
0000
0010
0010
0010
0000
,
1000
0001
0010
0100
,
1000
0001
0100
0110
,
0010
1000
0001
0010
,
0002
0003
1000
0010
,
0110
1000
0001
0010
,
0001
1000
0010
0100
,
0010
1000
0001
0100
,
0020
0000
0130
0000
,
0101
1010
0001
1000
,
0010
0100
0001
0010
,
0011
0000
0001
0000
,
1100
0000
1000
0000
,
0010
0100
0001
0010
,
0001
1000
0010
0100
,
0001
0010
0100
1000
,
0110
0000
0100
1001
,
0200
0300
0200
0300
,
0010
0010
2002
3003
,
0000
0000
0000
0000
;
#NOTES:
     dance-single:
     :
     Medium:
     10:
     :
0000
0000
0000
0000
,
0000
0000
0000
0000
,
0000
0000
0000
0000
,
0000
0000
0000
0000
,
0000
0000
0000
0000
,
0000
0000
0000
0000
,
0001
1000
0001
0000
0010
0000
0100
0000
,
1000
0100
1000
0000
0010
0000
0100
0000
,
0001
0010
0001
0000
0010
0000
0100
0000
,
1000
0000
0000
0010
0000
0010
0000
0000
0100
0000
0001
0000
1000
0000
0000
0000
,
0002
0000
0023
0000
,
0230
0000
2300
0000
,
3020
0230
0302
0013
,
1001
0000
0000
0000
0100
0100
0001
0000
,
0110
1001
0001
0100
,
0010
0000
1000
0000
0001
0010
0001
0010
,
0100
0000
1000
0000
0001
0000
1000
0010
,
0100
0000
0010
0000
0100
0100
0001
0000
,
1000
0100
0010
0000
0001
0000
1000
0000
,
0001
0000
0000
0100
0000
0000
0001
0100
0001
0100
0000
0000
,
0010
0001
0010
1000
,
0200
0000
0000
0000
0310
0100
1000
0000
,
0010
0000
0110
0000
0100
0001
1000
0000
,
0001
0010
0100
0000
1000
0001
0100
0000
,
0010
1000
0100
0000
0100
1000
0010
0000
,
1000
0000
0010
0000
0100
0100
0001
0000
,
1000
0000
0000
0000
0100
0000
0000
1000
0000
0000
0010
0000
0010
0000
0000
0000
,
1000
0000
0000
0000
0001
0000
0000
0100
0000
0000
0010
0000
0010
0000
0000
0000
,
1000
0001
1000
0001
1000
0100
0010
0001
,
0200
0000
0000
0300
0010
0100
0001
0000
,
1000
0000
0000
0100
0000
0100
0000
0000
1000
0000
0000
0010
0000
0010
0000
0000
,
1000
0000
0000
0001
0000
0001
0000
0000
0100
0000
0000
0000
0110
0000
0000
0000
,
0000
0000
0010
0000
0100
0000
0000
0001
0000
0000
0000
0000
0000
0000
0000
0000
,
1000
0000
0001
0000
0001
0001
0001
0001
,
0100
0000
0000
0010
0000
0010
0000
0000
0100
0000
0000
0001
0000
0001
0000
0000
,
0100
0000
0000
1000
0000
1000
0000
0000
0100
0000
0000
0000
0010
0000
0000
0000
,
1000
0001
1000
0001
1000
0001
1000
0001
,
1000
0000
0000
0000
1000
1000
1000
1000
,
2000
0000
0000
0000
,
0000
0000
0000
3000
,
0001
0000
0100
0000
,
0010
0000
1000
0000
,
0001
0001
1000
1000
,
0100
0010
0001
0000
,
0100
0100
0001
0000
,
0100
0100
0001
0000
,
0100
0001
0100
0001
0100
0001
0100
0001
,
0100
0000
0000
0100
0000
0000
0001
0000
0100
0000
0000
0100
0000
0000
0001
0000
,
1000
0000
0000
0100
1000
0100
0010
0000
,
0001
0000
0000
0000
0100
0100
0001
0000
,
0110
0000
1001
0000
0001
0010
0100
0000
,
1000
0000
0001
0000
1000
0100
0001
0000
,
0100
1000
0010
0100
,
0001
0000
1000
0000
0001
0100
1000
0000
,
0100
0010
1000
0000
0001
0100
0010
0000
,
1000
0000
0000
0000
0001
0000
0000
0000
1000
0001
0000
1000
0001
0000
0000
0000
,
0100
0000
0001
0000
1000
0100
0010
0000
,
0011
0000
0000
0000
0000
0000
0000
0000
0001
1000
0000
0001
1000
0000
0000
0000
,
0010
0101
1000
1100
,
0010
0000
0011
0000
0001
1000
0010
0000
,
0100
0000
0110
0000
0010
0000
0100
0001
,
1000
0000
0000
1000
0000
0000
1000
0000
0020
0000
0000
0000
0030
0000
0000
0000
,
0100
0101
0001
0011
,
1000
0000
1100
0000
0001
0100
0020
0000
,
1030
0000
0001
0000
,
0200
0000
0000
0000
0310
0010
0010
0010
,
1000
0001
0100
0000
0001
1000
0100
0000
,
0010
0001
1000
0010
,
0100
0001
1000
0000
0100
0010
0001
0000
,
0100
0000
0000
0010
0000
0010
0000
0000
1000
0000
0000
0000
0001
0000
0000
0000
,
0200
0300
0200
0300
,
0001
1000
2002
3003
,
0000
0000
0000
0000
;
#NOTES:
     dance-single:
     :
     Hard:
     14:
     :
0000
0000
0000
0000
,
0000
0000
0000
0000
,
0000
0000
0000
0000
,
0000
0000
0000
0000
,
0000
0000
0000
0000
,
0000
0000
0000
0000
,
0001
1000
0010
0100
0001
1000
0100
1000
,
0001
0010
0100
1000
0100
0010
0001
0100
,
0001
1000
0100
1000
0010
0100
0001
0010
,
0001
1000
0000
0100
0000
1000
0010
0000
0100
0000
0001
0000
2002
0000
3003
0000
,
1000
1000
0001
0001
0100
0100
0010
0010
,
1000
1000
0100
0100
0010
0010
0001
0001
,
1000
0100
1000
0000
0001
0100
0001
0000
1000
0010
1000
0000
0001
0010
0001
0000
,
2002
0000
3003
0000
0100
0100
0001
0000
,
0220
0330
1001
0000
0001
0000
0100
0010
,
1000
0000
0000
0000
0001
0000
0010
0000
0100
0000
1000
0100
1000
0000
0010
0000
,
0100
0001
1000
0000
0001
0000
0010
0100
,
1000
0000
0010
0000
0100
0100
1001
0000
,
1000
0010
0100
0001
0010
0001
1000
0010
,
0100
0000
0000
0001
0000
0000
0010
0000
0000
0100
0000
0000
1000
0000
0010
0000
0100
0000
0001
0000
0000
0000
0000
0000
,
1000
0000
0001
0010
0100
1000
0001
0100
,
0010
0000
0000
1000
0000
0000
0001
0000
0100
0000
0001
0010
0100
0000
0000
0000
,
2000
0000
0000
0000
3010
1000
0010
0000
0100
0000
0001
0000
0010
0000
0100
0000
,
1000
0001
0100
0000
0010
0000
0100
0000
0001
0000
1000
0000
0100
0000
0010
0000
,
0001
0010
0001
0000
1000
0000
0010
0000
0100
0000
0001
0000
1000
0000
0100
0000
,
1000
0001
0010
0001
0100
0100
0001
0000
,
1001
0000
1000
0000
0010
0000
0000
0100
0000
0000
0001
0000
0011
0000
0000
0000
,
0001
0010
0100
0000
1000
0000
0000
0001
0000
0000
0100
0000
0110
0000
0000
0000
,
0100
0010
0100
0000
0100
0000
0100
0000
0001
1000
0001
0000
1000
0001
1000
0000
,
0002
0000
0000
0000
0000
0000
0003
0000
0100
0010
0100
0000
0001
0000
0000
0000
,
1000
0010
0000
0100
0000
0010
1000
0000
0100
1000
0000
0010
0000
1000
0100
0000
,
0010
0000
0000
0000
0000
0000
0100
0000
0000
1000
0000
0000
0000
0000
0000
0010
0000
0000
0100
0000
0000
0000
0000
0000
0010
0000
0000
0000
1000
0000
0000
0000
0100
0000
0000
0000
0020
0000
0000
0000
0000
0000
0030
0000
0000
0000
0000
0000
,
0000
0000
0110
0000
1000
0001
0000
0010
0000
0001
1000
0000
0010
0000
0100
0000
,
0001
1000
0100
0000
1000
0001
0100
0000
0010
0000
0010
0000
0010
0000
0010
0000
,
0010
0100
0000
0001
0000
0010
0001
0000
0100
0010
0000
0100
0000
0001
0010
0000
,
0100
0000
0010
0001
0000
0100
0001
0000
0010
0000
0001
0000
0200
0000
0300
0000
,
1001
1000
0001
0001
0010
0010
0100
0100
,
1000
0001
0010
0000
0001
1000
0010
0000
0100
0000
0100
0000
0100
0000
0100
0000
,
0200
0000
0000
0000
,
0000
0000
0000
0300
,
0010
0010
1000
1000
,
0001
0001
0100
0100
,
0010
0010
1000
0001
,
0010
0001
1000
0010
,
0100
0100
0001
0000
,
0100
0100
0001
0000
,
0100
0001
0100
0001
0100
0001
0100
0001
,
0100
0001
0000
0100
0001
0000
0100
0001
0100
0001
0000
0100
0001
0000
0100
0001
,
2000
0000
0000
0010
0010
3010
0110
0000
,
0001
0010
0001
0000
1000
0100
1000
0000
0100
0000
0100
0000
0001
0000
0000
0000
,
0220
0000
0330
0000
1001
0000
0001
0100
0000
0010
0000
1000
0000
0001
0010
0000
,
0100
0000
1000
0001
0000
0100
0000
0010
0000
1000
0000
0100
0000
1000
0010
0000
,
0100
0001
0000
0010
0001
0000
0001
0100
0000
0010
0000
1000
0000
0100
1000
0000
,
0010
0100
0000
0001
0010
0000
0001
0100
0010
0000
0010
0000
0010
0000
0000
0000
,
1000
0000
0010
0100
0000
0001
0000
0010
0000
0100
0000
0010
0000
0001
1000
0000
,
0010
0000
1000
0100
0000
0010
0001
0000
0100
0010
0000
0100
0010
0000
1000
0000
,
0001
0010
0000
0001
0100
0000
0001
0010
0000
0100
0000
1000
0000
0010
0100
0000
,
0110
0000
0000
0101
0000
0000
1001
0000
0001
0010
0000
0100
1000
0000
0000
0000
,
0001
0100
0000
0010
0000
0001
0000
0010
0000
1000
0000
0010
0000
0100
0001
0000
,
1000
0100
0000
0010
0000
1000
0000
0010
0000
0001
0000
0100
0000
0010
1000
0000
,
0001
0100
0000
0100
0010
0000
0010
1000
0000
0100
0000
1000
0000
0001
0100
0000
,
0001
0010
0000
0001
0100
0000
0001
0010
0200
0000
0000
0000
0300
0000
0000
0000
,
1000
0100
1000
0000
1001
0000
0000
0000
0001
0100
0000
1000
0000
0100
0001
0000
,
1000
0000
0100
1000
0000
0010
0000
0001
0000
0010
0000
1000
0200
0000
0000
0000
,
0310
0001
1000
0000
0001
1000
0010
0000
,
1010
0000
0000
0000
0010
0010
0010
0010
,
0100
0001
0010
0001
1000
0010
0100
0010
,
1000
0001
0010
0100
1000
0001
0100
0001
,
1000
0100
1000
0010
0100
0001
0010
0100
,
1000
0001
0000
0100
0000
0001
1000
0000
0010
0000
0010
0000
0010
0000
0000
0000
,
0200
0300
0200
0300
,
0001
1000
0001
0000
2002
0000
3003
0000
,
0000
0000
0000
0000
;
#NOTES:
     dance-single:
     :
     Challenge:
     17:
     :
0000
0000
0000
0000
,
0000
0000
0000
0000
,
1000
0001
0100
0010
1000
0010
0001
0010
,
0200
0300
0000
0000
0000
0000
0000
0000
0000
0000
0000
0000
0000
0000
0000
0000
0000
0000
0000
0000
0000
0000
0000
0000
0200
0300
0000
0000
0000
0000
0000
0000
0000
0000
0000
0000
0000
0000
0000
0000
0000
0000
0000
0000
0000
0000
0000
0000
1000
0000
0000
0000
0000
0000
0000
0000
0000
0000
0000
0000
0000
0000
0000
0000
0000
0000
0000
0000
0000
0000
0000
0000
0100
0000
0000
0000
0000
0000
0000
0000
0000
0000
0000
0000
0000
0000
0000
0000
0000
0000
0000
0000
0000
0000
0000
0000
0010
0000
0000
0000
0000
0000
0000
0000
0000
0000
0000
0000
0000
0000
0000
0000
0000
0000
0000
0000
0000
0000
0000
0000
0100
0000
0000
0000
0000
0000
0000
0000
0000
0000
0000
0000
0000
0000
0000
0000
0000
0000
0000
0000
0000
0000
0000
0000
0001
0000
0000
0000
0000
0000
0000
0000
0000
0000
0000
0000
0000
0000
0000
0000
0000
0000
0000
0000
0000
0000
0000
0000
0100
0000
0000
0000
0000
0000
0000
0000
0000
0000
0000
0000
0000
0000
0000
0000
0000
0000
0000
0000
0000
0000
0000
0000
,
0020
0030
0000
0000
0000
0000
0000
0000
0000
0000
0000
0000
0000
0000
0000
0000
0000
0000
0000
0000
0000
0000
0000
0000
0020
0030
0000
0000
0000
0000
0000
0000
0000
0000
0000
0000
0000
0000
0000
0000
0000
0000
0000
0000
0000
0000
0000
0000
1000
0000
0000
0000
0000
0000
0000
0000
0000
0000
0000
0000
0000
0000
0000
0000
0000
0000
0000
0000
0000
0000
0000
0000
0010
0000
0000
0000
0000
0000
0000
0000
0000
0000
0000
0000
0000
0000
0000
0000
0000
0000
0000
0000
0000
0000
0000
0000
0100
0000
0000
0000
0000
0000
0000
0000
0000
0000
0000
0000
0000
0000
0000
0000
0000
0000
0000
0000
0000
0000
0000
0000
1000
0000
0000
0000
0000
0000
0000
0000
0000
0000
0000
0000
0000
0000
0000
0000
0000
0000
0000
0000
0000
0000
0000
0000
0100
0000
0000
0000
0000
0000
0000
0000
0000
0000
0000
0000
0000
0000
0000
0000
0000
0000
0000
0000
0000
0000
0000
0000
0001
0000
0000
0000
0000
0000
0000
0000
0000
0000
0000
0000
0000
0000
0000
0000
0000
0000
0000
0000
0000
0000
0000
0000
,
1000
0001
0010
0001
1000
0001
0100
0000
0010
1000
0100
0000
2002
0000
3003
0000
,
1000
0000
0000
0000
0000
0000
0000
0000
0000
0000
0000
0000
0001
0000
0000
0000
0000
0000
0000
0000
0000
0000
0000
0000
0100
0000
0000
0000
0000
0000
0000
0000
0000
0000
0000
0000
0000
0000
0000
0000
0000
0000
0000
0000
0000
0000
0000
0000
0010
0000
0000
0000
0000
0000
0000
0000
0000
0000
0000
0000
1000
0000
0000
0000
0000
0000
0000
0000
0000
0000
0000
0000
0001
0000
0000
0000
0000
0000
0000
0000
0000
0000
0000
0000
0000
0000
0000
0000
0000
0000
0000
0000
0000
0000
0000
0000
0010
0000
0000
0000
0000
0000
0000
0000
0000
0000
0000
0000
0000
0000
0000
0000
0000
0000
0000
0000
0000
0000
0000
0000
0200
0300
0000
0000
0000
0000
0000
0000
0000
0000
0000
0000
0000
0000
0000
0000
0000
0000
0000
0000
0000
0000
0000
0000
0200
0300
0000
0000
0000
0000
0000
0000
0000
0000
0000
0000
0000
0000
0000
0000
0000
0000
0000
0000
0000
0000
0000
0000
0001
0000
0000
0000
0000
0000
0000
0000
0000
0000
0000
0000
0000
0000
0000
0000
0000
0000
0000
0000
0000
0000
0000
0000
,
1000
0000
0000
0000
0000
0000
0000
0000
0000
0000
0000
0000
0010
0000
0000
0000
0000
0000
0000
0000
0000
0000
0000
0000
0100
0000
0000
0000
0000
0000
0000
0000
0000
0000
0000
0000
0000
0000
0000
0000
0000
0000
0000
0000
0000
0000
0000
0000
0001
0000
0000
0000
0000
0000
0000
0000
0000
0000
0000
0000
0000
0000
0000
0000
0000
0000
0000
0000
0000
0000
0000
0000
1000
0000
0000
0000
0000
0000
0000
0000
0000
0000
0000
0000
0001
0000
0000
0000
0000
0000
0000
0000
0000
0000
0000
0000
0010
0000
0000
0000
0000
0000
0000
0000
0000
0000
0000
0000
0000
0000
0000
0000
0000
0000
0000
0000
0000
0000
0000
0000
0200
0300
0000
0000
0000
0000
0000
0000
0000
0000
0000
0000
0000
0000
0000
0000
0000
0000
0000
0000
0000
0000
0000
0000
0200
0300
0000
0000
0000
0000
0000
0000
0000
0000
0000
0000
0000
0000
0000
0000
0000
0000
0000
0000
0000
0000
0000
0000
0001
0000
0000
0000
0000
0000
0000
0000
0000
0000
0000
0000
0000
0000
0000
0000
0000
0000
0000
0000
0000
0000
0000
0000
,
1000
0100
0010
0001
0000
1000
0010
0000
0100
0000
0001
1000
0100
0000
0010
0000
,
0100
0100
0000
1001
0000
0100
0100
0000
0010
0000
0100
0000
2002
0000
3003
0000
,
1000
1000
0001
0001
0010
0010
0100
0100
,
1000
1000
0001
0001
0100
0100
0010
0010
,
1000
0001
0100
0001
1000
0100
1000
0001
0010
0001
1000
0010
0100
0001
1000
0100
,
0020
0000
0000
0000
0000
0000
0000
0000
0000
0000
0000
0000
0000
0000
0000
0000
0000
0000
0000
0000
0000
0000
0000
0000
0000
0000
0000
0000
0000
0000
0000
0000
0000
0000
0000
0000
0000
0000
0000
0000
0000
0000
0000
0000
0000
0000
0000
0000
0030
0000
0000
0000
0000
0000
0000
0000
0000
0000
0000
0000
0000
0000
0000
0000
0000
0000
0000
0000
0000
0000
0000
0000
0000
0000
0000
0000
0000
0000
0000
0000
0000
0000
0000
0000
0000
0000
0000
0000
0000
0000
0000
0000
0000
0000
0000
0000
0200
0300
0000
0000
0000
0000
0000
0000
0000
0000
0000
0000
0000
0000
0000
0000
0000
0000
0000
0000
0000
0000
0000
0000
0200
0300
0000
0000
0000
0000
0000
0000
0000
0000
0000
0000
0000
0000
0000
0000
0000
0000
0000
0000
0000
0000
0000
0000
0001
0000
0000
0000
0000
0000
0000
0000
0000
0000
0000
0000
0000
0000
0000
0000
0000
0000
0000
0000
0000
0000
0000
0000
0000
0000
0000
0000
0000
0000
0000
0000
0000
0000
0000
0000
0000
0000
0000
0000
0000
0000
0000
0000
0000
0000
0000
0000
,
0220
0000
0330
0000
1001
0000
0001
0000
0100
0000
0001
0000
0010
0000
0001
1000
,
0100
0000
1000
0000
0010
0000
1000
0100
0010
0000
0001
0000
0100
0000
0010
0000
,
1000
0001
0010
0001
1000
0000
0100
0000
1000
0000
0010
0000
1000
0000
0100
0010
,
0001
0000
0000
0000
0000
0000
0000
0000
0000
0000
0000
0000
0000
0000
0000
0000
0000
0000
0000
0000
0000
0000
0000
0000
1000
0000
0000
0000
0000
0000
0000
0000
0000
0000
0000
0000
0001
0000
0000
0000
0000
0000
0000
0000
0000
0000
0000
0000
0100
0000
0000
0000
0000
0000
0000
0000
0000
0000
0000
0000
0000
0000
0000
0000
0000
0000
0000
0000
0000
0000
0000
0000
0010
0000
0000
0000
0000
0000
0000
0000
0000
0000
0000
0000
1000
0000
0000
0000
0000
0000
0000
0000
0000
0000
0000
0000
0200
0300
0000
0000
0000
0000
0000
0000
0000
0000
0000
0000
0000
0000
0000
0000
0000
0000
0000
0000
0000
0000
0000
0000
0200
0300
0000
0000
0000
0000
0000
0000
0000
0000
0000
0000
0000
0000
0000
0000
0000
0000
0000
0000
0000
0000
0000
0000
0001
0000
0000
0000
0000
0000
0000
0000
0000
0000
0000
0000
0000
0000
0000
0000
0000
0000
0000
0000
0000
0000
0000
0000
0000
0000
0000
0000
0000
0000
0000
0000
0000
0000
0000
0000
0000
0000
0000
0000
0000
0000
0000
0000
0000
0000
0000
0000
,
1001
0000
1000
0001
0100
0000
0010
0000
1000
0000
0001
0010
0000
0001
0100
0010
,
1000
0000
0000
0000
0000
0000
0100
0000
0000
1000
0000
0000
0000
0000
0000
0001
0000
0000
0100
0000
0000
0000
0000
0000
0010
0000
0000
0000
1000
0000
0000
0000
0100
0000
0000
0000
0020
0000
0000
0000
0000
0000
0030
0000
0000
0000
0000
0000
,
0001
1000
0100
1000
0001
0000
0010
0000
0100
0000
1000
0010
0000
1000
0100
0010
,
0001
0000
0100
0001
0000
1000
0100
0000
0010
1000
0010
0001
0100
0000
0000
0000
,
0001
1000
0100
1000
0001
1000
0010
0100
0001
1000
0100
0010
0100
1000
0001
1000
,
0010
0010
0001
1000
0100
1000
0001
0100
0010
1000
0001
0010
0100
1000
0001
1000
,
0010
0010
0001
0100
0001
1000
0001
0010
0100
1000
0001
0100
0010
1000
0001
1000
,
0100
0000
0000
0000
0000
0000
0000
0000
0000
0000
0000
0000
0100
0000
0000
0000
0000
0000
0000
0000
0000
0000
0000
0000
0001
0000
0000
0000
0000
0000
0000
0000
0000
0000
0000
0000
1000
0000
0000
0000
0000
0000
0000
0000
0000
0000
0000
0000
0010
0000
0000
0000
0000
0000
0000
0000
0000
0000
0000
0000
0010
0000
0000
0000
0000
0000
0000
0000
0000
0000
0000
0000
0001
0000
0000
0000
0000
0000
0000
0000
0000
0000
0000
0000
1000
0000
0000
0000
0000
0000
0000
0000
0000
0000
0000
0000
0200
0300
0000
0000
0000
0000
0000
0000
0000
0000
0000
0000
0000
0000
0000
0000
0000
0000
0000
0000
0000
0000
0000
0000
0200
0300
0000
0000
0000
0000
0000
0000
0000
0000
0000
0000
0000
0000
0000
0000
0000
0000
0000
0000
0000
0000
0000
0000
0001
0000
0000
0000
0000
0000
0000
0000
0000
0000
0000
0000
0000
0000
0000
0000
0000
0000
0000
0000
0000
0000
0000
0000
0000
0000
0000
0000
0000
0000
0000
0000
0000
0000
0000
0000
0000
0000
0000
0000
0000
0000
0000
0000
0000
0000
0000
0000
,
1000
0100
0100
0010
1000
0001
0010
0100
0000
0000
1000
0000
1010
0000
0000
0000
,
0001
0100
0100
0010
0001
1000
0010
0100
0000
0000
0001
0000
0011
0000
0000
0000
,
0001
0000
0001
0000
1000
0000
1000
0000
0001
1000
0001
1000
0001
1000
0001
1000
,
0001
0000
0100
0000
0010
0000
1000
0000
0100
1000
0010
0000
0100
0000
0000
0000
,
0002
0010
0000
1000
0000
0103
0001
0000
2000
0010
0000
0001
0000
3100
1000
0000
,
0010
0000
0000
1000
0000
0000
0001
0000
0000
0010
0000
0000
0000
0000
0000
0100
0000
0000
1000
0000
0000
0000
0000
0000
0010
0000
0000
0000
0100
0000
0000
0000
0001
0000
0000
0000
0020
0000
0000
0000
0000
0000
0030
0000
0000
0000
0000
0000
,
0000
0000
0110
0000
1000
0001
0000
0100
0000
0001
1000
0100
0010
0001
1000
0010
,
0100
0000
0000
0000
0000
0000
0001
0000
1000
0000
0001
0000
1000
0000
0000
0010
0000
0000
0100
0000
0000
0001
0000
0000
1000
0000
0000
0000
0000
0000
0100
0000
0000
0000
0000
0000
0010
0000
0000
0000
0000
0000
0001
0000
0000
0000
0000
0000
,
2000
0010
0000
0100
0000
3001
1000
0000
0002
0010
0000
0100
0000
1003
0001
0000
,
0010
0001
1000
0010
0000
0100
0001
1000
0100
0000
0010
0000
2002
0000
3003
0000
,
0200
0300
0000
0000
0200
0300
0000
0000
0200
0300
0000
0000
0200
0300
0000
0000
,
0100
0100
0100
0100
0100
0100
0100
0100
0100
0000
0100
0000
0100
0000
0100
0000
,
0200
0000
0000
0000
,
0000
0000
0000
0310
,
1000
0000
0001
0000
0100
0000
0001
1000
0000
0100
0000
1000
0001
0000
0010
0000
,
0001
0000
1000
0000
0100
0000
1000
0001
0000
0100
0000
0001
1000
0100
0010
0001
,
1000
0000
0010
0000
0100
0000
0001
0010
0000
0100
0000
0010
0001
1000
0010
0100
,
0001
1000
0100
1000
0001
0100
0001
0010
0000
0100
0000
1000
0010
0100
0001
1000
,
0100
0100
0001
1000
0100
0100
0010
1000
0001
0010
0100
0010
0001
1000
0010
1000
,
0100
0100
0001
1000
0100
0100
0010
1000
0001
0010
0100
0010
0001
1000
0010
1000
,
0100
0100
0001
1000
0100
0100
0001
1000
0100
0100
0001
1000
0100
0100
0001
1000
,
0100
0100
0000
0001
0010
0000
0001
1000
0100
0100
0000
0001
0010
0000
0100
0100
,
0010
0000
0000
1000
0110
0001
1001
0000
,
1000
0000
0000
0000
0000
0000
0000
0000
0000
0000
0000
0000
0000
0000
0000
0000
0000
0000
0000
0000
0000
0000
0000
0000
0001
0000
0000
0000
0000
0000
0000
0000
0000
0000
0000
0000
0000
0000
0000
0000
0000
0000
0000
0000
0000
0000
0000
0000
0100
0000
0000
0000
0000
0000
0000
0000
0000
0000
0000
0000
0000
0000
0000
0000
0000
0000
0000
0000
0000
0000
0000
0000
0010
0000
0000
0000
0000
0000
0000
0000
0000
0000
0000
0000
1000
0000
0000
0000
0000
0000
0000
0000
0000
0000
0000
0000
0200
0300
0000
0000
0000
0000
0000
0000
0000
0000
0000
0000
0000
0000
0000
0000
0000
0000
0000
0000
0000
0000
0000
0000
0200
0300
0000
0000
0000
0000
0000
0000
0000
0000
0000
0000
0000
0000
0000
0000
0000
0000
0000
0000
0000
0000
0000
0000
0001
0000
0000
0000
0000
0000
0000
0000
0000
0000
0000
0000
0000
0000
0000
0000
0000
0000
0000
0000
0000
0000
0000
0000
0000
0000
0000
0000
0000
0000
0000
0000
0000
0000
0000
0000
0000
0000
0000
0000
0000
0000
0000
0000
0000
0000
0000
0000
,
2002
0000
3003
0000
1000
0010
1000
0001
0000
0100
0000
0010
0000
1000
0001
0100
,
0000
0100
1000
0100
0000
0100
0001
1000
0000
0010
0000
0100
0000
0001
0010
0001
,
1000
0010
0100
0010
0000
0100
0100
0000
1000
0100
0010
0100
0000
0010
0010
0000
,
1000
0010
0100
0001
0000
0010
0010
0000
0100
0000
0010
0000
2002
0000
3003
0000
,
0001
0100
0010
0100
1000
0100
0010
0010
0000
0001
0000
1000
0000
0001
0010
0100
,
1000
0100
0010
0100
0001
0100
0010
0010
0000
1000
0000
0001
0200
0000
0300
0000
,
0001
0010
1000
0010
0000
0100
0100
0000
0001
0100
1000
0100
0000
0010
0010
0000
,
0001
0100
0001
1000
0100
0010
0001
0100
0001
0010
0100
1000
0001
0000
1001
0000
,
1000
0001
1000
0010
0001
0010
0100
0100
0000
1000
0000
0001
0000
1000
0100
0010
,
0001
1000
0001
0010
1000
0010
0100
0100
0000
0001
0000
1000
0020
0000
0030
0000
,
1000
0010
0001
0010
0000
0100
0100
0000
1000
0100
0001
0100
0000
0010
0010
0000
,
1000
0001
0000
0000
0000
0000
1000
0100
0000
0000
0000
0000
1000
0001
0000
0000
0200
0000
0000
0000
0300
0000
0000
0000
0001
0000
1000
0000
0100
0000
0010
0000
,
0001
1000
0001
0010
1000
0010
0100
0100
0000
0001
0000
1000
0000
0001
0100
0010
,
1000
0001
1000
0010
0001
0010
0100
0100
0000
1000
0000
0001
0020
0000
0030
0000
,
0001
0100
0010
0001
0010
0100
0100
1000
0100
0010
1000
0010
0100
0100
0001
1000
,
0010
0100
0000
0001
0000
1000
0100
0000
1000
0000
0010
0000
0100
0000
0001
0000
,
1001
0000
1000
0001
0100
0000
0001
0010
0100
0000
0010
0001
1000
0000
0001
0100
,
0010
0000
1000
0100
0010
0000
0001
0000
1000
0010
1000
0010
0100
0001
0100
0001
,
1000
0000
0001
1000
0100
0000
1000
0001
0010
0000
0100
1000
0001
0000
1000
0000
,
0100
0100
0000
1001
0000
0100
0100
0000
0010
0000
0100
0000
2002
0000
3003
0000
,
0200
0300
0200
0300
,
0001
0001
0001
0000
1000
1000
1000
0000
2002
0000
0000
0000
3003
0000
0000
0000
,
0000
0000
0000
0000
;
#NOTES:
     dance-double:
     :
     Easy:
     7:
     :
00000000
00000000
00000000
00000000
,
00000000
00000000
00000000
00000000
,
00000000
00000000
00000000
00000000
,
00000000
00000000
00000000
00000000
,
00000000
00000000
00000000
00000000
,
00000000
00000000
00000000
00000000
,
00001000
00010000
00000100
00001000
,
00000100
00010000
00001000
00100000
,
00010000
00100000
00001000
00010000
,
00000100
00000000
00001000
00001001
,
00000001
00000000
00000010
00000000
,
00000100
00000000
00010000
00000000
,
00001000
00100000
00010000
01000000
,
00100000
00000000
00000000
00000000
01000000
01000000
00010000
00000000
,
20020000
30030000
10000000
01000000
,
10000000
00100000
01000000
00010000
,
00100000
00001000
00010000
00000100
,
00001000
00000000
00000010
00000000
00000100
00000100
00000001
00000000
,
00001000
00000100
00000010
00000100
,
00010000
00001000
00101000
00110000
,
00010000
01000000
00100000
10000000
,
02000000
00000000
03100000
00000000
,
00001000
00011000
00010000
00000100
,
00000010
00000001
00000100
00000010
,
00001000
00000100
00010000
00001000
,
00010000
00000000
00001000
00000000
01000000
01000000
00010000
00000000
,
10000000
01000000
10000000
10100000
,
00100000
01000000
00010000
00110000
,
00100000
00100000
00001000
00010000
,
00022000
00000000
00033000
00000000
,
00020000
00001000
00001000
00030200
,
00000010
00000010
00002300
00003001
,
00000000
00001001
00000000
00000000
00000001
00000000
00000010
00000000
,
00000100
00001000
00000010
00010000
,
00002000
00010000
00010000
02003000
,
00100000
00100000
03020000
10030000
,
10000000
01000000
00100000
00100000
,
00001000
00001000
00010000
00010000
,
00002000
00000000
00000000
00000000
,
00000000
00000000
00000000
00003000
,
00010000
00000000
00001000
00000000
,
00000100
00000000
00000001
00000000
,
00000010
00000000
00001000
00000000
,
00010000
00000000
00001000
00000000
,
01000000
01000000
00010000
00000000
,
01000000
01000000
00010000
00000000
,
01000000
00010000
01000000
00010000
,
01000000
00000000
00000000
01000000
00000000
00000000
00000000
00000000
01000000
00000000
00000000
01000000
00000000
00000000
00000000
00000000
,
00100000
00000000
00100000
01100000
,
00000000
00000000
00000000
00000000
01000000
01000000
00010000
00000000
,
20020000
30030000
10000000
01000000
,
00100000
00001000
00010000
00000010
,
00001000
00000100
00000010
00000100
,
00010000
00000000
00001000
00000000
00010000
00010000
00010000
00000000
,
00001000
01000000
00100000
10000000
,
00010000
00100000
01000000
01100000
,
00100000
00001000
00010000
00000010
,
00000200
00000300
00000001
00000011
,
00000010
00000100
00001000
00000010
,
00010000
00001000
00100000
01000000
,
10000000
00100000
00010000
00001000
,
00020000
00000000
00030100
00000000
,
00001100
00000011
00000010
00000100
,
00001000
00000010
00010000
00001000
,
00020000
00000000
00230000
00000000
,
20300000
00000000
32000000
00000000
,
03100000
00001000
00010000
00001000
,
00000100
00000010
00001000
00000001
,
00000010
00000100
00010000
00001000
,
00010000
00000000
00010000
00011000
,
00002000
00003000
00002000
00003000
,
00010000
00010000
00022000
00033000
,
00000000
00000000
00000000
00000000
;
#NOTES:
     dance-double:
     :
     Medium:
     10:
     :
00000000
00000000
00000000
00000000
,
00000000
00000000
00000000
00000000
,
00000000
00000000
00000000
00000000
,
00000000
00000000
00000000
00000000
,
00000000
00000000
00000000
00000000
,
00000000
00000000
00000000
00000000
,
00001000
00010000
00000010
00001000
,
00000001
00001000
00000100
00010000
,
00001000
00100000
00010000
10000000
,
00100000
00000000
00000000
01000000
00000000
01000000
00000000
00000000
00100000
00000000
10000000
00000000
00010000
00000000
00000000
00000000
,
20000000
00000000
32000000
00000000
,
03020000
00000000
00032000
00000000
,
00003200
00000320
00002030
00003001
,
00001010
00000000
00000101
00000000
00000100
00000100
00000001
00000000
,
00001001
00000001
00000010
00000100
,
00001000
00000000
00000010
00000000
00010000
00001000
00010000
00001000
,
01000000
00010000
00100000
00001000
,
00010000
00000000
00001000
00000000
01000000
01000000
00010000
00000000
,
00100000
00001000
00010000
00000000
01000000
00000000
10000000
00000000
,
00010000
00000000
00000000
01000000
00000000
00000000
00010000
01000000
00010000
01000000
00000000
00000000
,
00100000
00010000
00001000
00010000
,
00000200
00000000
00000000
00000000
00000310
00000100
00001000
00000000
,
00000010
00000000
00010010
00000000
00010000
00001000
01000000
00000000
,
00010000
10000000
01000000
00000000
00100000
00000000
00010000
00000000
,
01000000
00001000
00010000
00000000
00001000
00010000
00000100
00000000
,
00001000
00000000
00000010
00000000
00000100
00000100
00000001
00000000
,
00000010
00000000
00000000
00000000
00000001
00000000
00000000
00001000
00000000
00000000
00000010
00000000
00000010
00000000
00000000
00000000
,
00010000
00000000
00000000
00000000
00001000
00000000
00000000
01000000
00000000
00000000
00010000
00000000
00010000
00000000
00000000
00000000
,
10000000
01000000
10000000
01000000
00100000
00010000
10000000
00100000
,
02000000
00000000
00000000
03000000
00100000
01000000
00010000
00000000
,
10000000
00000000
00000000
00100000
00000000
00100000
00000000
00000000
01000000
00000000
00000000
00010000
00000000
00010000
00000000
00000000
,
00100000
00000000
00000000
00001000
00000000
00001000
00000000
00000000
00010000
00000000
00000000
00000000
00000100
00000000
00000000
00000000
,
00000000
00000000
00001000
00000000
00000010
00000000
00000000
00000010
00000000
00000000
00000000
00000000
00000000
00000000
00000000
00000000
,
00010000
00000000
00001000
00000000
00001000
00001000
00001000
00001000
,
00010000
00000000
00000000
00001000
00000000
00001000
00000000
00000000
00100000
00000000
00000000
00010000
00000000
00010000
00000000
00000000
,
01000000
00000000
00000000
00100000
00000000
00100000
00000000
00000000
10000000
00000000
00000000
00000000
00010000
00000000
00000000
00000000
,
02000000
00000000
00100000
00000000
00010000
00000000
03001000
00010000
,
00001000
00000000
00000000
00000000
00010000
00010000
00010000
00010000
,
00002000
00000000
00000000
00000000
,
00000000
00000000
00000000
00003000
,
00010000
00000000
00001000
00000000
,
00000100
00000000
00000010
00000000
,
00001000
00000000
00000001
00000000
,
00000100
00000000
00000010
00000000
,
00000100
00000100
00000001
00000000
,
00000100
00000100
00000001
00000000
,
00000100
00000001
00000100
00000001
00000100
00000001
00000100
00000001
,
00000100
00000000
00000000
00000100
00000000
00000000
00000001
00000000
00000100
00000000
00000000
00000100
00000000
00000000
00000001
00000000
,
00001000
00000000
00000000
00000010
00010000
00001000
00010000
00000000
,
00011000
00000000
00001000
00000000
01000000
01000000
00010000
00000000
,
10010000
00000000
00110000
00000000
00100000
01000000
10000000
00000000
,
00100000
00000000
00010000
00000000
00001000
00010000
00000100
00000000
,
00000010
00001000
00010000
00001000
,
00000100
00000000
00000001
00000000
00000010
00000100
00001000
00000000
,
00000010
00000000
00010000
00000000
00001000
00000000
01000000
00100000
,
10000000
00000000
00000000
00000000
00100000
00000000
00000000
00000000
01000000
00000000
00000000
00001000
00010000
00000000
00000000
00000000
,
00000100
00000010
00000001
00001000
,
00000001
00000000
00000000
00000100
00000000
00000000
00001000
00000000
00010000
00000000
00000000
00001000
00010000
00000000
00000000
00000000
,
01000000
00100000
00010000
00000000
10000000
00000000
00100000
00000000
,
01000000
00001000
00010000
00000000
00000010
00000100
00000001
00000000
,
00000010
00000100
00010000
00001000
,
00001000
00000000
00000000
00010000
00000000
00000000
00100000
00000000
02000000
00000000
00000000
00000000
03000000
00000000
00000000
00000000
,
00010000
00110000
00100000
00101000
,
00001000
00000000
00011000
00000000
00010000
00000100
00000020
00000000
,
00000031
00000000
00001000
00000000
,
00000020
00000000
00000130
00000101
,
00000001
00000100
00001000
00000000
00010000
00001000
00100000
00000000
,
01000000
10000000
00100000
00010000
,
00001000
00010000
00000100
00000000
00010000
00000000
00001000
00000000
,
01000000
00000000
00000000
00010000
00000000
00010000
00000000
00000000
00100000
00000000
00000000
00000000
10010000
00000000
00000000
00000000
,
20000000
30000000
20000000
30000000
,
01000000
00010000
00022000
00033000
,
00000000
00000000
00000000
00000000
;
#NOTES:
     dance-double:
     :
     Hard:
     14:
     :
00000000
00000000
00000000
00000000
,
00000000
00000000
00000000
00000000
,
00000000
00000000
00000000
00000000
,
00000000
00000000
00000000
00000000
,
00000000
00000000
00000000
00000000
,
00000000
00000000
00000000
00000000
,
00001000
00010000
00001000
00000100
00000010
00010000
00000100
00000010
,
00001000
00010000
00001000
00010000
00100000
01000000
00001000
00100000
,
01000000
10000000
00100000
10000000
01000000
00010000
00001000
00010000
,
00001000
00010000
00000000
00000100
00000000
00001000
00000010
00000000
00000100
00000000
00000001
00000000
00002002
00000000
00003003
00000000
,
00001000
00001000
00000010
00000010
00010000
00010000
00001000
00001000
,
01000000
01000000
00010000
00010000
00100000
00100000
01000000
01000000
,
11000000
00110000
00101000
00011000
,
00010000
00001000
00000010
00000001
00000100
00000100
00000001
00000000
,
00000022
00000033
00000010
00000000
00000100
00000000
00010000
00001000
,
01000000
00000000
00000000
00000000
00010000
00000000
00100000
00000000
01000000
00000000
10000000
01000000
10000000
00000000
00010000
00000000
,
01000000
00000000
00100000
00000000
00010000
00000000
00001000
00100000
,
01000000
10000000
00100000
00000000
01000000
01000000
00010000
00000000
,
00010000
00100000
00001000
00010000
00001000
00000100
00000010
00001000
,
00000001
00000000
00000000
00000010
00000000
00000000
00000100
00000000
00000000
00001000
00000000
00000000
00000001
00000000
00000100
00000000
00001000
00000000
00010000
00000000
00000000
00000000
00000000
00000000
,
00001000
00100000
00010000
01000000
00100000
10000000
00010000
00100000
,
01000000
00000000
00000000
00010000
00000000
00000000
00001000
00000000
00010000
00000000
00010000
00000000
00011000
00000000
00000000
00000000
,
00010000
00001000
00000100
00000010
00001000
00000001
00000010
00000100
,
00001000
00000010
00010000
00001000
00010000
00100000
01000000
00010000
,
10000000
01000000
00100000
00010000
01000000
00100000
00010000
00001000
,
00010000
00001000
00000010
00000001
00000100
00000100
00000001
00000000
,
00000001
00000000
00000100
00000000
00001000
00000000
00000000
00010000
00000000
00000000
00100000
00000000
10100000
00000000
00000000
00000000
,
10000000
00000000
01000000
00000000
00010000
00000000
00000000
00001000
00000000
00000000
00000010
00000000
00000011
00000000
00000000
00000000
,
00000001
00000000
00000001
00000000
00001000
00000000
00001000
00000000
00000001
00000010
00000001
00000000
00001000
00000100
00001000
00000000
,
00000020
00000000
00000000
00000000
00000000
00000000
00000030
00000000
00000100
00000010
00000100
00000000
00000001
00000000
00000000
00000000
,
00000001
00000100
00000000
00000010
00000000
00000100
00000001
00000000
00001000
00000010
00000000
00000100
00000000
00000010
00001000
00000000
,
00000100
00000000
00000000
00000000
00000000
00000000
00010000
00000000
00000000
00001000
00000000
00000000
00000000
00000000
00000000
00010000
00000000
00000000
00000010
00000000
00000000
00000000
00000000
00000000
00000100
00000000
00000000
00000000
00001000
00000000
00000000
00000000
00010000
00000000
00000000
00000000
00200000
00000000
00000000
00000000
00000000
00000000
00300000
00000000
00000000
00000000
00000000
00000000
,
00000000
00000000
01100000
00000000
10000000
00010000
00000000
00100000
00000000
00010000
10000000
00000000
00100000
00000000
00010000
00000000
,
00001000
00010000
00001000
00000000
00010000
00000000
00100000
00000000
10000000
00000000
10000000
00000000
10000000
00000000
10000000
00000000
,
10000000
01000000
00000000
00100000
00000000
01000000
10000000
00000000
00010000
01000000
00000000
00100000
00000000
01000000
00010000
00000000
,
00100000
00000000
00001000
00010000
00000000
00001000
00000100
00000000
00001000
00000000
00010000
00000000
00000200
00000000
00000300
00000000
,
00000010
00000001
00000100
00000010
00001000
00000100
00001000
00000010
,
00010000
00000000
00001000
00000000
00100000
00001000
00010000
00000000
01000000
00000000
01000000
00000000
01000000
00000000
01000000
00000000
,
02000000
00000000
00000000
00000000
,
00000000
00000000
00000000
03000000
,
10000000
10000000
01000000
01000000
,
00100000
00100000
00001000
00001000
,
00010000
00001000
00010000
00001000
,
00000010
00000001
00000010
00000001
,
00000100
00000100
00000001
00000000
,
00000100
00000100
00000001
00000000
,
00000100
00000001
00000100
00000001
00000100
00000001
00000100
00000001
,
00000100
00000001
00000000
00000100
00000001
00000000
00000100
00000001
00000100
00000001
00000000
00000100
00000001
00000000
00000100
00000001
,
00002000
00000000
00000000
00000010
00000010
00003010
00010010
00000000
,
00010000
00001000
00010000
00000000
00001000
00010000
00001000
00000000
01000000
00000000
01000000
00000000
00010000
00000000
00000000
00000000
,
20020000
00000000
30030000
00000000
10000000
01000000
00000000
00100000
00000000
00010000
00000000
01000000
00000000
00001000
00010000
00000000
,
00000100
00000000
00001000
00000010
00000000
00000100
00000000
00000001
00000000
00000010
00000000
00000100
00000000
00001000
00000010
00000000
,
00000100
00000001
00000000
00000001
00000010
00000000
00000100
00001000
00000000
00000010
00000000
00010000
00000000
00001000
00010000
00000000
,
00001000
01000000
00000000
00010000
00100000
00000000
01000000
10000000
00010000
00000000
00010000
00000000
00010000
00000000
00000000
00000000
,
10000000
00000000
00100000
01000000
00000000
00010000
00000000
00100000
00000000
00001000
00000000
00010000
00000000
00001000
00000100
00000000
,
00000001
00000000
00000100
00000010
00000000
00001000
00000100
00000000
00010000
00001000
00000000
00100000
00010000
00000000
01000000
00000000
,
00100000
10000000
00000000
00010000
01000000
00000000
00001000
00010000
00000000
00000010
00000000
00001000
00000000
00000001
00000100
00000000
,
00000010
00000000
00000000
00000110
00000000
00000000
00001010
00000000
00000001
00000010
00000000
00000100
00001000
00000000
00000000
00000000
,
00000010
00000000
00010000
00001000
00000000
00010000
00000000
00100000
00000000
01000000
00000000
00010000
00000000
10000000
01000000
00000000
,
00010000
00000000
00001000
00010000
00000000
00000100
00000000
00000010
00000000
00000001
00000000
00000100
00000000
00001000
00010000
00000000
,
00010000
00001000
00000000
00001000
00010000
00000000
00010000
01000000
00000000
10000000
00000000
01000000
00000000
00100000
00010000
00000000
,
10000000
01000000
00000000
00010000
00001000
00000000
00000010
00000001
00000020
00000000
00000000
00000000
00000030
00000000
00000000
00000000
,
00000100
00001000
00000000
00000010
00000000
00010000
00000000
00001000
00000000
01000000
00000000
00010000
00000000
00100000
01000000
00000000
,
10000000
00100000
00000000
00010000
00000000
00001000
00000000
00000100
00000000
00000010
00000000
00001000
00000002
00000000
00000000
00000000
,
00000013
00000100
00001000
00000000
00000010
00010000
00001000
00000000
,
00011000
00000000
00000000
00000000
00001000
00001000
00001000
00001000
,
01000000
00100000
10000000
00010000
00100000
01000000
10000000
00100000
,
00010000
00001000
00010000
00000100
00000010
00000001
00001000
00000001
,
00000100
00001000
00010000
00001000
00010000
01000000
10000000
00010000
,
10000000
01000000
00000000
00100000
00000000
00001000
00010000
00000000
00000010
00000000
00001000
00000000
00001001
00000000
00000000
00000000
,
00000002
00000003
00002000
00003000
,
00010000
00001000
00010000
00000000
00022000
00000000
00033000
00000000
,
00000000
00000000
00000000
00000000
;
#NOTES:
     dance-double:
     :
     Challenge:
     17:
     :
00000000
00000000
00000000
00000000
,
00000000
00000000
00000000
00000000
,
00010000
00001000
00010000
00001000
00010000
00001000
00010000
00100000
,
02000000
03000000
00000000
00000000
00000000
00000000
00000000
00000000
00000000
00000000
00000000
00000000
00000000
00000000
00000000
00000000
00000000
00000000
00000000
00000000
00000000
00000000
00000000
00000000
02000000
03000000
00000000
00000000
00000000
00000000
00000000
00000000
00000000
00000000
00000000
00000000
00000000
00000000
00000000
00000000
00000000
00000000
00000000
00000000
00000000
00000000
00000000
00000000
10000000
00000000
00000000
00000000
00000000
00000000
00000000
00000000
00000000
00000000
00000000
00000000
00000000
00000000
00000000
00000000
00000000
00000000
00000000
00000000
00000000
00000000
00000000
00000000
01000000
00000000
00000000
00000000
00000000
00000000
00000000
00000000
00000000
00000000
00000000
00000000
00000000
00000000
00000000
00000000
00000000
00000000
00000000
00000000
00000000
00000000
00000000
00000000
00100000
00000000
00000000
00000000
00000000
00000000
00000000
00000000
00000000
00000000
00000000
00000000
00000000
00000000
00000000
00000000
00000000
00000000
00000000
00000000
00000000
00000000
00000000
00000000
01000000
00000000
00000000
00000000
00000000
00000000
00000000
00000000
00000000
00000000
00000000
00000000
00000000
00000000
00000000
00000000
00000000
00000000
00000000
00000000
00000000
00000000
00000000
00000000
00010000
00000000
00000000
00000000
00000000
00000000
00000000
00000000
00000000
00000000
00000000
00000000
00000000
00000000
00000000
00000000
00000000
00000000
00000000
00000000
00000000
00000000
00000000
00000000
01000000
00000000
00000000
00000000
00000000
00000000
00000000
00000000
00000000
00000000
00000000
00000000
00000000
00000000
00000000
00000000
00000000
00000000
00000000
00000000
00000000
00000000
00000000
00000000
,
00200000
00300000
00000000
00000000
00000000
00000000
00000000
00000000
00000000
00000000
00000000
00000000
00000000
00000000
00000000
00000000
00000000
00000000
00000000
00000000
00000000
00000000
00000000
00000000
00200000
00300000
00000000
00000000
00000000
00000000
00000000
00000000
00000000
00000000
00000000
00000000
00000000
00000000
00000000
00000000
00000000
00000000
00000000
00000000
00000000
00000000
00000000
00000000
10000000
00000000
00000000
00000000
00000000
00000000
00000000
00000000
00000000
00000000
00000000
00000000
00000000
00000000
00000000
00000000
00000000
00000000
00000000
00000000
00000000
00000000
00000000
00000000
00100000
00000000
00000000
00000000
00000000
00000000
00000000
00000000
00000000
00000000
00000000
00000000
00000000
00000000
00000000
00000000
00000000
00000000
00000000
00000000
00000000
00000000
00000000
00000000
01000000
00000000
00000000
00000000
00000000
00000000
00000000
00000000
00000000
00000000
00000000
00000000
00000000
00000000
00000000
00000000
00000000
00000000
00000000
00000000
00000000
00000000
00000000
00000000
10000000
00000000
00000000
00000000
00000000
00000000
00000000
00000000
00000000
00000000
00000000
00000000
00000000
00000000
00000000
00000000
00000000
00000000
00000000
00000000
00000000
00000000
00000000
00000000
01000000
00000000
00000000
00000000
00000000
00000000
00000000
00000000
00000000
00000000
00000000
00000000
00000000
00000000
00000000
00000000
00000000
00000000
00000000
00000000
00000000
00000000
00000000
00000000
00010000
00000000
00000000
00000000
00000000
00000000
00000000
00000000
00000000
00000000
00000000
00000000
00000000
00000000
00000000
00000000
00000000
00000000
00000000
00000000
00000000
00000000
00000000
00000000
,
10000000
01000000
10000000
01000000
00100000
00010000
00100000
00000000
00001000
00010000
00001000
00000000
00020000
00000000
00030000
00000000
,
00001000
00000000
00000000
00000000
00000000
00000000
00000000
00000000
00000000
00000000
00000000
00000000
00010000
00000000
00000000
00000000
00000000
00000000
00000000
00000000
00000000
00000000
00000000
00000000
00000100
00000000
00000000
00000000
00000000
00000000
00000000
00000000
00000000
00000000
00000000
00000000
00000000
00000000
00000000
00000000
00000000
00000000
00000000
00000000
00000000
00000000
00000000
00000000
00001000
00000000
00000000
00000000
00000000
00000000
00000000
00000000
00000000
00000000
00000000
00000000
00000000
00000000
00000000
00000000
00000000
00000000
00000000
00000000
00000000
00000000
00000000
00000000
00000001
00000000
00000000
00000000
00000000
00000000
00000000
00000000
00000000
00000000
00000000
00000000
00001000
00000000
00000000
00000000
00000000
00000000
00000000
00000000
00000000
00000000
00000000
00000000
00000010
00000000
00000000
00000000
00000000
00000000
00000000
00000000
00000000
00000000
00000000
00000000
00000000
00000000
00000000
00000000
00000000
00000000
00000000
00000000
00000000
00000000
00000000
00000000
00000200
00000300
00000000
00000000
00000000
00000000
00000000
00000000
00000000
00000000
00000000
00000000
00000000
00000000
00000000
00000000
00000000
00000000
00000000
00000000
00000000
00000000
00000000
00000000
00000200
00000300
00000000
00000000
00000000
00000000
00000000
00000000
00000000
00000000
00000000
00000000
00000000
00000000
00000000
00000000
00000000
00000000
00000000
00000000
00000000
00000000
00000000
00000000
00010000
00000000
00000000
00000000
00000000
00000000
00000000
00000000
00000000
00000000
00000000
00000000
00000000
00000000
00000000
00000000
00000000
00000000
00000000
00000000
00000000
00000000
00000000
00000000
,
00001000
00000000
00000000
00000000
00000000
00000000
00000000
00000000
00000000
00000000
00000000
00000000
00010000
00000000
00000000
00000000
00000000
00000000
00000000
00000000
00000000
00000000
00000000
00000000
00000100
00000000
00000000
00000000
00000000
00000000
00000000
00000000
00000000
00000000
00000000
00000000
00000000
00000000
00000000
00000000
00000000
00000000
00000000
00000000
00000000
00000000
00000000
00000000
00001000
00000000
00000000
00000000
00000000
00000000
00000000
00000000
00000000
00000000
00000000
00000000
00000000
00000000
00000000
00000000
00000000
00000000
00000000
00000000
00000000
00000000
00000000
00000000
00000001
00000000
00000000
00000000
00000000
00000000
00000000
00000000
00000000
00000000
00000000
00000000
00001000
00000000
00000000
00000000
00000000
00000000
00000000
00000000
00000000
00000000
00000000
00000000
00000010
00000000
00000000
00000000
00000000
00000000
00000000
00000000
00000000
00000000
00000000
00000000
00000000
00000000
00000000
00000000
00000000
00000000
00000000
00000000
00000000
00000000
00000000
00000000
00000200
00000300
00000000
00000000
00000000
00000000
00000000
00000000
00000000
00000000
00000000
00000000
00000000
00000000
00000000
00000000
00000000
00000000
00000000
00000000
00000000
00000000
00000000
00000000
00000200
00000300
00000000
00000000
00000000
00000000
00000000
00000000
00000000
00000000
00000000
00000000
00000000
00000000
00000000
00000000
00000000
00000000
00000000
00000000
00000000
00000000
00000000
00000000
00010000
00000000
00000000
00000000
00000000
00000000
00000000
00000000
00000000
00000000
00000000
00000000
00000000
00000000
00000000
00000000
00000000
00000000
00000000
00000000
00000000
00000000
00000000
00000000
,
00001000
00010000
00001000
00010000
00000000
00001000
00100000
00000000
01000000
00000000
10000000
00010000
01000000
00000000
00100000
00000000
,
01000000
01000000
00000000
10010000
00000000
01000000
01000000
00000000
00100000
00000000
01000000
00000000
20020000
00000000
30030000
00000000
,
10000000
10000000
01000000
01000000
00010000
00010000
00001000
00001000
,
00000100
00000100
00000001
00000001
00000010
00000010
00000100
00000100
,
00001000
00000010
00010000
00001000
01000000
00100000
10000000
00010000
01000000
00010000
01000000
00100000
10000000
00010000
10000000
01000000
,
00200000
00000000
00000000
00000000
00000000
00000000
00000000
00000000
00000000
00000000
00000000
00000000
00000000
00000000
00000000
00000000
00000000
00000000
00000000
00000000
00000000
00000000
00000000
00000000
00000000
00000000
00000000
00000000
00000000
00000000
00000000
00000000
00000000
00000000
00000000
00000000
00000000
00000000
00000000
00000000
00000000
00000000
00000000
00000000
00000000
00000000
00000000
00000000
00300000
00000000
00000000
00000000
00000000
00000000
00000000
00000000
00000000
00000000
00000000
00000000
00000000
00000000
00000000
00000000
00000000
00000000
00000000
00000000
00000000
00000000
00000000
00000000
00000000
00000000
00000000
00000000
00000000
00000000
00000000
00000000
00000000
00000000
00000000
00000000
00000000
00000000
00000000
00000000
00000000
00000000
00000000
00000000
00000000
00000000
00000000
00000000
02000000
03000000
00000000
00000000
00000000
00000000
00000000
00000000
00000000
00000000
00000000
00000000
00000000
00000000
00000000
00000000
00000000
00000000
00000000
00000000
00000000
00000000
00000000
00000000
02000000
03000000
00000000
00000000
00000000
00000000
00000000
00000000
00000000
00000000
00000000
00000000
00000000
00000000
00000000
00000000
00000000
00000000
00000000
00000000
00000000
00000000
00000000
00000000
00010000
00000000
00000000
00000000
00000000
00000000
00000000
00000000
00000000
00000000
00000000
00000000
00000000
00000000
00000000
00000000
00000000
00000000
00000000
00000000
00000000
00000000
00000000
00000000
00000000
00000000
00000000
00000000
00000000
00000000
00000000
00000000
00000000
00000000
00000000
00000000
00000000
00000000
00000000
00000000
00000000
00000000
00000000
00000000
00000000
00000000
00000000
00000000
,
20020000
00000000
30030000
00000000
10010000
00000000
10000000
00000000
01000000
00000000
00100000
00000000
00010000
00100000
00001000
00000000
,
00010000
00000000
00001000
00000000
00000100
00000000
00000010
00001000
00000001
00000000
00000010
00000100
00001000
00000000
00000100
00010000
,
00001000
00000000
00010000
00000000
00100000
00000000
01000000
00000000
00010000
00000000
10000000
00000000
01000000
00100000
00010000
00000000
,
01000000
00000000
00000000
00000000
00000000
00000000
00000000
00000000
00000000
00000000
00000000
00000000
00000000
00000000
00000000
00000000
00000000
00000000
00000000
00000000
00000000
00000000
00000000
00000000
00100000
00000000
00000000
00000000
00000000
00000000
00000000
00000000
00000000
00000000
00000000
00000000
00000000
00000000
00000000
00000000
00000000
00000000
00000000
00000000
00000000
00000000
00000000
00000000
00010000
00000000
00000000
00000000
00000000
00000000
00000000
00000000
00000000
00000000
00000000
00000000
00000000
00000000
00000000
00000000
00000000
00000000
00000000
00000000
00000000
00000000
00000000
00000000
00100000
00000000
00000000
00000000
00000000
00000000
00000000
00000000
00000000
00000000
00000000
00000000
10000000
00000000
00000000
00000000
00000000
00000000
00000000
00000000
00000000
00000000
00000000
00000000
02000000
03000000
00000000
00000000
00000000
00000000
00000000
00000000
00000000
00000000
00000000
00000000
00000000
00000000
00000000
00000000
00000000
00000000
00000000
00000000
00000000
00000000
00000000
00000000
02000000
03000000
00000000
00000000
00000000
00000000
00000000
00000000
00000000
00000000
00000000
00000000
00000000
00000000
00000000
00000000
00000000
00000000
00000000
00000000
00000000
00000000
00000000
00000000
00010000
00000000
00000000
00000000
00000000
00000000
00000000
00000000
00000000
00000000
00000000
00000000
00000000
00000000
00000000
00000000
00000000
00000000
00000000
00000000
00000000
00000000
00000000
00000000
00000000
00000000
00000000
00000000
00000000
00000000
00000000
00000000
00000000
00000000
00000000
00000000
00000000
00000000
00000000
00000000
00000000
00000000
00000000
00000000
00000000
00000000
00000000
00000000
,
10010000
00000000
00010000
10000000
01000000
00000000
00100000
00000000
00010000
00100000
00000000
00001000
00010000
00000000
00000100
00001000
,
00000001
00000000
00000000
00000000
00000000
00000000
00001000
00000000
00000000
00000010
00000000
00000000
00000100
00000000
00000000
00000000
00000000
00000000
00000001
00000000
00000000
00000000
00000000
00000000
00000100
00000000
00000000
00000000
00001000
00000000
00000000
00000000
00010000
00000000
00000000
00000000
02000000
00000000
00000000
00000000
00000000
00000000
03000000
00000000
00000000
00000000
00000000
00000000
,
10000000
00000000
00010000
00100000
01000000
00000000
10000000
00000000
01000000
00010000
00000000
00001000
00010000
00000000
00001000
00000000
,
00000010
00000001
00000000
00000001
00000100
00000000
00000010
00000000
00010000
00001000
00010000
00000000
00001000
00000000
00000000
00000000
,
00001000
00010000
00001000
00100000
00001000
00010000
00001000
00100000
00010000
00100000
01000000
10000000
00100000
10000000
00010000
10000000
,
00100000
00100000
00010000
10000000
01000000
10000000
01000000
00100000
00010000
00100000
00001000
00010000
00000100
00010000
00001000
00010000
,
00000100
00000100
00000010
00001000
00000010
00000100
00000001
00001000
00000001
00000010
00000100
00001000
00000001
00000100
00000001
00001000
,
00000100
00000000
00000000
00000000
00000000
00000000
00000000
00000000
00000000
00000000
00000000
00000000
00000100
00000000
00000000
00000000
00000000
00000000
00000000
00000000
00000000
00000000
00000000
00000000
00000001
00000000
00000000
00000000
00000000
00000000
00000000
00000000
00000000
00000000
00000000
00000000
00001000
00000000
00000000
00000000
00000000
00000000
00000000
00000000
00000000
00000000
00000000
00000000
00000010
00000000
00000000
00000000
00000000
00000000
00000000
00000000
00000000
00000000
00000000
00000000
00000010
00000000
00000000
00000000
00000000
00000000
00000000
00000000
00000000
00000000
00000000
00000000
00000001
00000000
00000000
00000000
00000000
00000000
00000000
00000000
00000000
00000000
00000000
00000000
00001000
00000000
00000000
00000000
00000000
00000000
00000000
00000000
00000000
00000000
00000000
00000000
00000200
00000300
00000000
00000000
00000000
00000000
00000000
00000000
00000000
00000000
00000000
00000000
00000000
00000000
00000000
00000000
00000000
00000000
00000000
00000000
00000000
00000000
00000000
00000000
00000200
00000300
00000000
00000000
00000000
00000000
00000000
00000000
00000000
00000000
00000000
00000000
00000000
00000000
00000000
00000000
00000000
00000000
00000000
00000000
00000000
00000000
00000000
00000000
00000001
00000000
00000000
00000000
00000000
00000000
00000000
00000000
00000000
00000000
00000000
00000000
00000000
00000000
00000000
00000000
00000000
00000000
00000000
00000000
00000000
00000000
00000000
00000000
00000000
00000000
00000000
00000000
00000000
00000000
00000000
00000000
00000000
00000000
00000000
00000000
00000000
00000000
00000000
00000000
00000000
00000000
00000000
00000000
00000000
00000000
00000000
00000000
,
00001000
00000100
00000100
00000010
00001000
00000001
00000010
00000100
00000000
00000000
00010000
00000000
00011000
00000000
00000000
00000000
,
00001000
01000000
01000000
00100000
00010000
10000000
00100000
01000000
00000000
00000000
00010000
00000000
00110000
00000000
00000000
00000000
,
00100000
00000000
00100000
00000000
01000000
00000000
01000000
00000000
10000000
00010000
10000000
00010000
10000000
00010000
10000000
00010000
,
01000000
00000000
00100000
00000000
00010000
00000000
00001000
00000000
00010000
00000100
00000010
00000000
00000001
00000000
00000000
00000000
,
00002000
00000100
00000000
00000001
00000000
00003010
00001000
00000000
00020000
01000000
00000000
10000000
00000000
00130000
00001000
00000000
,
00010000
00000000
00000000
00000100
00000000
00000000
00000000
00000000
00000000
00000010
00000000
00000000
00000000
00000000
00000000
00000100
00000000
00000000
00010000
00000000
00000000
00000000
00000000
00000000
00001000
00000000
00000000
00000000
00010000
00000000
00000000
00000000
00100000
00000000
00000000
00000000
02000000
00000000
00000000
00000000
00000000
00000000
03000000
00000000
00000000
00000000
00000000
00000000
,
00000000
00000000
01100000
00000000
10000000
00010000
00000000
01000000
00000000
00010000
10000000
00000000
01000000
00100000
00010000
00100000
,
00001000
00000000
00000000
00000000
00000000
00000000
00010000
00000000
00001000
00000000
00010000
00000000
00001000
00000000
00000000
00010000
00000000
00000000
00000010
00000000
00000000
00001000
00000000
00000000
00000001
00000000
00000000
00000000
00000000
00000000
00000010
00000000
00000000
00000000
00000000
00000000
00000100
00000000
00000000
00000000
00000000
00000000
00001000
00000000
00000000
00000000
00000000
00000000
,
00000020
00000100
00000000
00001000
00000000
00010030
00001000
00000000
02000000
00100000
00000000
00010000
00000000
03001000
00010000
00000000
,
01000000
00100000
00010000
00100000
00000000
00001000
00010000
00000000
00000100
00001000
00000010
00000100
00000002
00000000
00000003
00000000
,
00000200
00000300
00000000
00000000
00000200
00000300
00000000
00000000
00000200
00000300
00000000
00000000
00000200
00000300
00000000
00000000
,
00000100
00000100
00000100
00000100
00000100
00000100
00000100
00000100
00000100
00000000
00000100
00000000
00000100
00000000
00000100
00000000
,
00000200
00000000
00000000
00000000
,
00000000
00000000
00000000
00000310
,
00001000
00000000
00000001
00000000
00000100
00000000
00000001
00000100
00000000
00001000
00000000
00010000
00001000
00000000
00010000
00000000
,
00100000
00000000
10000000
00000000
00010000
00000000
10000000
01000000
00000000
00010000
00000000
00001000
00010000
00000000
00001000
00000000
,
00000010
00000000
00000001
00000000
00001000
00000000
00000100
00000010
00000000
00000001
00000000
00001000
00000001
00000100
00000010
00001000
,
00000010
00000000
00010000
00001000
00010000
00000000
00001000
00100000
00000000
00010000
00000000
10000000
00100000
01000000
00010000
10000000
,
01000000
01000000
00010000
10000000
01000000
01000000
00010000
00000000
00100000
00000000
00001000
00000000
00010000
00000000
00000010
00001000
,
00000100
00000100
00000001
00001000
00000100
00000100
00000010
00000000
00010000
00000000
00001000
00000000
00100000
00000000
00010000
10000000
,
01000000
01000000
00010000
10000000
01000000
01000000
00010000
10000000
01000000
01000000
00010000
10000000
01000000
01000000
00010000
10000000
,
01000000
00100000
00000000
00001000
00010000
00000000
00000010
00001000
00000100
00000100
00000000
00000001
00000010
00000000
00000100
00000100
,
00000010
00000000
00000000
00001000
00000110
00000001
00001001
00000000
,
00001000
00000000
00000000
00000000
00000000
00000000
00000000
00000000
00000000
00000000
00000000
00000000
00000000
00000000
00000000
00000000
00000000
00000000
00000000
00000000
00000000
00000000
00000000
00000000
00000001
00000000
00000000
00000000
00000000
00000000
00000000
00000000
00000000
00000000
00000000
00000000
00000000
00000000
00000000
00000000
00000000
00000000
00000000
00000000
00000000
00000000
00000000
00000000
00000100
00000000
00000000
00000000
00000000
00000000
00000000
00000000
00000000
00000000
00000000
00000000
00000000
00000000
00000000
00000000
00000000
00000000
00000000
00000000
00000000
00000000
00000000
00000000
00000010
00000000
00000000
00000000
00000000
00000000
00000000
00000000
00000000
00000000
00000000
00000000
00001000
00000000
00000000
00000000
00000000
00000000
00000000
00000000
00000000
00000000
00000000
00000000
00000200
00000300
00000000
00000000
00000000
00000000
00000000
00000000
00000000
00000000
00000000
00000000
00000000
00000000
00000000
00000000
00000000
00000000
00000000
00000000
00000000
00000000
00000000
00000000
00000200
00000300
00000000
00000000
00000000
00000000
00000000
00000000
00000000
00000000
00000000
00000000
00000000
00000000
00000000
00000000
00000000
00000000
00000000
00000000
00000000
00000000
00000000
00000000
00000001
00000000
00000000
00000000
00000000
00000000
00000000
00000000
00000000
00000000
00000000
00000000
00000000
00000000
00000000
00000000
00000000
00000000
00000000
00000000
00000000
00000000
00000000
00000000
00000000
00000000
00000000
00000000
00000000
00000000
00000000
00000000
00000000
00000000
00000000
00000000
00000000
00000000
00000000
00000000
00000000
00000000
00000000
00000000
00000000
00000000
00000000
00000000
,
00002002
00000000
00003003
00000000
00001000
00000010
00010000
00001000
00000000
00100000
00000000
00010000
00000000
10000000
00010000
01000000
,
00000000
01000000
10000000
01000000
00000000
01000000
00010000
10000000
00000000
00100000
00000000
00010000
00000000
00001000
00010000
00000100
,
00001000
00000010
00000100
00000010
00000000
00000100
00000100
00000000
00001000
00000100
00000010
00000100
00000000
00000010
00000010
00000000
,
00001000
00000010
00010000
00001000
00000000
01000000
00010000
00000000
00100000
00000000
01000000
00000000
20020000
00000000
30030000
00000000
,
00010000
00100000
01000000
00100000
10000000
00100000
01000000
01000000
00000000
00010000
00000000
10000000
00000000
00010000
01000000
00100000
,
10000000
00100000
01000000
00100000
00010000
00100000
01000000
01000000
00000000
10000000
00000000
00010000
00200000
00000000
00300000
00000000
,
00001000
00010000
01000000
00100000
00000000
00010000
00010000
00000000
00001000
00010000
00100000
01000000
00000000
00010000
00010000
00000000
,
00001000
00010000
00000000
00000100
00000010
00000000
00001000
00000000
00000010
00000001
00000000
00000100
00000010
00000000
00001000
00000000
,
00000001
00000000
00001000
00000010
00000001
00000010
00000100
00000100
00000000
00001000
00000000
00000001
00000000
00001000
00000100
00000010
,
00000001
00001000
00000001
00000010
00001000
00000010
00000100
00000100
00000000
00000010
00000000
00010000
00002000
00000000
00003000
00000000
,
01000000
00100000
00010000
00100000
00000000
01000000
01000000
00000000
10000000
01000000
00100000
10000000
00000000
00100000
00100000
00000000
,
10000000
00010000
00000000
00000000
00000000
00000000
01000000
00001000
00000000
00000000
00000000
00000000
00010000
00000010
00000000
00000000
00002000
00000000
00000000
00000000
00003000
00000000
00000000
00000000
00000001
00000000
00000100
00000000
00000001
00000000
00000100
00000000
,
00000010
00001000
00000001
00000010
00001000
00000010
00000100
00000100
00000000
00000001
00000000
00001000
00000000
00000001
00000100
00000010
,
00001000
00000001
00001000
00000010
00000001
00000010
00000100
00000100
00000000
00001000
00000000
00000001
00000020
00000000
00000030
00000000
,
00000100
00000000
00000000
00000000
00000000
00000000
00000000
00000000
00000000
00000000
00000000
00000000
00002000
00003000
00000000
00000000
00000000
00000000
00000000
00000000
00000000
00000000
00000000
00000000
00000000
00000000
00000000
00000000
00000000
00000000
00000000
00000000
00000000
00000000
00000000
00000000
00002000
00003000
00000000
00000000
00000000
00000000
00000000
00000000
00000000
00000000
00000000
00000000
00010000
00000000
00000000
00000000
00000000
00000000
00000000
00000000
00000000
00000000
00000000
00000000
00000000
00000000
00000000
00000000
00000000
00000000
00000000
00000000
00000000
00000000
00000000
00000000
01000000
00000000
00000000
00000000
00000000
00000000
00000000
00000000
00000000
00000000
00000000
00000000
00000000
00000000
00000000
00000000
00000000
00000000
00000000
00000000
00000000
00000000
00000000
00000000
10000000
00000000
00000000
00000000
00000000
00000000
00000000
00000000
00000000
00000000
00000000
00000000
00010000
00000000
00000000
00000000
00000000
00000000
00000000
00000000
00000000
00000000
00000000
00000000
10000000
00000000
00000000
00000000
00000000
00000000
00000000
00000000
00000000
00000000
00000000
00000000
00010000
00000000
00000000
00000000
00000000
00000000
00000000
00000000
00000000
00000000
00000000
00000000
10000000
00000000
00000000
00000000
00000000
00000000
00000000
00000000
00000000
00000000
00000000
00000000
00000000
00000000
00000000
00000000
00000000
00000000
00000000
00000000
00000000
00000000
00000000
00000000
00100000
00000000
00000000
00000000
00000000
00000000
00000000
00000000
00000000
00000000
00000000
00000000
00000000
00000000
00000000
00000000
00000000
00000000
00000000
00000000
00000000
00000000
00000000
00000000
,
01000000
00000000
00000000
00000000
00000000
00000000
00000000
00000000
00000000
00000000
00000000
00000000
00020000
00030000
00000000
00000000
00000000
00000000
00000000
00000000
00000000
00000000
00000000
00000000
00000000
00000000
00000000
00000000
00000000
00000000
00000000
00000000
00000000
00000000
00000000
00000000
00020000
00030000
00000000
00000000
00000000
00000000
00000000
00000000
00000000
00000000
00000000
00000000
00001000
00000000
00000000
00000000
00000000
00000000
00000000
00000000
00000000
00000000
00000000
00000000
00000000
00000000
00000000
00000000
00000000
00000000
00000000
00000000
00000000
00000000
00000000
00000000
00000100
00000000
00000000
00000000
00000000
00000000
00000000
00000000
00000000
00000000
00000000
00000000
00000000
00000000
00000000
00000000
00000000
00000000
00000000
00000000
00000000
00000000
00000000
00000000
00000001
00000000
00000000
00000000
00000000
00000000
00000000
00000000
00000000
00000000
00000000
00000000
00000000
00000000
00000000
00000000
00000000
00000000
00000000
00000000
00000000
00000000
00000000
00000000
00000010
00000000
00000000
00000000
00000000
00000000
00000000
00000000
00000000
00000000
00000000
00000000
00000000
00000000
00000000
00000000
00000000
00000000
00000000
00000000
00000000
00000000
00000000
00000000
00000100
00000000
00000000
00000000
00000000
00000000
00000000
00000000
00000000
00000000
00000000
00000000
00000000
00000000
00000000
00000000
00000000
00000000
00000000
00000000
00000000
00000000
00000000
00000000
00010000
00000000
00000000
00000000
00000000
00000000
00000000
00000000
00000000
00000000
00000000
00000000
00000000
00000000
00000000
00000000
00000000
00000000
00000000
00000000
00000000
00000000
00000000
00000000
,
00001000
00000000
00010000
00001000
00100000
00000000
00010000
01000000
00100000
00000000
10000000
00010000
00100000
00000000
00010000
01000000
,
00100000
00000000
00010000
00001000
00100000
00000000
00001000
00010000
00000100
00000000
00001000
00000010
00000100
00000000
00000001
00001000
,
00000100
00000000
00001000
00000010
00000100
00000000
00001000
00010000
00000100
00000000
00010000
00001000
00100000
00000000
00010000
00000000
,
01000000
01000000
00000000
10010000
00000000
01000000
01000000
00000000
00100000
00000000
01000000
00000000
20020000
00000000
30030000
00000000
,
20000000
30000000
02000000
03000000
,
00010000
00010000
00010000
00000000
00001000
00001000
00001000
00000000
00022000
00000000
00000000
00000000
00033000
00000000
00000000
00000000
,
00000000
00000000
00000000
00000000
;
