
//----- song ID: neok -----//
#TITLE:寝起きヤシの木;
#ARTIST:Yukopi;
#TITLETRANSLIT:Neoki yashi no ki;
#BANNER:Neoki yashi no ki.png;
#BACKGROUND:Neoki yashi no ki-bg.png;
#CDTITLE:./CDTitles/DDR WORLD.png;
#MUSIC:Neoki yashi no ki.ogg;
#SAMPLESTART:50.607;
#SAMPLELENGTH:15;
#BPMS:0=160;
#NOTES:
     dance-single:
     :
     Beginner:
     2:
     :
0000
0000
0000
0000
,
0000
0000
0000
0000
,
0000
0000
0000
0000
,
0000
0000
0000
0000
,
0000
0000
0000
0000
,
0000
0000
0000
0000
,
0001
0000
0000
0000
,
0001
0000
0000
0000
,
1000
0000
0000
0000
,
1000
0000
0000
0000
,
0010
0000
0000
0000
,
0010
0000
0000
0000
,
0100
0000
0000
0000
,
0100
0000
0000
0000
,
0010
0000
0000
0000
,
0010
0000
0000
0000
,
0100
0000
0000
0000
,
0100
0000
0000
0000
,
0001
0000
0000
0000
,
0000
0000
0000
0000
,
1000
0000
0000
0000
,
0000
0000
0000
0000
,
0001
0000
0000
0000
,
0000
0000
0000
0000
,
1000
0000
0000
0000
,
0000
0000
0000
0000
,
0001
0000
0000
0000
,
0001
0000
0000
0000
,
1000
0000
0000
0000
,
1000
0000
0000
0000
,
0010
0000
0000
0000
,
0010
0000
0000
0000
,
0100
0000
0000
0000
,
0200
0000
0300
0000
,
0001
0000
0000
0000
,
0010
0000
0000
0000
,
0100
0000
0000
0000
,
1000
0000
0000
0000
,
1000
0000
0000
0000
,
0100
0000
0000
0000
,
0010
0000
0000
0000
,
0001
0000
0000
0000
,
1000
0000
0000
0000
,
1000
0000
0000
0000
,
1000
0000
0000
0000
,
1000
0000
0000
0000
,
0001
0000
0000
0000
,
0001
0000
0000
0000
,
0001
0000
0000
0000
,
0001
0000
0000
0000
,
0100
0000
0000
0000
,
0100
0000
0000
0000
,
0010
0000
0000
0000
,
0010
0000
0000
0000
,
0100
0000
0000
0000
,
0100
0000
0000
0000
,
0010
0000
0000
0000
,
0010
0000
0000
0000
,
1000
0000
0000
0000
,
0001
0000
0000
0000
,
0100
0000
0000
0000
,
0010
0000
0000
0000
,
1000
0000
0000
0000
,
0001
0000
0000
0000
,
0010
0000
0000
0000
,
0100
0000
0000
0000
,
1000
0000
0000
0000
,
1000
0000
0000
0000
,
0001
0000
0000
0000
,
0001
0000
0000
0000
,
1000
0000
0000
0000
,
1000
0000
0000
0000
,
0001
0000
0000
0000
,
0001
0000
0000
0000
,
0200
0000
0000
0000
,
0000
0000
0000
0300
,
0000
0000
0000
0000
;
#NOTES:
     dance-single:
     :
     Easy:
     4:
     :
0000
0000
0000
0000
,
0000
0000
0000
0000
,
0000
0000
0000
0000
,
0000
0000
0000
0000
,
0000
0000
0000
0000
,
0000
0000
0000
0000
,
0001
0000
0001
0000
,
0001
1000
0010
0000
,
1000
0000
1000
0000
,
1000
0001
0100
0000
,
0010
0000
0010
0000
,
1000
0001
1000
0001
,
0100
0000
0100
0000
,
0001
1000
0001
1000
,
0010
0000
0010
0000
,
1000
0001
1000
0001
,
0100
0000
0100
0000
,
0001
1000
0001
1000
,
0010
0000
0000
0000
,
0010
0000
0000
0000
,
0010
0000
0000
0000
,
0010
0000
0000
0000
,
0010
0000
0000
0000
,
0000
0000
0000
0000
,
1000
0000
0000
0000
,
0001
0001
0000
0000
,
0001
0100
0001
0000
,
0001
0100
0010
0000
,
1000
0100
1000
0000
,
1000
0100
0010
0000
,
0001
0000
0001
0000
,
0001
0000
0001
0000
,
0001
0000
1000
0000
,
0010
0010
0010
0000
,
1000
0000
0001
0000
,
1000
0100
0010
0000
,
0001
0000
1000
0000
,
0001
0100
0010
0000
,
1000
0000
0001
0000
,
1000
0100
0010
0000
,
0001
0000
1000
0000
,
0001
0100
0010
0000
,
2000
3000
0200
0300
,
0020
0030
0002
0003
,
1000
0000
1000
0000
,
0001
0000
0001
0000
,
0100
0100
0100
0000
,
0010
0010
0010
0000
,
1000
1000
0100
0100
,
0010
0010
0001
0001
,
0100
0000
0100
0000
,
0001
0001
1000
1000
,
0010
0000
0010
0000
,
1000
1000
0001
0001
,
0100
0000
0100
0000
,
0001
0001
1000
1000
,
0010
0000
0010
0000
,
1000
1000
0001
0001
,
0100
0000
0100
0000
,
0001
0001
0010
0100
,
1000
0000
1000
0000
,
0010
1000
0001
0000
,
0100
0000
0010
0000
,
1000
0001
1000
0000
,
0001
0000
0100
0000
,
0001
0010
0100
0000
,
1000
0000
1000
0000
,
0001
0100
0001
0100
,
0010
0000
0010
0000
,
1000
0100
1000
0100
,
0010
0000
0010
0000
,
0001
1000
0001
1000
,
0010
0000
0010
0000
,
0100
0100
0001
1000
,
0001
0000
0000
0000
0200
0000
0000
0300
,
0000
0100
0000
0100
,
0000
0000
0000
0000
;
#NOTES:
     dance-single:
     :
     Medium:
     8:
     :
0000
0000
0000
0000
,
0000
0000
0000
0000
,
0000
0000
0000
0000
,
0000
0000
0000
0000
,
0000
0000
0000
0000
,
0000
0000
0000
0000
,
0001
1000
0001
1000
,
0010
0000
0100
0000
0001
0001
0001
0000
,
0010
0100
1000
0001
,
0100
0000
0000
0000
0010
0000
0000
0000
0010
0000
0000
0010
0000
0000
0010
0000
,
1000
0000
0100
0000
1000
0010
0000
0100
,
0000
0000
0000
0000
0001
0001
0001
0000
,
1000
0000
0001
0000
0100
0010
0000
0002
,
0000
0003
0000
0000
0010
0000
1000
0000
,
0001
0000
0100
0000
0010
1000
0000
0010
,
0100
0001
1000
1000
,
0100
0000
0010
0000
0001
1000
0000
0010
,
0100
0000
0100
0000
0001
1000
0001
0000
,
0010
0010
0010
0010
,
0010
0010
0001
0001
,
1000
0010
1000
0010
,
0100
0001
0100
0001
,
1000
0000
0000
0000
,
0000
0000
0000
0000
,
0001
0001
1000
0010
,
0100
0000
0100
0000
0001
0010
0100
0000
,
1000
0001
1000
0001
,
1000
0000
0100
0000
0010
0001
0010
0000
,
0100
1000
0100
1000
,
0001
0000
0100
0000
0010
1000
0010
0000
,
0100
0001
0001
0001
,
0001
0000
0001
0000
0000
0000
0001
0010
,
0100
0000
1100
0000
1000
0001
1000
0001
,
0100
0000
0001
0000
2002
3003
0000
0000
,
1000
0000
0001
0000
0100
0010
0000
0010
,
1000
0000
0001
0000
1000
0100
1000
0000
,
0100
0000
0010
0000
0001
0100
0000
0001
,
0100
0000
0010
0000
1000
0001
1000
0000
,
0100
0000
0010
0000
0001
1000
0000
1000
,
0010
0000
0100
0000
0001
0010
0001
0000
,
0010
0000
0100
0000
1000
0010
0000
1000
,
0010
0100
0001
1001
,
0002
0003
0020
0030
,
0200
0300
2000
3000
,
0002
0103
0002
0103
,
2000
3010
2000
3010
,
1000
1000
0001
0001
,
0100
0100
0010
0010
,
0110
0110
1010
1010
,
1000
0100
1000
0010
0100
0000
0101
0000
,
0001
0000
0010
0000
0001
1000
0000
0010
,
0000
0000
0000
0000
0100
0100
0100
0000
,
0001
0000
1000
0000
0100
1000
0000
0010
,
0000
0000
0000
0000
0000
0100
0100
0000
,
0001
0000
1000
0000
0001
0010
0000
0100
,
0000
0000
0000
0000
1000
1000
1000
0000
,
0001
0000
0100
0000
0010
0100
0000
0001
,
0000
1000
1000
0000
0010
0000
0110
0000
,
0000
1001
0001
1000
,
0010
0000
0100
0000
0001
0010
1000
0000
,
0010
0000
0001
0000
0100
0010
0000
1000
,
0010
0000
0100
0000
0001
1000
0001
0000
,
0010
0000
0100
0000
1000
0010
0000
0100
,
0010
0000
1000
0000
0001
0010
0001
0000
,
1000
0000
0010
0000
0100
0001
0000
1000
,
0010
0000
0100
0000
0100
0000
0000
0000
0001
0000
0000
0001
0000
0000
0001
0000
,
0010
0000
0100
0000
1000
0010
0000
0100
,
0001
0000
0001
0000
0001
0001
0001
0000
,
1000
0000
0001
0000
0001
0010
0000
0100
,
1000
0000
0000
1000
0000
0000
1000
0000
0000
0000
1000
0000
1000
0000
0000
0000
,
0001
0000
0100
0000
0010
1000
0000
1000
,
0001
0001
0001
0000
0001
0000
0001
0000
,
0100
0000
0001
0000
0010
0100
0000
1000
,
0010
0010
0010
0000
0010
0000
0010
0000
,
0200
0000
0000
0000
0010
0310
0000
0200
,
0000
0000
0300
0100
,
0000
0000
0000
0000
;
#NOTES:
     dance-single:
     :
     Hard:
     13:
     :
0000
0000
0000
0000
,
0000
0000
0000
0000
,
0000
0000
0000
0000
,
0000
0000
0000
0000
,
0000
0000
0000
0000
,
0000
0000
0000
0000
,
0001
0100
1000
0100
0001
0100
1000
0100
,
0001
1000
0001
1000
0010
0100
0100
0000
,
0001
0000
0001
0000
0100
0010
1000
0001
,
1000
0000
0100
0000
0100
0000
0000
0000
0010
0000
0000
0001
1000
0000
0001
0000
,
0010
0000
0100
0000
1000
0010
0000
1000
,
0001
0100
0001
0100
0001
0000
0100
0001
0100
0001
0100
0000
0001
0000
1000
0000
,
0010
0000
1000
0000
0001
0010
0000
0100
,
1000
0000
0010
0100
0001
1000
0001
1000
,
0010
0000
0100
0000
0001
0010
0000
0001
,
1000
0100
1000
0100
1000
0000
0100
1000
0100
1000
0100
0000
1000
0000
0001
0000
,
0010
0000
0001
0000
1000
0001
0000
0100
,
0010
0100
0010
0100
0010
0000
0100
0000
0010
0000
0010
0000
0010
0000
0000
0000
,
1000
1000
1000
1000
,
0100
0100
0010
0010
,
0001
0001
0001
0001
,
1000
1000
0001
0001
,
0000
0000
0000
0000
,
0000
0000
0000
0000
,
0001
0000
1000
0000
0001
1000
0000
0010
,
0110
0000
0110
0000
0000
0010
1000
0100
,
0001
0000
0100
0000
1000
0001
0000
0200
,
0010
0000
0001
0000
0010
0010
0310
0000
,
0100
0000
1001
0000
0001
1000
0000
0200
,
0010
0000
1000
0000
0010
0010
0310
0000
,
0100
1000
0100
1000
0010
1000
0010
1000
,
0001
0100
0001
0100
0001
0010
0001
0010
,
0100
1000
0010
0000
0100
0001
0010
0000
,
0110
0000
1001
0000
0220
0330
0000
0000
,
0001
0100
1000
0100
0001
1000
0010
0001
,
0010
1000
0001
1000
0010
0100
0100
0000
,
0001
0000
1000
0000
0100
0010
0001
1000
,
0001
0000
0100
0010
1000
0100
0100
0000
,
1000
0010
0001
0010
1000
0001
0100
1000
,
0100
0001
1000
0001
0100
0010
0010
0000
,
1000
0000
0001
0000
0100
0010
1000
0001
,
1000
0000
0100
0000
0100
0000
0000
0000
0010
0000
0000
0001
1000
0000
0000
0000
,
0001
0001
0001
0000
0001
0100
0010
0000
,
0100
0100
0001
1000
0100
0100
0010
0001
,
1000
1000
1000
0000
1000
0010
0100
0000
,
0010
0010
0010
0000
0100
0010
1001
0000
,
1010
0101
1010
0101
,
0011
1100
0011
1100
,
0110
1001
0110
1001
,
1000
0000
0001
1000
0100
0000
1000
0001
0010
0000
0100
0000
0100
0000
0000
0000
,
0010
0000
0001
0000
0100
0010
0000
1000
,
0001
0010
0001
0010
0001
0000
0010
0001
0010
0001
0010
0000
0001
0000
1000
0000
,
0010
0000
0100
0000
0001
0010
0000
0100
,
1000
0000
0000
0001
1000
0000
0010
0000
0000
0000
0100
0000
1001
0000
0000
0000
,
0001
0000
1000
0000
0100
0010
0000
0001
,
1000
0010
1000
0010
1000
0000
0010
1000
0010
1000
0010
0000
1000
0000
0001
0000
,
0100
0000
0010
0000
1000
0001
0000
0100
,
0110
0000
0001
0000
1000
0000
0000
0000
0100
0000
0000
0000
0010
0000
0010
0001
,
1000
0001
0011
0000
1200
0000
0010
0000
,
0301
0100
1000
0001
0100
0010
1000
0000
,
0001
0100
1000
0100
0010
1000
0001
0100
,
1000
0001
0010
1000
0001
0100
0010
0000
,
1000
0010
0001
0010
0100
0001
1000
0010
,
0001
1000
0100
0001
1000
0010
0100
0000
,
0001
0000
1000
0000
0100
0010
0001
1000
,
0001
0000
0100
0000
0100
0000
0000
0000
0010
0000
0000
1000
0001
0000
1000
0000
,
0100
0000
0010
0000
0001
0100
0000
0010
,
1000
0010
1000
0010
1000
0000
0001
0100
0001
0100
0001
0000
0100
0000
0010
0000
,
1000
0000
0100
0000
0010
0001
0000
1000
,
0010
0000
0000
1000
0001
0000
0010
0000
0000
0000
0100
0000
1001
0000
0000
0000
,
1000
0000
0001
0000
1000
0100
0000
0010
,
0001
0010
0001
0010
0001
0000
1000
0100
1000
0100
1000
0000
0100
0000
0010
0000
,
0001
0000
0100
0000
0001
1000
0000
0010
,
0100
0010
0100
0010
0100
0000
0010
0000
0100
0000
0001
0000
1000
0000
0000
0000
,
0200
0000
0000
0000
0010
0310
0000
0110
,
0000
0010
0001
1000
0020
0000
0130
0000
,
0000
0000
0000
0000
;
#NOTES:
     dance-double:
     :
     Easy:
     4:
     :
00000000
00000000
00000000
00000000
,
00000000
00000000
00000000
00000000
,
00000000
00000000
00000000
00000000
,
00000000
00000000
00000000
00000000
,
00000000
00000000
00000000
00000000
,
00000000
00000000
00000000
00000000
,
00010000
00000000
00001000
00100000
,
00010000
00000000
01000000
01000000
,
00100000
00000000
10000000
01000000
,
00010000
00000000
00001000
00001000
,
00010000
00000100
00001000
00000000
,
00001000
00001000
00001000
00000000
,
00000001
00000100
00000010
00000000
,
00010000
00010000
00010000
00000000
,
00001000
00100000
00010000
00000000
,
10000000
10000000
10000000
00000000
,
00100000
01000000
00010000
00000000
,
00010000
00100000
00001000
00011000
,
00000000
00000000
00000000
00000000
,
00000010
00000000
00000000
00000000
,
00001000
00000000
00001000
00000000
,
00000001
00000000
00000001
00000000
,
00000001
00000000
00000000
00000000
,
00000000
00000000
00000000
00000000
,
00000001
00000000
00000100
00000000
,
00000100
00000100
00000001
00001001
,
00001000
00000000
00000001
00000010
,
00000100
00000000
00010000
00010000
,
00001000
00000000
00001000
00010000
,
00000100
00000000
00000100
00001000
,
00000001
00000001
00000001
00000001
,
00000001
00000000
00000001
00000000
,
00000100
00000110
00000001
00001000
,
00000010
00000000
00010000
00000000
00022000
00033000
00000000
00000000
,
00001000
00010000
00001000
00000000
,
01000000
00010000
00100000
00000000
,
01000000
10000000
00010000
00000000
,
01000000
00010000
00100000
00000000
,
00001000
00010000
00000100
00000000
,
00001000
00000010
00000100
00000000
,
00000001
00001000
00000100
00000000
,
00001000
00000001
00001000
00000000
,
00000002
00000003
00000200
00000300
,
00002000
00003000
00020000
00030000
,
00002000
00003000
00200000
00300000
,
02000000
03000000
20000000
30000000
,
00100000
00100000
00100000
00000000
,
01000000
01000000
01000000
00000000
,
00001000
00001000
00010000
00010000
,
00001000
00010000
00011000
00000000
,
00001000
00000000
00001000
00000000
,
00010000
00000100
00010000
00000100
,
00001000
00000000
00001000
00000000
,
00000001
00000100
00000001
00000100
,
00000010
00000000
00000010
00000000
,
00001000
00000100
00001000
00000100
,
00010000
00000000
00010000
00000000
,
00001000
00100000
00001000
00100000
,
00000000
00110000
00100000
00001000
,
00010000
00001000
00000100
00000001
,
00000001
00000010
00000100
00000000
,
00001000
00000100
00010000
00000000
,
00001000
00100000
00010000
00000000
,
00100000
01000000
10000000
00000000
,
00010000
01000000
00100000
00000000
,
01000000
00010000
10000000
00000000
,
10000000
00000000
00010000
00000000
,
10000000
01000000
00010000
00000000
,
00001000
00000000
00010000
00000000
,
00001000
00000010
00000001
00000000
,
00001000
00000000
00000001
00000000
,
00000001
00000100
00001000
00000000
,
00010000
00000000
00001000
00000000
,
00010000
00001000
00010000
00000000
,
00011000
00000000
00000000
00000000
00022000
00000000
00000000
00003000
,
00000000
00000000
00030000
00010000
,
00000000
00000000
00000000
00000000
;
#NOTES:
     dance-double:
     :
     Medium:
     8:
     :
00000000
00000000
00000000
00000000
,
00000000
00000000
00000000
00000000
,
00000000
00000000
00000000
00000000
,
00000000
00000000
00000000
00000000
,
00000000
00000000
00000000
00000000
,
00000000
00000000
00000000
00000000
,
00001000
00000000
00010000
00000000
00000100
00001000
00000000
00000010
,
00000000
00000000
00000000
00000000
00001000
00001000
00001000
00000000
,
00000001
00000000
00000100
00000000
00000001
00000010
00000000
00000001
,
00000000
00000000
00000000
00000000
00000000
00000000
00000000
00000000
00000100
00000000
00000000
00000100
00000000
00000000
00000100
00000000
,
00000100
00000000
00000001
00000000
00001000
00000010
00000000
00000100
,
00000001
00000100
00001000
00010000
,
00000010
00000000
00001000
00000000
00000100
00010000
00000000
00200000
,
00000000
00300000
00000000
00000000
00000000
00000000
00000000
00000000
,
01000000
00000000
00010000
00000000
10000000
01000000
00000000
00010000
,
01000000
10000000
00100000
00100000
,
01000000
00000000
00100000
00000000
00010000
00001000
00000000
00010000
,
00000100
00000010
00001000
00011000
,
00010000
00010000
00010000
00010000
,
00001000
00001000
00100000
00100000
,
00010000
01000000
00010000
01000000
,
00010000
00100000
00010000
00100000
,
01000000
00000000
00000000
00000000
,
00000000
00000000
00000000
00000000
,
10000000
10000000
00010000
01000000
,
00001000
00000000
00011000
00000000
00010000
00001000
00010000
00000000
,
00001000
00000010
00000001
00000001
,
00000100
00000000
00001000
00000000
00010000
00001000
00010000
00000000
,
00200000
00300000
10000000
10000000
,
01000000
00000000
00010000
00000000
00001000
00010000
00001000
00000000
,
00020000
00030200
00000320
00000032
,
00001003
00000000
00000001
00000000
00000001
00000000
00000001
00000010
,
00000100
00000000
00001100
00000000
00010000
00001000
00010000
00001000
,
01000000
00000000
00010000
00000000
20020000
30030000
00000000
00000000
,
10000000
00000000
00100000
00000000
01000000
00010000
00000000
00010000
,
00100000
00000000
00001000
00000000
00010000
00001000
00010000
00000000
,
00000100
00000000
00001000
00000000
00000001
00000100
00000000
00000100
,
00000010
00000000
00001000
00000000
00000001
00000010
00000001
00000000
,
00001000
00000000
00000010
00000000
00000100
00000010
00000000
00001000
,
00000010
00000000
00010000
00000000
00001000
00010000
00001000
00000000
,
00010000
00000000
00100000
00000000
01000000
00010000
00000000
00010000
,
10000000
00000000
01000000
00000000
10000000
00000000
00100000
00100000
,
02000000
03000000
00020000
00030000
,
00200000
00300000
00002000
00003000
,
00020000
00031000
00200000
00310000
,
02000000
03100000
20000000
31000000
,
10000000
10010000
00010000
00110000
,
00100000
00101000
00001000
00011000
,
00010000
00010100
00000100
00001100
,
00001000
00000001
00001000
00000010
00000100
00000000
00000101
00000000
,
00000001
00000000
00001000
00000000
00000001
00000010
00000000
00000100
,
00000000
00000000
00000000
00000000
00010000
00010000
00010000
00000000
,
00001000
00000000
01000000
00000000
00010000
00100000
00000000
01000000
,
00000000
00000000
00000000
00000000
10000000
10000000
10000000
00000000
,
00010000
00000000
01000000
00000000
00001000
00010000
00000000
00000100
,
00000000
00000000
00000000
00000000
00000010
00000010
00000010
00000000
,
00000100
00000000
00001000
00000000
00000010
00000100
00000000
00000001
,
00000000
00001000
00001000
00000000
00000100
00000000
00010000
00000000
,
00010100
00011000
00001000
01000000
,
00100000
00000000
00010000
00000000
00001000
00000100
00000010
00000000
,
00010000
00000000
00001000
00000000
00000010
00000001
00000000
00000001
,
00000100
00000000
00000010
00000000
00010000
00001000
00010000
00000000
,
00001000
00000000
01000000
00000000
00010000
00100000
00000000
01000000
,
00100000
00000000
00010000
00000000
01000000
00010000
01000000
00000000
,
00010000
00000000
00100000
00000000
00001000
00010000
00000000
00000010
,
00010000
00000000
00001000
00000000
00001000
00000000
00000000
00000000
00010000
00000000
00000000
00010000
00000000
00000000
00010000
00000000
,
00000010
00000000
00001000
00000000
00000001
00000010
00000000
00000100
,
00001000
00000000
00001000
00000000
00001000
00001000
00001000
00000000
,
00000010
00000000
00010000
00000000
00001000
00010000
00000000
00100000
,
01000000
00000000
00000000
01000000
00000000
00000000
01000000
00000000
00000000
00000000
00100000
00000000
00100000
00000000
00000000
00000000
,
10000000
00000000
10000000
00000000
00010000
00100000
00000000
00001000
,
00010000
00000000
00010000
00000000
00010000
00010000
00010000
00000000
,
00000010
00000000
00001000
00000000
00000100
00000010
00000000
00000100
,
00001000
00000000
00001000
00000000
00000010
00000010
00000010
00000000
,
00020000
00000000
00000000
00000000
00031000
00001000
00000000
00010000
,
00000000
00001000
00010000
00001000
00020000
00000000
00030000
00000000
,
00000000
00000000
00000000
00000000
;
#NOTES:
     dance-double:
     :
     Hard:
     13:
     :
00000000
00000000
00000000
00000000
,
00000000
00000000
00000000
00000000
,
00000000
00000000
00000000
00000000
,
00000000
00000000
00000000
00000000
,
00000000
00000000
00000000
00000000
,
00000000
00000000
00000000
00000000
00000000
00000000
00010000
00001000
,
00010000
00000000
00000100
00000000
00010000
00001000
00000000
00000010
,
00000000
00000001
00000010
00000100
00001000
00001000
00001000
00000000
,
00000010
00000000
00010000
00000000
00001000
00010000
00000000
00011000
,
00000000
00000000
00001000
00000000
00001000
00000000
00000000
00000000
01000000
00000000
00000000
00010000
00000000
00000000
00100000
00000000
,
00001000
00000000
01000000
00000000
00010000
00100000
00000000
01000000
,
10000000
01000000
10000000
01000000
10000000
00000000
00010000
00100000
00010000
00100000
00010000
00000000
00100000
00000000
00100000
00000000
,
00001000
00000000
00010000
00000000
00001000
00100000
00000000
20000000
,
30100000
00000000
00010000
01000000
00100000
00010000
00001000
00001000
,
00010000
00000000
00000010
00000000
00001000
00000100
00000000
00000010
,
00000001
00000010
00000001
00000010
00000001
00000000
00001000
00000100
00001000
00000100
00001000
00000000
00000100
00000000
00000100
00000000
,
00010000
00000000
00001000
00000000
00010000
00000010
00000000
00001000
,
00000010
00000100
00000010
00000100
00000010
00000000
00001000
00000000
00000001
00000000
00000010
00000000
00000100
00000000
00000000
00000000
,
00010000
00001000
00010000
00001000
,
00010000
00001000
01000000
00010000
,
10000000
01000000
00100000
00010000
,
10000000
00100000
00010000
00001000
,
00011000
00000000
00000000
00000000
,
00000000
00000000
00000000
00000000
,
00001000
00000000
00000010
00000000
00000001
00000100
00000000
00000010
,
00001000
00000000
00001000
00000000
00000010
00010000
00011000
00000000
,
00010000
01000000
00010000
01000000
00100000
00001000
00100000
00001000
,
00010000
00100000
00010000
00100000
10000000
10000000
10000000
00000000
,
01000000
00010000
01000000
00010000
00001000
00000010
00001000
00000010
,
00000100
00010000
00000100
00010000
00001000
00010000
00001000
00000000
,
00020000
00032000
00003200
00000320
,
00000032
00000000
00000013
00000000
00000100
00000001
00000001
00000000
,
00000011
00000000
00001100
00000000
00010000
00001000
00000000
01000000
,
00100000
00000000
10100000
00000000
20020000
30030000
00000000
00000000
,
10000000
00100000
10000000
00100000
00010000
00001000
00010000
00001000
,
00000010
00000001
00000010
00000001
00000100
00001000
00010000
00000000
,
00100000
01000000
00100000
01000000
00001000
00010000
00001000
00010000
,
00000100
00000010
00001000
00010000
00001000
01000000
00100000
00000000
,
10000000
00100000
10000000
00100000
00010000
00001000
00010000
00001000
,
00100000
01000000
00100000
01000000
00010000
00001000
00000100
00000000
,
00000010
00001000
00000100
00010000
00001000
01000000
00010000
00100000
,
00001000
00010000
00010000
00000000
00000100
00000010
00000011
00000000
,
00000001
00000100
00001000
00000000
00001000
00010000
00100000
00000000
,
00100000
10000000
01000000
10000000
01000000
00010000
00001000
00010000
,
00001000
00000010
00000001
00000000
00000001
00000010
00001000
00000000
,
00001000
00010000
01000000
00000000
01000000
10000000
00100000
00000000
,
00020000
00001000
00000010
00031000
,
00002000
01000000
00010000
01003000
,
00011000
00011000
00101000
00101000
,
00001000
00000000
00010000
00001000
00010000
00000000
00000100
00001000
00000100
00000000
00001000
00000000
00001010
00000000
00000000
00000000
,
00000010
00000000
00010000
00000000
00001000
00100000
00000000
01000000
,
10000000
01000000
10000000
01000000
10000000
00000000
01000000
10000000
01000000
10000000
01000000
00000000
00100000
00000000
00010000
00000000
,
00100000
00000000
00001000
00000000
00010000
00000010
00000000
00000100
,
00000001
00000000
00000000
00000010
00000100
00000000
00010000
00000000
00000000
00000000
00001000
00000000
01000000
00000000
00000000
00000000
,
01100000
00000000
00100000
00000000
00010000
00001000
00000000
00100000
,
00001000
00010000
00001000
00010000
00001000
00000000
00010000
00001000
00010000
00001000
00010000
00000000
00000100
00000000
00010000
00000000
,
00001000
00000000
00000010
00000000
00000100
00010000
00000000
00001000
,
00000000
00100000
00100000
00000000
00110000
00000000
11000000
00000000
,
00100000
00010000
00101000
00000000
00001000
00010000
00001000
00010000
,
00000100
00000010
00001000
00010000
01000000
10000000
00100000
00000000
,
00010000
00001000
00010000
00000100
00010000
00001000
00010000
01000000
,
00010000
00001000
00010000
00000100
00000010
00000001
00000001
00000000
,
00001000
00000010
00010000
00001000
00000100
00000010
00001000
00000100
,
00000001
00000100
00010000
00001000
00010000
00100000
01000000
00000000
,
00001000
00010000
01000000
00100000
00001000
00010000
00001000
00000100
,
00000010
00000000
00001000
00000000
00001000
00000000
00000000
00000000
00000001
00000000
00000000
00000010
00000000
00000000
00000100
00000000
,
00010000
00000000
00001000
00000000
00010000
00000100
00000000
00001000
,
00000100
00001000
00000100
00001000
00000100
00000000
00010000
00001000
00010000
00001000
00010000
00000000
00001000
00000000
00000010
00000000
,
00000001
00000000
00001000
00000000
00000010
00010000
00000000
00001000
,
00010000
00000000
00000000
00100000
10000000
00000000
00010000
00000000
00000000
00000000
00100000
00000000
00100000
00000000
00000000
00000000
,
00001000
00000000
00010000
00000000
00001000
00100000
00000000
00010000
,
00100000
00010000
00100000
00010000
00100000
00000000
00001000
00010000
00001000
00010000
00001000
00000000
00010000
00000000
01000000
00000000
,
10000000
00000000
00100000
00000000
00010000
00001000
00000000
00010000
,
00001000
00010000
00001000
00010000
00001000
00000000
00010000
00000000
00010000
00000000
00020000
00000000
00031000
00000000
00010000
00000000
,
00001000
00000000
00001000
00000000
00100000
00001000
00000000
00021000
,
00000000
00001000
00001000
00001000
00031000
00000000
00010000
00000000
,
00000000
00000000
00000000
00000000
;
