
//----- song ID: naqu -----//
#TITLE:謎解き☆クイーン!;
#ARTIST:音戯探偵ひなビタ♫;
#TITLETRANSLIT:Nazotoki queen!;
#ARTISTTRANSLIT:Otogi tantei HinaBitter;
#BANNER:Nazotoki queen!.png;
#BACKGROUND:Nazotoki queen!-bg.png;
#CDTITLE:./CDTitles/DDR WORLD.png;
#MUSIC:Nazotoki queen!.ogg;
#SAMPLESTART:42.383;
#SAMPLELENGTH:15;
#BPMS:0=128;
#BGSTAGE:;
#NOTES:
     dance-single:
     :
     Beginner:
     1:
     :
0000
0000
0000
0000
,
0000
0000
0000
0000
,
0000
0000
0000
0000
,
0000
0000
0000
0000
,
0000
0000
0000
0000
,
1000
0000
0000
0000
,
1000
0000
0000
0000
,
0001
0000
0000
0000
,
0001
0000
0000
0000
,
1000
0000
0000
0000
,
0001
0000
0000
0000
,
1000
0000
1000
0000
,
1000
0000
0000
0000
,
0001
0000
0000
0000
,
1000
0000
0000
0000
,
0001
0000
0001
0000
,
0001
0000
0000
0000
,
1000
0000
0000
0000
,
0001
0000
0000
0000
,
1000
0000
1000
0000
,
0001
0000
0002
0003
,
0000
0000
0000
0000
,
2000
3000
0000
0000
,
1000
0000
1000
0000
,
1000
0000
0000
0000
,
0001
0000
0001
0000
,
0001
0000
0000
0000
,
0010
0000
0000
0000
,
0010
0000
0000
0000
,
0100
0000
0000
0000
,
0100
0000
0000
0000
,
1000
0000
0000
0000
,
0001
0000
0000
0000
,
1000
0000
0000
0000
,
0001
0000
0000
0000
,
0010
0000
0000
0000
,
0100
0000
0000
0000
,
0010
0000
0000
0000
,
0100
0000
0000
0000
,
1000
0000
0000
0000
,
1000
0000
1000
0000
,
1000
0000
0000
0000
,
0001
0000
0001
0000
,
0001
0000
0000
0000
,
1000
0000
0000
0000
,
1000
0000
0000
0000
,
0001
0000
0000
0000
,
0001
0000
0000
0000
,
1000
0000
0000
0000
,
0010
0000
0000
0000
,
0010
0000
0000
0000
,
0100
0000
0000
0000
,
0100
0000
0000
0000
,
0001
0000
0000
0000
,
1000
0000
0000
0000
,
0001
0000
0000
0000
,
1000
0000
0000
0000
,
0002
0000
0000
0003
,
0000
0000
0000
0000
;
#NOTES:
     dance-single:
     :
     Easy:
     5:
     :
0000
0000
0000
0000
,
0000
0000
0000
0000
,
0000
0000
0000
0000
,
0000
0000
0000
0000
,
0000
0000
0000
0000
,
1000
0001
1000
1000
,
0001
1000
0001
0001
,
0001
0010
0100
1000
,
0001
0001
1001
0000
,
1000
0000
1000
0000
,
0001
0000
0001
0000
,
0010
0000
0010
0000
,
0100
0000
0100
0000
,
0000
1000
0000
1000
,
0000
0001
0000
0001
,
0000
0010
0000
0010
,
0000
0100
0000
0100
,
2000
0000
3001
0000
,
0002
0000
1003
0000
,
0020
0000
0130
0000
,
0001
1000
0001
2000
,
0000
0000
0000
0000
,
3002
0000
0003
0000
,
0000
1001
0001
1000
,
0010
0100
0001
0000
,
0000
1001
1000
0001
,
0010
0100
1000
0000
,
0000
0011
0001
1000
,
0001
0010
0100
1000
,
0000
1010
1000
0001
,
1000
0000
0001
0000
,
0020
0000
0000
0030
,
0001
0001
0010
0100
,
1000
1000
0010
0100
,
0002
0000
1000
1003
,
0000
1001
0001
1000
,
0010
0100
0001
0010
,
0000
0110
0100
0010
,
0001
1000
0010
0100
,
0000
0000
0000
0000
,
0000
1000
0000
1000
,
0000
0001
0000
0001
,
0000
0010
0000
0010
,
0000
0100
0000
0100
,
0000
1001
0001
0100
,
0010
1000
0001
0000
,
0000
1001
1000
0100
,
0010
0000
0100
0000
,
1000
0000
0001
0000
,
0000
0011
0010
0001
,
1000
0001
1000
0000
,
0000
1010
0010
1000
,
0001
1000
0001
0000
,
0000
1001
1000
0010
,
1000
0001
0100
0000
,
0000
0110
0010
0100
,
0001
0000
1000
0000
,
0020
0000
0000
0030
,
0000
0000
0000
0000
;
#NOTES:
     dance-single:
     :
     Medium:
     10:
     :
0000
0000
0000
0000
,
0000
0000
0000
0000
,
0000
0000
0000
0000
,
0000
0000
0000
0000
,
0000
0000
0000
0000
,
1000
0000
0000
0000
0100
0000
0000
0000
0001
0000
0000
0100
0000
0000
1000
0000
,
0000
0000
0010
0000
0000
0001
0000
0000
0010
0000
0000
1000
0000
0000
0000
0000
,
1010
0000
0000
0000
0010
0000
0000
0000
1000
0000
0000
0001
0000
0000
0011
0000
,
0000
0000
0010
0000
0010
0001
0000
0000
1100
0000
0000
0000
0000
0000
0000
0000
,
0100
0000
0010
0000
0000
0000
0000
1001
0000
0000
0000
0000
1000
0000
0100
0000
,
1000
0000
0001
0000
0000
0001
0000
0000
0001
0000
0000
0000
0010
0000
0001
0000
,
0010
0000
1000
0000
0010
0000
0000
1100
0000
0000
0000
0000
0001
0000
0010
0000
,
0001
0000
1000
0000
0000
1000
0000
1000
0020
0000
0000
0000
0230
0000
0000
0000
,
0302
0000
1000
0000
0000
0000
1003
0001
,
0020
0000
0100
0000
0000
0100
0000
0000
0130
0000
0000
0000
1000
0000
0100
0000
,
2000
0001
0000
3001
,
0020
0000
0100
0000
0000
0100
0000
0000
0130
0000
0000
0000
0110
0000
0000
0000
,
1002
0000
0000
1003
0001
0000
1000
0100
,
0000
0100
0000
0100
0010
0001
1000
0000
,
2001
0000
0000
3001
1000
0000
0001
0000
,
1000
0100
0001
0100
1000
0000
0021
0000
,
1000
0001
1000
0001
,
0200
0030
0310
0000
,
0001
0000
0000
0000
1100
0000
0000
0000
0001
0000
0000
1000
0000
0000
0001
0000
,
0000
0100
1000
0100
0000
0010
0100
0001
,
1000
0000
0000
0000
0101
0000
0000
0000
1000
0000
0000
0001
0000
0000
1000
0000
,
0000
0100
0001
0100
0020
0000
0031
0000
,
0001
0010
0100
1000
0010
0100
0010
0100
,
1000
0100
0010
0100
0001
1000
1000
0100
,
0001
0000
0100
1000
0100
0010
0001
0010
,
0010
0001
0000
0000
0000
0000
0010
0001
0020
0000
0000
0000
0130
0000
2000
0000
,
0002
3000
0000
1003
,
0001
0000
0000
0010
0000
0000
0001
0000
0000
0000
1000
0000
0000
0010
0000
0000
,
1000
0000
0000
0000
0110
0000
0000
0000
0000
0000
0001
0000
0000
1000
0000
0000
,
0002
0000
0000
0010
0000
0000
2003
0000
0000
0000
0100
0000
3100
0000
0000
0000
,
1000
0100
0001
0100
1000
0010
0001
0010
,
1000
0100
0001
1000
0010
0001
0100
1000
,
0100
0000
0001
0000
0010
0000
0001
0000
0100
0000
0001
1000
0000
0000
0000
0000
,
2000
0000
0000
0000
3001
0010
0001
0010
0000
0000
0000
0000
0011
0000
0000
0000
,
1100
0000
0000
0000
,
2000
0000
3001
0000
0002
0000
0013
0200
,
0000
0000
0301
0200
0000
0000
1300
0000
,
0002
0000
1003
0000
2000
0000
3010
0200
,
0000
0000
1300
0200
0000
0000
0301
0000
,
1000
0000
0000
0000
0011
0000
0000
0000
1000
0000
0000
0001
0000
0000
1000
0000
,
0000
0100
0001
0100
0010
0000
0001
1000
,
0001
0000
1010
0000
1000
0100
0010
0100
,
1000
0100
0000
0000
0000
0000
0010
0001
0000
0000
1000
0000
0100
0000
0010
0000
,
0010
0100
0000
0000
0000
0000
1000
0001
0000
0000
1000
0000
0100
0000
0010
0000
,
0000
0000
0000
0000
1001
0000
0000
0000
0001
0000
0000
1000
0000
0000
0001
0000
,
0000
0100
1000
0100
0000
0010
0100
0001
,
1000
0000
0000
0000
0011
0000
0000
0000
1000
0000
0000
0001
0000
0000
1000
0000
,
0000
0100
0001
0100
0020
0000
0031
0000
,
0001
0010
0100
1000
0010
0100
0010
0100
,
1000
0100
0010
0100
0001
1000
1000
0100
,
0001
0000
0100
1000
0100
0010
0001
0010
,
0010
0001
0000
0000
0000
0000
0010
0001
0020
0000
0000
0000
0130
0000
2000
0000
,
0000
0002
3000
0000
0000
0000
0003
0000
,
0000
0000
0000
0000
;
#NOTES:
     dance-single:
     :
     Hard:
     14:
     :
0000
0000
0000
0000
,
0000
0000
0000
0000
,
0000
0000
0000
0000
,
0000
0000
0000
0000
,
0000
0000
0001
1000
,
0101
0000
0000
0000
0001
0000
0000
0000
1000
0000
0100
1000
0000
0000
0011
0000
,
0000
0000
0010
0000
0000
0100
0000
0000
1000
0000
0000
0001
0000
0000
0000
0000
,
1010
0000
0000
0000
0010
0000
0000
0000
0100
0000
0000
0001
0000
0000
1100
0000
,
0000
0000
0100
0000
1000
0010
0000
0000
1001
0000
0000
0000
0000
0000
0000
0000
,
0001
0000
0010
0000
0100
0001
0000
0001
0000
0100
0000
1000
0001
0000
0000
0000
,
1000
0010
1000
0010
0100
1000
0000
1000
0000
0100
0010
1000
0001
0000
0000
0000
,
0001
0010
0100
1000
0100
0000
0100
0010
0000
0001
0010
0001
0010
0000
0000
0000
,
0001
0000
1000
0100
1000
0000
0100
0010
0001
0100
0010
1000
0100
0000
1000
0000
,
0010
0100
0010
0100
0001
1000
0001
1000
0010
0100
0001
0000
1000
0000
0000
1000
,
0000
0100
0010
0100
0001
0000
0100
0010
0100
1000
0001
0000
0100
0000
0000
0000
,
0001
0000
0100
0010
1000
0000
0010
0001
0000
0001
0010
0000
1000
0000
0001
0010
,
0100
1000
0100
1000
0100
0010
0001
0000
1000
0010
1000
0010
0000
0000
0000
0000
,
1000
0000
0100
0000
0001
0000
0100
0000
0010
0000
0001
0000
0100
0000
0010
0100
,
0010
0001
0010
1000
0002
0000
2000
0000
,
3003
0001
0010
0100
1000
0100
0020
0000
,
0031
0010
0001
0010
0100
1000
0100
1000
,
0001
0010
0001
0010
0100
1000
0100
1000
0001
0010
0100
1000
0100
0010
0001
0020
,
0000
0000
0000
0030
0110
0100
1000
0100
,
0001
0000
0000
0000
1100
0000
0000
0000
0110
0000
0000
0011
0000
0000
0002
0000
,
0000
0000
1003
0000
0001
0010
0100
1000
0001
0010
0100
1000
0010
0000
0100
0000
,
1000
0000
0000
0000
0101
0000
0000
0000
0110
0000
0000
1010
0000
0000
2000
0000
,
0000
0000
3001
0000
1000
0100
0010
0001
1000
0100
0010
0001
1000
0000
1000
0000
,
0001
0000
0000
0000
1010
0000
0000
0000
0001
0000
0000
1000
0000
0000
0010
0000
,
0100
0000
0001
0000
0001
0100
0010
1000
0001
0100
0010
1000
0001
0000
0001
0000
,
1000
0000
0000
0000
0011
0000
0000
0000
1000
0000
0000
0001
0000
0000
0010
0000
,
0001
0001
0000
0000
0010
0000
1000
1000
0000
0000
0000
0000
0010
0000
0100
0000
,
0000
0000
0000
0000
1001
0000
0000
0000
0001
0010
0100
1000
0100
0010
0000
0001
,
0000
0000
1000
0000
0100
1000
0000
0010
0000
0000
0001
0010
0000
0100
0000
0000
,
0000
0000
0000
0000
0001
0100
0010
0100
0001
0010
0100
0010
0001
0100
0010
1000
,
0002
0000
0000
0000
0103
0010
0200
0000
0000
0000
0310
1000
0000
0001
0000
1000
,
0010
0000
1000
0010
0100
0001
0000
0100
1000
0000
0100
1000
0000
0100
0010
1000
,
0001
0010
0100
1000
0001
1000
0000
0100
0001
0000
0100
0001
0000
0100
0010
0001
,
1000
0100
0010
0001
0100
0001
0000
0010
1000
0000
0010
1000
0000
0000
0010
0001
,
0010
0001
0010
0000
0100
0000
1000
0010
0100
0000
0001
1000
0000
0000
0000
0000
,
0000
0000
0000
0000
0000
0001
0010
0100
,
1000
0000
0000
0000
1000
0000
0000
0000
0001
0000
0000
0100
0000
0000
0010
0000
,
0000
0001
0010
1000
0000
1000
0100
0001
,
0100
0000
0000
0000
1000
0000
0100
0000
1000
0000
0000
0001
0000
0000
1000
0000
,
0000
0001
0010
0001
0200
0000
0300
0000
,
0001
0000
1100
0000
0001
0100
0001
0100
,
0010
0000
0100
0000
0001
0010
0001
0010
0000
0000
0100
1000
0100
1000
0000
0000
,
1000
0000
0101
0000
1000
0100
0010
0100
,
1000
1000
0000
0000
0010
0000
0001
0001
0000
0000
0000
0000
0000
0000
0000
0000
,
1000
1000
0000
0000
0100
0000
0001
0001
0000
0000
0100
0000
1000
0000
0100
0000
,
0001
0000
0000
0000
1001
0000
0000
0000
0110
0000
0000
1001
0000
0000
2000
0000
,
0000
0000
3001
0000
1000
0010
0100
0001
1000
0010
0100
0001
0010
0000
0100
0000
,
0001
0000
0000
0000
1100
0000
0000
0000
0110
0000
0000
0011
0000
0000
0002
0000
,
0000
0000
1003
0000
0001
0100
0010
1000
0001
0100
0010
1000
0001
0000
0001
0000
,
1000
0000
0000
0000
0011
0000
0000
0000
1000
0000
0000
0001
0000
0000
0010
0000
,
0100
0000
1000
0000
1000
0100
0010
0001
1000
0100
0010
0001
1000
0000
1000
0000
,
0001
0000
0000
0000
1010
0000
0000
0000
0001
0000
0000
1000
0000
0000
0010
0000
,
1000
1000
0000
0000
0010
0000
0001
0001
0000
0000
0000
0000
0010
0000
0200
0000
,
0000
0020
0300
0000
0000
0000
1030
0000
,
0000
0000
0000
0000
;
#NOTES:
     dance-double:
     :
     Easy:
     5:
     :
00000000
00000000
00000000
00000000
,
00000000
00000000
00000000
00000000
,
00000000
00000000
00000000
00000000
,
00000000
00000000
00000000
00000000
,
00000000
00000000
00000000
00000000
,
00001000
00010000
00000100
00000000
,
00010000
00001000
01000000
00000000
,
00100000
10000000
01000000
00010000
,
00001000
00010000
00011000
00000000
,
00010000
00000000
00001000
00000000
,
00000010
00000000
00000001
00000000
,
00001000
00000000
00000010
00000000
,
00010000
00000000
00001000
00000000
,
00000000
00010000
00000000
00100000
,
00000000
10000000
00000000
00010000
,
00000000
00100000
00000000
00001000
,
00000000
00010000
00000000
00000100
,
00002000
00000000
00003001
00000000
,
00000002
00000000
00001003
00000000
,
00000200
00000000
00010300
00000000
,
00001000
00010000
00001000
00020000
,
00000000
00000000
00000000
00000000
,
00032000
00000000
00003000
00000000
,
00000000
00011000
00010000
00100000
,
01000000
00100000
00010000
00000000
,
00000000
00011000
00001000
00000010
,
00000100
00000010
00001000
00000000
,
00000000
00011000
00010000
00001000
,
00100000
00010000
01000000
00001000
,
00000000
00011000
00001000
00010000
,
00000010
00000000
00000100
00000000
,
00000020
00000000
00000000
00000030
,
00001000
00000000
00000001
00000000
,
00001000
00000001
00001000
00000100
,
00020000
00000000
00001000
00031000
,
00000000
00101000
00100000
00010000
,
10000000
01000000
00100000
00010000
,
00000000
00110000
00100000
00010000
,
00001000
00000100
00000010
00000001
,
00000000
00000000
00000000
00000000
,
00000000
00000001
00000000
00000001
,
00000000
00000100
00000000
00001000
,
00000000
00010000
00000000
00010000
,
00000000
00100000
00000000
10000000
,
00000000
10010000
10000000
01000000
,
00100000
00001000
00010000
00000100
,
00000000
00001001
00000001
00000100
,
00000010
00000000
00000100
00000000
,
00000001
00000000
00001000
00000000
,
00000000
00000101
00000001
00000100
,
00000010
00010000
00001000
00100000
,
00000000
11000000
10000000
01000000
,
00100000
00001000
00010000
00000000
,
00000000
00011000
00001000
00100000
,
00010000
01000000
00001000
00000000
,
00000000
00011000
00010000
00000010
,
00001000
00000000
00000001
00000000
,
00000200
00000000
00000000
00000300
,
00000000
00000000
00000000
00000000
;
#NOTES:
     dance-double:
     :
     Medium:
     10:
     :
00000000
00000000
00000000
00000000
,
00000000
00000000
00000000
00000000
,
00000000
00000000
00000000
00000000
,
00000000
00000000
00000000
00000000
,
00000000
00000000
00000000
00000000
,
10000000
00000000
00000000
00000000
01000000
00000000
00000000
00000000
00010000
00000000
00000000
00001000
00000000
00000000
00100000
00000000
,
00000000
00000000
00010000
00000000
00000000
00001000
00000000
00000000
00000100
00000000
00000000
00001000
00000000
00000000
00000000
00000000
,
00000101
00000000
00000000
00000000
00000001
00000000
00000000
00000000
00001000
00000000
00000000
00000100
00000000
00000000
00010100
00000000
,
00000000
00000000
00010000
00000000
00010000
00001000
00000000
00000000
00101000
00000000
00000000
00000000
00000000
00000000
00000000
00000000
,
00100000
00000000
01000000
00000000
00000000
00000000
00000000
10010000
00000000
00000000
00000000
00000000
10000000
00000000
01000000
00000000
,
00010000
00000000
00001000
00000000
00000000
00001000
00000000
00000000
00001000
00000000
00000000
00000000
00010000
00000000
00001000
00000000
,
00000010
00000000
00000100
00000000
00000010
00000000
00000000
00000110
00000000
00000000
00000000
00000000
00000001
00000000
00000100
00000000
,
00001000
00000000
00010000
00000000
00000000
00010000
00000000
00010000
00002000
00000000
00000000
00000000
00203000
00000000
00000000
00000000
,
00320000
00000000
10000000
00000000
00000000
00000000
10030000
01000000
,
00200000
00000000
00010000
00000000
00000000
00010000
00000000
00000000
00310000
00000000
00000000
00000000
00100000
00000000
00001000
00000000
,
00020000
00001000
00000000
00031000
,
00000020
00000000
00000100
00000000
00000000
00000100
00000000
00000000
00000130
00000000
00000000
00000000
00000110
00000000
00000000
00000000
,
00001002
00000000
00000000
00001003
00000001
00000000
00001000
00000100
,
00000000
00000100
00000000
00000100
00010000
00001000
00100000
00000000
,
20010000
00000000
00000000
30010000
10000000
00000000
00010000
00000000
,
00100000
00010000
00001000
00010000
00100000
00000000
00210000
00000000
,
01000000
00010000
00001000
00010000
,
00002000
00300000
00013000
00000000
,
00000100
00000000
00000000
00000000
00001100
00000000
00000000
00000000
00001000
00000000
00000000
00000100
00000000
00000000
00000010
00000000
,
00000000
00000001
00000010
00000001
00000000
00000100
00000010
00010000
,
00001000
00000000
00000000
00000000
00011000
00000000
00000000
00000000
00001000
00000000
00000000
01000000
00000000
00000000
00100000
00000000
,
00000000
10000000
00100000
01000000
00020000
00000000
10030000
00000000
,
10000000
01000000
00100000
00001000
00010000
00001000
00010000
00001000
,
00000010
00000100
00000010
00000001
00001000
00000010
00000010
00000100
,
00001000
00000000
00001000
00000100
00000010
00001000
00000100
00010000
,
00001000
00010000
00000000
00000000
00000000
00000000
00010000
00001000
00200000
00000000
00000000
00000000
00310000
00000000
20000000
00000000
,
00020000
30000000
00000000
10030000
,
00010000
00000000
00000000
01000000
00000000
00000000
10000000
00000000
00000000
00000000
01000000
00000000
00000000
00010000
00000000
00000000
,
00100000
00000000
00000000
00000000
00011000
00000000
00000000
00000000
00000000
00000000
00010000
00000000
00000000
00000010
00000000
00000000
,
00000100
00000000
00000000
00000001
00000000
00000000
00002000
00000000
00000000
00000000
00000001
00000000
00003001
00000000
00000000
00000000
,
00001000
00000100
00000001
00000100
00001000
00000100
00010000
00001000
,
00100000
01000000
00010000
01000000
10000000
01000000
00100000
00010000
,
00001000
00000000
00000100
00000000
00000001
00000000
00000100
00000000
00001000
00000000
00000100
00001000
00000000
00000000
00000000
00000000
,
00000002
00000000
00000000
00000000
00001003
00000100
00001000
00000100
00000000
00000000
00000000
00000000
00001100
00000000
00000000
00000000
,
00000011
00000000
00000000
00000000
,
00000002
00000000
00000103
00000000
00000200
00000000
00001300
00002000
,
00000000
00000000
00013000
00200000
00000000
00000000
10300000
00000000
,
20000000
00000000
31000000
00000000
02000000
00000000
03010000
00020000
,
00000000
00000000
00031000
00000020
00000000
00000000
00000031
00000000
,
00000001
00000000
00000000
00000000
00001100
00000000
00000000
00000000
00001000
00000000
00000000
00000100
00000000
00000000
00010000
00000000
,
00000000
00000010
00000100
00001000
00010000
00000000
00010000
00100000
,
10000000
00000000
01010000
00000000
01000000
00100000
00010000
00001000
,
00010000
00001000
00000000
00000000
00000000
00000000
00010000
00001000
00000000
00000000
00000010
00000000
00000100
00000000
00000010
00000000
,
00001000
00010000
00000000
00000000
00000000
00000000
00001000
00010000
00000000
00000000
00100000
00000000
01000000
00000000
00100000
00000000
,
00000000
00000000
00000000
00000000
10010000
00000000
00000000
00000000
10000000
00000000
00000000
00010000
00000000
00000000
00100000
00000000
,
00000000
00001000
00010000
00001000
00000000
00010000
00001000
00000010
,
00000100
00000000
00000000
00000000
00001001
00000000
00000000
00000000
00000001
00000000
00000000
00001000
00000000
00000000
00000010
00000000
,
00000000
00001000
00000100
00000001
00000200
00000000
00000310
00000000
,
00000001
00000010
00000100
00010000
00001000
00010000
00001000
00010000
,
01000000
00100000
01000000
10000000
00010000
01000000
01000000
00100000
,
00010000
00000000
00010000
00100000
01000000
00010000
00100000
00001000
,
00010000
00001000
00000000
00000000
00000000
00000000
00001000
00010000
00000200
00000000
00000000
00000000
00001300
00000000
00000002
00000000
,
00000000
00002000
00000003
00000000
00000000
00000000
00003000
00000000
,
00000000
00000000
00000000
00000000
;
#NOTES:
     dance-double:
     :
     Hard:
     14:
     :
00000000
00000000
00000000
00000000
,
00000000
00000000
00000000
00000000
,
00000000
00000000
00000000
00000000
,
00000000
00000000
00000000
00000000
,
00000000
00000000
10000000
00010000
,
11000000
00000000
00000000
00000000
01000000
00000000
00000000
00000000
00100000
00000000
00010000
00100000
00000000
00000000
00101000
00000000
,
00000000
00000000
00001000
00000000
00000000
00010000
00000000
00000000
00000100
00000000
00000000
00001000
00000000
00000000
00000000
00000000
,
00000101
00000000
00000000
00000000
00000100
00000000
00000000
00000000
00000010
00000000
00000000
00010000
00000000
00000000
00010100
00000000
,
00000000
00000000
00010000
00000000
00001000
00010000
00000000
00000000
00011000
00000000
00000000
00000000
00000000
00000000
00000000
00000000
,
00001000
00000000
00100000
00000000
01000000
00100000
00000000
00100000
00000000
00010000
00000000
01000000
00100000
00000000
00000000
00000000
,
00100000
10000000
00100000
10000000
01000000
00100000
00000000
00100000
00000000
00010000
00100000
00001000
00010000
00000000
00000000
00000000
,
00010000
00001000
00000100
00000010
00001000
00000000
00000001
00001000
00000000
00000010
00000100
00000010
00000100
00000000
00000000
00000000
,
00000001
00000000
00000010
00000100
00000010
00000000
00000001
00000100
00000010
00001000
00000100
00010000
00001000
00000000
00010000
00000000
,
00100000
01000000
00010000
01000000
00001000
00010000
00001000
01000000
00010000
01000000
00100000
00000000
10000000
00000000
00000000
10000000
,
00000000
01000000
00100000
00010000
00100000
00000000
00001000
00010000
00001000
00010000
00000100
00000000
00000010
00000000
00000000
00000000
,
00000001
00000000
00000100
00001000
00000100
00000000
00000010
00000100
00000000
00000100
00000010
00000000
00001000
00000000
00000010
00001000
,
00010000
00000000
00010000
00001000
00000010
00001000
00000010
00000000
00010000
00001000
00010000
00001000
00000000
00000000
00000000
00000000
,
00010000
00100000
10000000
01000000
00010000
00001000
00000010
00000001
,
00000010
00000100
00000010
00000100
00002000
00000000
00000002
00000000
,
00003003
00000001
00000100
00001000
00010000
00100000
02000000
00000000
,
03100000
10000000
00100000
10000000
01000000
00100000
01000000
00100000
,
00001000
00010000
00001000
00010000
00000100
00001000
00000100
00001000
00000010
00000100
00000010
00001000
00000100
00000010
00000001
00000020
,
00000000
00000000
00000000
00000030
00000110
00000001
00001000
00000100
,
00000010
00000000
00000000
00000000
00011000
00000000
00000000
00000000
00110000
00000000
00000000
01100000
00000000
00000000
20000000
00000000
,
00000000
00000000
30010000
00000000
10000000
01000000
00100000
00010000
00100000
00010000
00001000
00000100
00010000
00000000
00000100
00000000
,
00010000
00000000
00000000
00000000
00011000
00000000
00000000
00000000
00001010
00000000
00000000
00000110
00000000
00000000
00000002
00000000
,
00000000
00000000
00001003
00000000
00000001
00000010
00000100
00001000
00000100
00001000
00010000
00100000
00010000
00000000
00010000
00000000
,
10000000
00000000
00000000
00000000
01010000
00000000
00000000
00000000
10000000
00000000
00000000
01000000
00000000
00000000
00010000
00000000
,
01000000
00000000
00100000
00000000
00001000
00010000
00100000
01000000
00100000
00010000
00001000
00010000
00001000
00000000
00000010
00000000
,
00000001
00000000
00000000
00000000
00001100
00000000
00000000
00000000
00000001
00000000
00000000
00000100
00000000
00000000
00001000
00000000
,
00000100
00000100
00000000
00000000
00001000
00000000
00010000
00010000
00000000
00000000
00000000
00000000
00100000
00000000
01000000
00000000
,
00000000
00000000
00000000
00000000
10010000
00000000
00000000
00000000
00010000
00100000
01000000
00100000
00001000
00010000
00000000
00001000
,
00000000
00000000
00000010
00000000
00000100
00000010
00000000
00000001
00000000
00000000
00001000
00000100
00000000
00000010
00000000
00000000
,
00000000
00000000
00000000
00000000
00000001
00000010
00000001
00001000
00000010
00000100
00000010
00010000
00000100
00001000
00000100
00010000
,
00002000
00000000
00000000
00000000
00103000
00010000
00200000
00000000
00000000
00000000
00310000
10000000
00000000
00010000
00000000
10000000
,
01000000
00000000
10000000
01000000
00100000
00010000
00000000
00001000
00000100
00000000
00001000
00000100
00000000
00000010
00000001
00000010
,
00000100
00000010
00000001
00001000
00000001
00001000
00000000
00000010
00000100
00000000
00000010
00000100
00000000
00000010
00001000
00000100
,
00000010
00000001
00000010
00000100
00001000
00000100
00000000
00010000
00001000
00000000
00010000
00001000
00000000
00000000
00100000
00010000
,
00100000
01000000
10000000
00000000
01000000
00000000
00100000
00010000
00100000
00000000
00001000
00010000
00000000
00000000
00000000
00000000
,
00000000
00000000
00000000
00000000
00000000
00010000
00001000
00000010
,
00000001
00000000
00000000
00000000
00001000
00000000
00000000
00000000
00000010
00000000
00000000
00000100
00000000
00000000
00000010
00000000
,
00000000
00001000
00010000
01000000
00000000
01000000
10000000
01000000
,
00010000
00000000
00000000
00000000
00100000
00000000
01000000
00000000
10000000
00000000
00000000
00010000
00000000
00000000
10000000
00000000
,
00000000
01000000
00010000
00001000
00000020
00000000
00000030
00000000
,
00000010
00000000
00011000
00000000
00001000
00000100
00000001
00000010
,
00000100
00000000
00000000
00000000
00001000
00000100
00001000
00000100
00000000
00000000
00010000
00001000
00010000
00001000
00000000
00000000
,
00100000
00000000
00011000
00000000
00010000
01000000
10000000
01000000
,
00100000
00100000
00000000
00000000
00010000
00000000
00001000
00001000
00000000
00000000
00000000
00000000
00000000
00000000
00000000
00000000
,
00000010
00000010
00000000
00000000
00001000
00000000
00010000
00010000
00000000
00000000
01000000
00000000
10000000
00000000
01000000
00000000
,
00010000
00000000
00000000
00000000
10010000
00000000
00000000
00000000
00101000
00000000
00000000
00010100
00000000
00000000
00000200
00000000
,
00000000
00000000
00001300
00000000
00000001
00000100
00000010
00001000
00000010
00001000
00010000
01000000
00001000
00000000
01000000
00000000
,
00000000
00000000
00000000
00000000
00011000
00000000
00000000
00000000
00110000
00000000
00000000
01100000
00000000
00000000
20000000
00000000
,
00000000
00000000
30010000
00000000
10000000
00100000
01000000
00010000
01000000
00010000
00001000
00000010
00001000
00000000
00001000
00000000
,
00000001
00000000
00000000
00000000
00001100
00000000
00000000
00000000
00000001
00000000
00000000
00000100
00000000
00000000
00001000
00000000
,
00000100
00000000
00000010
00000000
00010000
00001000
00000010
00000100
00000010
00001000
00010000
00001000
00010000
00000000
00100000
00000000
,
10000000
00000000
00000000
00000000
01010000
00000000
00000000
00000000
10000000
00000000
00000000
01000000
00000000
00000000
00010000
00000000
,
01000000
01000000
00000000
00000000
00010000
00000000
00001000
00001000
00000000
00000000
00000000
00000000
00000010
00000000
00000200
00000000
,
00000000
00000020
00000300
00000000
00000000
00000000
00000031
00000000
,
00000000
00000000
00000000
00000000
;
