
//----- song ID: nant -----//
#TITLE:なんてシュペール;
#ARTIST:音戯探偵ひなビタ♫;
#TITLETRANSLIT:Nante super;
#ARTISTTRANSLIT:Otogi tantei HinaBitter;
#BANNER:Nante super.png;
#BACKGROUND:Nante super-bg.png;
#CDTITLE:./CDTitles/DDR WORLD.png;
#MUSIC:Nante super.ogg;
#SAMPLESTART:54.154;
#SAMPLELENGTH:15;
#BPMS:0=195,384=107,388=100,389=98,390=96,391=94,392=92;
#BGSTAGE:;
#NOTES:
     dance-single:
     :
     Beginner:
     3:
     :
0000
0000
0000
0000
,
0000
0000
0000
0000
,
0000
0000
0000
0000
,
0000
0000
0000
0000
,
0000
0000
0000
0000
,
0000
0000
0000
0000
,
0000
0000
0000
0000
,
0000
0000
0000
0000
,
0000
0000
0000
0000
,
0000
0000
0000
0000
,
0001
0000
0000
0000
,
0001
0000
0000
0000
,
1000
0000
0000
0000
,
1000
0000
0000
0000
,
1001
0000
0000
0000
,
0000
0000
0000
0000
,
0000
0000
0000
0000
,
0000
0000
0000
0000
,
0001
0000
0000
0000
,
1000
0000
0000
0000
,
0001
0000
0000
0000
,
0100
0000
0000
0000
,
0001
0000
0000
0000
,
1000
0000
0000
0000
,
0010
0000
0000
0000
,
1000
0000
0000
0000
,
0001
0000
0000
0000
,
1000
0000
0000
0000
,
0100
0000
0000
0000
,
1000
0000
0000
0000
,
0001
0000
0000
0000
,
1000
0000
0000
0000
,
0001
0000
0000
0000
,
0010
0000
0000
0000
,
0001
0000
0001
0000
,
0000
0000
0000
0000
,
1000
0000
1000
0000
,
0000
0000
0000
0000
,
0010
0000
0010
0000
,
0000
0000
0000
0000
,
0100
0000
0100
0000
,
0100
0000
0100
0000
,
0100
0000
0000
0000
,
0000
0000
0000
0000
,
0001
0000
1000
0000
,
0001
0000
0000
0000
,
0100
0000
0010
0000
,
0100
0000
0000
0000
,
0001
0000
0000
0000
,
1000
0000
0000
0000
,
0010
0000
0000
0000
,
0010
0000
0000
0000
,
1000
0000
0001
0000
,
1000
0000
0000
0000
,
0010
0000
0100
0000
,
0010
0000
0000
0000
,
1000
0000
0000
0000
,
0001
0000
0000
0000
,
0100
0000
0100
0000
,
0100
0000
0000
0000
,
0001
0000
0001
0000
,
0000
0000
0000
0000
,
1000
0000
1000
0000
,
0000
0000
0000
0000
,
0010
0000
0010
0000
,
0000
0000
0000
0000
,
1000
0000
0010
0000
,
1000
0000
0000
0000
,
0001
0000
0100
0000
,
0001
0000
0000
0000
,
1000
0000
0000
0000
,
0001
0000
0000
0000
,
0010
0000
0000
0000
,
0010
0000
0000
0000
,
0001
0000
0100
0000
,
0001
0000
0000
0000
,
1000
0000
0010
0000
,
1000
0000
0000
0000
,
0001
0000
0000
0000
,
1000
0000
0000
0000
,
0010
0000
0010
0000
,
0010
0000
0000
0000
,
1000
0000
1000
0000
,
0000
0000
0000
0000
,
0001
0000
0001
0000
,
0000
0000
0000
0000
,
0100
0000
0100
0000
,
0000
0000
0000
0000
,
0010
0000
0010
0000
,
0000
0000
0000
0000
,
1000
0000
0000
0000
,
0001
0000
0000
0000
,
0100
0000
0000
0000
,
0010
0000
0000
0000
,
0110
0000
0000
0000
,
0000
0000
0000
0000
,
0000
0000
0000
0000
,
0200
0000
0000
0000
,
0000
0000
0000
0300
,
0000
0000
0000
0000
;
#NOTES:
     dance-single:
     :
     Easy:
     8:
     :
0000
0000
0000
0000
,
0000
0000
0000
0000
,
0000
0000
0000
0000
,
0000
0000
0000
0000
,
0000
0000
0000
0000
,
0000
0000
0000
0000
,
0000
0000
0000
0000
,
0000
0000
0000
0000
,
0000
0000
0000
0000
,
0000
0000
0000
0000
,
0001
1000
0010
0000
,
0100
0001
1000
0000
,
0001
0001
1000
1000
,
0100
0010
0001
0000
,
1000
0000
0000
0010
0000
0000
0100
0000
,
0000
0001
0000
0000
1000
0000
0000
0020
,
0000
0000
0000
0000
,
0030
0000
0000
0000
,
1000
0000
0001
0000
,
1000
0010
0100
0000
,
0001
0000
1000
0000
,
0001
0010
0100
0000
,
1000
0000
0001
0000
,
1000
0010
0100
0000
,
0001
0000
1000
0000
,
0001
0001
0100
0100
,
0010
0000
1000
0000
,
0100
1000
0010
0000
,
1000
0000
0001
0000
,
0100
0001
0010
0000
,
0001
0000
1000
0000
,
0010
1000
0100
0000
,
1000
0000
0001
0000
,
0001
0010
0001
0010
,
0100
0000
0000
0000
1000
0000
0000
0020
,
0000
0000
0030
0000
,
1000
0001
0100
0010
,
0100
0001
0010
0100
,
1000
0000
0000
0000
0001
0000
0000
0200
,
0000
0000
0300
0000
,
0001
0001
1000
1000
,
0010
0100
0001
0011
,
0010
0000
0000
0100
0000
0000
1000
0000
,
0010
0100
0002
0003
,
1000
1100
1000
1100
,
0001
0100
0010
0100
,
0001
0011
0001
0011
,
1000
0010
0100
0010
,
1000
0100
0010
0000
,
0010
0100
1000
0000
,
0001
0000
0100
0000
,
0010
0000
1000
0000
,
0001
0011
0001
0011
,
1000
0010
0100
0010
,
1000
1100
1000
1100
,
0001
0100
0010
0010
,
1000
0001
0100
0000
,
0001
1000
0010
0000
,
1000
1000
0100
0010
,
0001
0001
0200
0300
,
0001
1000
0001
0100
,
0010
0001
0010
0100
,
0001
1000
0001
1000
,
0010
0100
1000
0100
,
0010
0000
0000
0010
0000
0000
0010
0000
,
1000
0001
0200
0000
,
0300
0110
0010
0110
,
0001
1000
0010
1000
,
0100
0110
0100
0110
,
0001
1000
0010
0100
,
0001
0010
0100
0000
,
0100
0010
0001
0000
,
1000
1000
0001
0001
,
0010
0100
1000
0001
,
0100
0110
0100
0110
,
1000
0001
0100
0001
,
0010
0110
0010
0110
,
1000
0001
0100
0000
,
0001
0010
0100
0000
,
1000
0001
0100
0000
,
0010
0010
1000
1000
,
0001
0000
0100
0000
,
0001
0000
0000
0000
1000
0000
0000
0001
,
0000
0010
0000
0100
0000
0000
0000
0000
,
1000
0000
0000
0000
0001
0000
0000
0100
,
0000
0000
0000
0001
,
1000
0100
0010
0100
,
1000
0001
1000
0001
,
0100
0000
0000
0010
0000
1000
0000
0001
,
0000
0100
0000
0100
0000
0100
0000
0000
,
0001
1000
0100
0000
,
0010
0001
1000
0000
,
0001
0001
1000
1000
,
0010
0100
0001
0000
,
1000
0000
0000
0100
0000
0000
0010
0000
,
0000
0001
0000
0000
1000
0000
0000
0020
,
0000
0000
0000
0000
,
0200
0000
0000
0000
,
0000
0000
0000
0330
,
0000
0000
0000
0000
;
#NOTES:
     dance-single:
     :
     Medium:
     11:
     :
0000
0000
0000
0000
,
0000
0000
0000
0000
,
0000
0000
0000
0000
,
0000
0000
0000
0000
,
0000
0000
0000
0000
,
0000
0000
0000
0000
,
0000
0000
0000
0000
,
0000
0000
0000
0000
,
0000
0000
0000
0000
,
0000
0000
0000
0000
,
0001
0000
1000
0000
0001
0000
0100
0010
,
0000
1000
0000
0001
0000
0100
0010
0000
,
0001
0000
0010
0000
1000
0000
0100
0010
,
0000
1000
0000
0010
0000
0001
1000
0000
,
1100
0000
0000
1010
0000
0000
0101
0000
,
0000
0011
0000
0000
0110
0000
0000
2002
,
0000
0000
0000
0000
,
3003
0000
0000
0000
,
0001
0000
0000
1000
0100
0000
0000
1000
,
0000
0010
0000
0100
0000
0000
0000
0000
,
0001
0000
0000
1000
0010
0000
0000
1000
,
0000
0100
0000
0010
0000
0000
0000
0000
,
0001
0000
0000
0100
0010
0000
0000
1000
,
0000
0001
0000
0100
0000
0000
0000
0001
,
0010
0000
0000
0100
1000
0000
0000
0001
,
0000
0100
0000
1000
0000
0000
0100
0000
,
0010
0000
0000
1000
0001
0000
0000
1000
,
0000
0100
0000
0010
0000
0000
0001
0000
,
1000
0000
0000
0001
0100
0000
0000
0001
,
0000
1000
0000
0010
0000
0000
0100
0010
,
0100
0000
0000
0001
1000
0000
0000
0001
,
0000
0100
0000
0001
1000
0000
0100
0000
,
0010
0000
0000
0001
1000
0000
0000
0010
,
0100
0001
0010
0100
,
1000
0000
0001
0000
0100
0000
0010
1000
,
0000
1000
0100
0000
1000
0000
0010
0000
,
0100
0000
0001
0000
1000
0000
0100
1000
,
0000
0010
0000
0001
0000
0010
0000
0000
,
0110
0000
0001
0000
1000
0000
0000
2002
,
0000
0000
3003
0000
,
1000
1000
0010
0010
,
0100
0100
0001
0001
,
1000
0100
0000
1000
0010
0000
1000
0000
,
0001
0100
0020
0030
,
0102
1003
2100
3001
,
0102
1003
2100
3001
,
1000
0100
0010
0001
,
0001
0100
0010
0000
,
1001
0001
0010
0100
,
0002
0203
2300
3020
,
0031
0000
0010
0000
0100
0000
0001
1000
,
0000
0100
0000
0010
0000
0000
0000
0000
,
2100
3001
0102
1003
,
2100
3001
0102
1003
,
0001
0000
0010
0000
0100
0000
1000
0010
,
0000
0001
0000
0010
0000
1000
0000
0100
,
0000
0100
1000
0001
,
0010
0100
1000
0010
,
0110
0110
0101
0101
,
0200
0000
0020
0330
,
0010
1000
0001
0010
,
0100
1000
1000
0010
,
0100
0001
0010
0010
,
0001
1000
0100
0000
,
0010
0000
0001
0100
0000
0010
1000
0000
,
0001
0020
0200
0000
,
0330
1100
0012
1003
,
2010
3001
0012
1003
,
0001
0010
0100
1000
,
1000
0010
0100
0000
,
0001
1000
0010
0100
,
2000
3200
0302
0023
,
1030
0000
0010
0000
0100
0000
1000
0001
,
0000
0100
0000
0010
0000
0000
0000
0000
,
0210
0301
0120
1030
,
0120
0031
0210
1300
,
0110
0000
0001
0000
1000
0000
0100
1000
,
0000
0010
0000
0001
0000
0010
0000
0100
,
0000
0100
0001
0010
,
0100
1000
0001
0100
,
0110
0110
1010
1010
,
2000
0000
0002
3003
,
1000
0000
0001
0000
1000
0010
0000
0100
,
0000
0001
0010
0000
0001
0000
1000
0000
,
1001
0000
0000
0010
0000
0100
0000
0110
,
0000
0000
0000
0001
,
1000
0000
0001
0100
0000
0010
0000
0100
,
0000
0001
1000
0000
0010
0000
0010
0000
,
1000
0000
0000
0001
0000
1000
0100
1000
,
0000
0010
0000
0100
0000
0001
0000
0000
,
0010
0000
0001
0000
1000
0000
0100
0010
,
0000
0001
0000
1000
0000
0100
0010
0000
,
1000
0000
0010
0000
0001
0000
0100
0010
,
0000
0001
0000
0010
0000
1000
0001
0000
,
0101
0000
0000
0011
0000
0000
1100
0000
,
0000
1010
0000
0000
0110
0000
0000
2002
,
0000
0000
0000
3003
,
0200
0000
0000
0000
,
0000
0000
0000
0300
,
0000
0000
0000
0000
;
#NOTES:
     dance-single:
     :
     Hard:
     13:
     :
0000
0000
0000
0000
,
0000
0000
0000
0000
,
0000
0000
0000
0000
,
0000
0000
0000
0000
,
0000
0000
0000
0000
,
0000
0000
0000
0000
,
0000
0000
0000
0000
,
0000
0000
0000
0000
,
0000
0000
0000
0000
,
0000
0000
0000
0000
,
0100
0000
1001
0000
0001
0010
0100
1000
,
0000
0010
0000
0100
0000
1000
0100
0001
,
1000
0100
0010
0100
1000
0010
1000
0100
,
0000
1000
0000
0010
0000
1000
0001
0100
,
0001
0010
0100
1000
0001
0100
0001
0010
,
0100
1000
0010
0100
0001
0000
0000
2002
,
0000
0000
0000
3003
,
0001
1000
0100
0010
0001
0010
0100
1000
,
0001
0000
0100
0001
1000
0000
0020
0100
,
0000
0001
0000
1030
0000
0010
0100
0010
,
0100
0000
0001
1000
0010
0000
0010
0200
,
0000
1000
0000
0301
0000
0000
0000
0000
,
1000
0000
0001
1000
0010
0000
0100
0001
,
0000
1000
0000
0100
0000
0010
0000
0001
,
1000
0000
0000
0010
0100
0000
0000
0001
,
0000
0011
0000
1100
0000
1000
0010
0000
,
1000
0000
0100
1000
0001
0000
0020
0100
,
0000
1000
0000
0031
0000
0010
0100
0010
,
0100
0000
1000
0001
0100
0000
0000
0001
,
1000
0100
1000
0010
0000
0000
1000
0001
,
0100
0000
0001
0010
0200
0000
0000
0001
,
0000
1000
0000
0310
0100
0000
1000
0000
,
0001
0000
0000
1000
0010
1000
0001
1000
,
0100
1000
0001
1000
0010
1000
0001
0000
,
1001
0000
1000
0010
0100
0001
0000
0010
,
0000
0001
0100
0010
1000
0010
0100
0001
,
1000
0000
0100
0000
1000
0010
0000
0100
,
0000
1000
0100
0001
0000
0001
0010
0100
,
1000
0000
0010
0000
0100
0001
0000
1001
,
0000
1000
0100
1000
0100
0010
0001
0000
,
0100
0000
0000
0001
0000
0000
1000
0000
0100
0000
0000
1000
0000
0000
0010
0000
,
0100
0000
0000
0001
0000
0000
0010
0000
0001
0000
0000
0000
1001
0000
0000
0000
,
1000
0010
1000
0001
0100
0001
1000
0010
,
1000
1000
0001
0001
1000
0100
0010
0000
,
0011
1100
1010
1010
,
0101
0101
0011
1100
,
0101
1100
0101
1100
,
0101
0000
1001
0000
0001
0010
0100
0000
,
1100
0000
0001
0000
1000
0000
0001
0100
,
0010
0001
1000
0100
0001
1000
0001
0010
,
1000
0000
0010
0000
0001
0000
0100
0010
,
0000
1000
0001
0010
0001
0100
0010
0000
,
1010
0101
0011
0011
,
1100
1100
1010
0101
,
1100
0000
0101
0000
1100
0000
0001
0100
,
0000
0001
0010
0100
0000
1000
0100
0010
,
0001
1001
1000
0010
,
0100
0010
1000
0001
,
1000
1100
0001
0101
,
1000
0100
0020
0030
,
1001
0000
1000
0100
1000
0010
1000
0001
,
0100
0010
0001
0010
0100
1000
0100
0010
,
1000
0001
1000
0100
1000
0001
1000
0010
,
0100
1000
0100
0010
0001
0010
0100
0000
,
0001
1000
1000
0001
0100
0100
0010
0100
,
1000
0100
0001
0020
0200
0000
0000
0000
,
0330
1001
0101
0101
,
1010
1010
1100
0021
,
1000
0031
1200
0001
,
1300
0000
0011
0000
0001
0100
0010
1000
,
0001
0000
1000
0000
0001
0000
1000
0100
,
0010
1000
0001
0100
1000
0001
1000
0010
,
0001
0000
0010
0000
1000
0000
0100
1000
,
0000
0001
0100
0010
1000
0100
0010
0001
,
0100
1010
1100
1100
,
0011
0011
0101
1100
,
0101
0000
1100
0000
0101
0000
1000
0010
,
0000
1000
0100
0010
0000
0001
0010
0100
,
1000
1001
0001
0100
,
0010
0100
0001
1000
,
0001
0101
1000
1100
,
0001
0010
0200
0300
,
1100
0000
1001
0000
0001
0100
0000
0010
,
0000
0100
0001
1000
0000
0001
0010
0100
,
1000
0000
0000
0010
0000
0110
0000
1001
,
0000
0001
0001
0100
0100
0001
0010
0100
,
1000
0000
0001
0100
0000
0010
0100
0001
,
0000
0010
0100
1000
0001
0100
0001
0100
,
0010
0000
0000
0100
0000
0001
1000
0010
,
0000
0110
0000
0101
0000
1001
0000
0000
,
0010
0000
1001
0000
1000
0010
0100
0001
,
0000
0010
0000
0100
0000
0001
0100
1000
,
0001
0100
0010
1000
0001
0100
0001
0010
,
0000
0100
0000
1000
0000
0010
0100
0001
,
1000
0010
1000
0100
0010
0001
1000
0010
,
1000
0100
0010
0001
1000
0000
0000
2002
,
0000
0000
0000
3003
,
0200
0000
0000
0000
,
0000
0000
0000
0300
,
0000
0000
0000
0000
;
#NOTES:
     dance-double:
     :
     Easy:
     8:
     :
00000000
00000000
00000000
00000000
,
00000000
00000000
00000000
00000000
,
00000000
00000000
00000000
00000000
,
00000000
00000000
00000000
00000000
,
00000000
00000000
00000000
00000000
,
00000000
00000000
00000000
00000000
,
00000000
00000000
00000000
00000000
,
00000000
00000000
00000000
00000000
,
00000000
00000000
00000000
00000000
,
00000000
00000000
00000000
00000000
,
00001000
00010000
00000100
00000000
,
00001000
00000100
00000010
00000000
,
00000001
00000001
00001000
00001000
,
00000100
00000010
00000001
00000000
,
00000100
00000000
00000000
00000010
00000000
00000000
00001000
00000000
,
00000000
00000100
00000000
00000000
00010000
00000000
00000000
00002000
,
00000000
00000000
00000000
00000000
,
00003000
00000000
00000000
00000000
,
00001000
00000000
00100000
00000000
,
00010000
00100000
01000000
00000000
,
10000000
00000000
00010000
00000000
,
10000000
01000000
00100000
00000000
,
00001000
00000000
00010000
00000000
,
00001000
00010000
00000100
00000000
,
00001000
00000000
00000001
00000000
,
00001000
00001000
00000001
00000001
,
00000100
00000000
00000010
00000000
,
00001000
00000100
00010000
00000000
,
00001000
00000000
01000000
00000000
,
00001000
00010000
00100000
00000000
,
10000000
00000000
00010000
00000000
,
10000000
01000000
00100000
00000000
,
00001000
00000000
00010000
00000000
,
00001000
00000100
00000010
00001000
,
00000001
00000000
00000000
00000000
00000010
00000000
00000000
00000200
,
00000000
00000000
00000300
00000000
,
00001000
00000010
00010000
00001000
,
00010000
00001000
01000000
00010000
,
10000000
00000000
00000000
00000000
01000000
00000000
00000000
00200000
,
00000000
00000000
00300000
00000000
,
00001000
00001000
00010000
00010000
,
00000100
00001000
00000001
00000011
,
00000010
00000000
00000000
00000100
00000000
00000000
00001000
00000000
,
00000010
00010000
00002000
00003000
,
00010000
00011000
00010000
00011000
,
00001000
01000000
00010000
00100000
,
01000000
11000000
01000000
11000000
,
10000000
00100000
00010000
00000000
,
00001000
00010000
00000100
00000000
,
00001000
00000010
00000100
00000000
,
00000001
00000000
00001000
00000000
,
00000010
00000000
00010000
00000000
,
00001000
00011000
00001000
00011000
,
00010000
00000010
00001000
00000100
,
00000010
00000011
00000010
00000011
,
00000001
00000100
00001000
00000000
,
00010000
00001000
00100000
00000000
,
00010000
01000000
00100000
00000000
,
10000000
00000000
00010000
00000000
,
01000000
00000000
00002000
00003000
,
00010000
00010000
00001000
00000100
,
00000001
00000001
00000010
00000100
,
00001000
00001000
00000010
00010000
,
00001000
00001000
00010000
00100000
,
01000000
00000000
00000000
00010000
00000000
00000000
10000000
00000000
,
01000000
00100000
00002000
00000000
,
00003000
00011000
00001000
00011000
,
00010000
00000100
00000010
00000001
,
00000001
00000100
00001000
00010000
,
01000000
10000000
10000000
00000000
,
00010000
00000000
01000000
00000000
,
00010000
00100000
01000000
10000000
,
00100000
00000000
01000000
00000000
,
00010000
00100000
00001000
00000000
,
00010000
00011000
00010000
00011000
,
00001000
01000000
00100000
10000000
,
10000000
01000000
00010000
00001000
,
00000100
00000001
00000001
00000000
,
00000010
00000100
00001000
00000000
,
00000010
00010000
00001000
00000000
,
00010000
00010000
00001000
00001000
,
01000000
00000000
00100000
00000000
,
10000000
00000000
00000000
00000000
00010000
00000000
00000000
10000000
,
00000000
01000000
00000000
00100000
00000000
00000000
00000000
00000000
,
00001000
00000000
00000000
00000000
00010000
00000000
00000000
00000100
,
00000000
00000000
00000000
00001000
,
00000001
00000010
00000100
00000010
,
00000001
00001000
00000001
00001000
,
00000010
00000000
00000000
00010000
00000000
00001000
00000000
00010000
,
00000000
00001000
00000000
00001000
00000000
00001000
00000000
00000000
,
00010000
00001000
00100000
00000000
,
00010000
00100000
01000000
00000000
,
10000000
10000000
00010000
00010000
,
00100000
01000000
10000000
00000000
,
00100000
00000000
00000000
01000000
00000000
00000000
00010000
00000000
,
00000000
00100000
00000000
00000000
00001000
00000000
00000000
00020000
,
00000000
00000000
00000000
00000000
,
00002000
00000000
00000000
00000000
,
00000000
00000000
00000000
00033000
,
00000000
00000000
00000000
00000000
;
#NOTES:
     dance-double:
     :
     Medium:
     11:
     :
00000000
00000000
00000000
00000000
,
00000000
00000000
00000000
00000000
,
00000000
00000000
00000000
00000000
,
00000000
00000000
00000000
00000000
,
00000000
00000000
00000000
00000000
,
00000000
00000000
00000000
00000000
,
00000000
00000000
00000000
00000000
,
00000000
00000000
00000000
00000000
,
00000000
00000000
00000000
00000000
,
00000000
00000000
00000000
00000000
,
00010000
00000000
00000010
00000000
00001000
00000000
00000001
00000100
,
00000000
00001000
00000000
00010000
00000000
00001000
00100000
00000000
,
01000000
00000000
00010000
00000000
01000000
00000000
10000000
00100000
,
00000000
00010000
00000000
00001000
00000000
00010000
00000100
00000000
,
00001100
00000000
00000000
00000110
00000000
00000000
00000011
00000000
,
00000000
00001001
00000000
00000000
00000110
00000000
00000000
00002002
,
00000000
00000000
00000000
00000000
,
00003003
00000000
00000000
00000000
,
00000001
00000000
00000000
00001000
00000010
00000000
00000000
00010000
,
00000000
00001000
00000000
00010000
00000000
00000000
00000000
00000000
,
00001000
00000000
00000000
01000000
00010000
00000000
00000000
10000000
,
00000000
01000000
00000000
00100000
00000000
00000000
00000000
00000000
,
00001000
00000000
00000000
00010000
00001000
00000000
00000000
00010000
,
00000000
00000010
00000000
00000100
00000000
00000000
00000000
00000001
,
00000100
00000000
00000000
00000010
00010000
00000000
00000000
00001000
,
00000000
00010000
00000000
00100000
00000000
00000000
01000000
00000000
,
00010000
00000000
00000000
10000000
01000000
00000000
00000000
00100000
,
00000000
00001000
00000000
00010000
00000000
00000010
00001000
00000000
,
00000001
00000000
00000000
00000010
00000100
00000000
00000000
00001000
,
00000000
00000001
00000000
00000100
00000000
00000000
00000001
00000010
,
00000100
00000000
00000000
00010000
00001000
00000000
00000000
01000000
,
00000000
00100000
00000000
00010000
00100000
00000000
10000000
00000000
,
00010000
00000000
00000000
10000000
01000000
00000000
00000000
00100000
,
00001000
00010000
00001000
00000100
,
00000001
00000000
00000010
00000000
00000100
00000000
00001000
00000010
,
00000000
00000010
00010000
00000000
00001000
00000000
00100000
00000000
,
00010000
00000000
01000000
00000000
00100000
00000000
10000000
01000000
,
00000000
00010000
00000000
00001000
00000000
00000100
00000000
00000000
,
00000010
00000000
00010000
00000000
00001000
00000000
00000000
00022000
,
00000000
00000000
00033000
00000000
,
00001000
00001000
00100000
00100000
,
00001000
00001000
00010000
00010000
,
00000010
00000000
00000010
00001000
00000000
00001000
00000001
00000000
,
00000001
00000100
00000020
00000030
,
00001020
00010030
00002010
00003001
,
00001020
00010030
00002010
00003001
,
00001000
00000100
00000010
00001000
,
00010000
00001000
01000000
00000000
,
01100000
10000000
00010000
01000000
,
00200000
00320000
00032000
00003200
,
00000310
00000000
00001000
00000000
00000100
00000000
00010000
00001000
,
00000000
00100000
00000000
00010000
00000000
00000000
00000000
00000000
,
00210000
00301000
00120000
10030000
,
00210000
00301000
00120000
10030000
,
00210000
00000000
01300000
00000000
10000000
00000000
00100000
00010000
,
00000000
00001000
00000000
00010000
00000000
01000000
00000000
00100000
,
00000000
00001000
00010000
00000100
,
00001000
00000001
00000100
00000010
,
00001000
00001000
00000100
00010000
,
00002000
00000000
00020000
00033000
,
00001000
00010000
01000000
10000000
,
01000000
00100000
00010000
01000000
,
00100000
00010000
00001000
00010000
,
00001000
00000010
00000001
00001000
,
00000001
00000100
00001000
00010000
,
00001000
00020000
00002000
00000000
,
00033000
00101000
00120000
10030000
,
00210000
00301000
00120000
10030000
,
00210000
01300000
10000000
00100000
,
00010000
00001000
00010000
00000000
,
00010000
00000010
00001000
00000100
,
00000020
00002030
00023000
02030000
,
03100000
00000000
00010000
00000000
01000000
00000000
00001000
00010000
,
00000000
00000100
00000000
00001000
00000000
00000000
00000000
00000000
,
00001020
00010030
00002100
00003001
,
00001020
00010030
00002100
00003001
,
00001020
00000000
00000130
00000000
00000001
00000000
00000010
00000100
,
00000000
00010000
00000000
00001000
00000000
01000000
00000000
00100000
,
00000000
10000000
00010000
10000000
,
01000000
00010000
00001000
00010000
,
00011000
00011000
00010100
00010100
,
00000200
00000000
00000020
00000330
,
00000001
00000000
00001000
00000000
00000001
00000010
00000000
00000100
,
00000000
00001000
00000010
00000000
00010000
00000000
00001000
00000000
,
00010000
00000000
00000000
00000000
01000000
00000000
00000000
00100000
,
00000000
00000000
00000000
00010000
,
10000000
00000000
00010000
01000000
00000000
00010000
00000000
00100000
,
00000000
00001000
00010000
00000000
00001000
00000000
00010000
00000000
,
00001000
00000000
00000000
00000100
00000000
00000000
00000001
00000010
,
00000000
00000100
00000000
00010000
00000000
00001000
00000000
00000000
,
00001000
00000000
00100000
00000000
01000000
00000000
10000000
00100000
,
00000000
00010000
00000000
00001000
00000000
00010000
00000100
00000000
,
00000010
00000000
00001000
00000000
00000010
00000000
00000001
00000100
,
00000000
00001000
00000000
00010000
00000000
00001000
00100000
00000000
,
00110000
00000000
00000000
01100000
00000000
00000000
11000000
00000000
,
00000000
10010000
00000000
00000000
01100000
00000000
00000000
20020000
,
00000000
00000000
00000000
30030000
,
02000000
00000000
00000000
00000000
,
00000000
00000000
00000000
03000000
,
00000000
00000000
00000000
00000000
;
#NOTES:
     dance-double:
     :
     Hard:
     13:
     :
00000000
00000000
00000000
00000000
,
00000000
00000000
00000000
00000000
,
00000000
00000000
00000000
00000000
,
00000000
00000000
00000000
00000000
,
00000000
00000000
00000000
00000000
,
00000000
00000000
00000000
00000000
,
00000000
00000000
00000000
00000000
,
00000000
00000000
00000000
00000000
,
00000000
00000000
00000000
00000000
,
00000000
00000000
00000000
00000000
,
00001000
00000000
00010000
00001000
00010000
00000100
00001000
00000010
,
00000000
00000001
00000000
00000010
00000000
00001000
00000010
00010000
,
00001000
00000100
00001000
00010000
00001000
00010000
00001000
00100000
,
00000000
00010000
00000000
01000000
00000000
00100000
10000000
00000000
,
10000000
01000000
00000000
00010000
00001000
00000000
00000010
00000001
,
00000000
00000100
00001000
00000000
00010000
00000000
00000000
02002000
,
00000000
00000000
00000000
03003000
,
00001000
00010000
00100000
01000000
10000000
01000000
00100000
00010000
,
00001000
00000000
00100000
01000000
00000000
00000000
00000000
10000000
,
00000000
00100000
00000000
00010000
00000000
00001000
00010000
00001000
,
00010000
00000000
00000000
00000100
00000010
00000000
00000000
00000001
,
00000000
00000100
00000000
00001000
00000000
00000000
00010000
00000000
,
00001000
00000000
00000000
01000000
00100000
00000000
00000000
10000000
,
00000000
01000000
00000000
00010000
00000000
00001000
00000000
00010000
,
00000010
00000000
00000000
00001000
00000001
00000000
00000000
00000001
,
00000000
00000010
00000000
00000100
00000000
00010000
00001000
00000000
,
00010000
00000000
00000000
00100000
01000000
00000000
00000000
00001000
,
00000000
00010000
00000000
01000000
00000000
10000000
01000000
00100000
,
00001000
00000000
00000000
00010000
00001000
00000000
00000000
00000100
,
00000010
00010000
00000000
00001000
00000000
00000000
00000010
00000001
,
00000010
00000000
00000000
00000100
00001000
00000000
00000000
00000010
,
00000000
00010000
00000000
00001000
00000100
00000000
00000001
00000000
,
00000010
00000000
00000000
00000100
00010000
00000000
00000000
00001000
,
00010000
00001000
00100000
00001000
01000000
00010000
00100000
00000000
,
01000000
00000000
10000000
00100000
00010000
00000000
00001000
01000000
,
00000000
00010000
00100000
01000000
10000000
01000000
00100000
00010000
,
01000000
00000000
00001000
00010000
00000000
00000010
00000000
00010000
,
00000000
00001000
00000000
00000100
00000000
00000001
00000010
00000000
,
00000100
00000000
00010000
00000000
00001000
00000000
01000000
00200000
,
00000000
00310000
00100000
01000000
00010000
10000000
00100000
01000000
,
00001000
00000000
00000000
00100000
00000000
00000000
00010000
00000000
01000000
00000000
00000000
00001000
00000000
00000000
00010000
00000000
,
00000010
00000000
00000000
00001000
00000000
00000000
00000100
00000000
00010000
00000000
00000000
00000000
00011000
00000000
00000000
00000000
,
00001000
00000010
00001000
00000010
00000001
00000010
00000001
00001000
,
00000001
00000100
00000001
00000100
00002000
00000000
00013000
00000000
,
00101000
00010010
00101000
00101000
,
00010010
00010010
00011000
00101000
,
00110000
10010000
00110000
00101000
,
00110000
00000000
10010000
00000000
00010000
01000000
00100000
10000000
,
00010000
00000000
00100000
00000000
00001000
00000000
00010000
00001000
,
00000100
00000001
00000010
00000100
00001000
00010000
00100000
01000000
,
10000000
00000000
00010000
00000000
10000000
00000000
00100000
01000000
,
00000000
00010000
00100000
00001000
00000000
00010000
00001000
00000000
,
00010010
00101000
00010010
00010010
,
00101000
00101000
00011000
00010010
,
00001010
00000000
00001001
00000000
00001010
00000000
00000010
00010000
,
00000000
00010000
00001000
00000100
00000000
00000100
00000010
00001000
,
00000001
00000010
00000100
00001000
,
00000010
00000000
00010000
00001000
00000000
00001000
01000000
00000000
,
00010000
00110000
10000000
11000000
,
01000000
00100000
00020000
00030000
,
10000000
00010000
01000000
00100000
10000000
00010000
00100000
00001000
,
00010000
00001000
00000100
00000010
00010000
00001000
00010000
00000100
,
00000010
00000001
00001000
00000010
00000100
00000001
00001000
00000001
,
00000010
00000100
00010000
00001000
00010000
00001000
01000000
00000000
,
00010000
10000000
01000000
00100000
00010000
10000000
00100000
10000000
,
01000000
00100000
00001000
00020000
00002000
00000000
00000000
00000000
,
00033000
00101000
00010010
00010010
,
00101000
00101000
00011000
00010010
,
00001010
00001001
00001010
00010010
,
00001010
00000000
00001001
00000000
00001000
00000100
00000010
00000001
,
00001000
00000000
00000010
00000000
00010000
00000000
00001000
00010000
,
01000000
10000000
00100000
01000000
00010000
00001000
00000010
00000100
,
00000001
00000000
00001000
00000000
00000001
00000000
00000010
00000100
,
00000000
00001000
00000010
00010000
00000000
00001000
00010000
00000000
,
00101000
00010010
00101000
00101000
,
00010010
00010010
00011000
00101000
,
00110000
00000000
10010000
00000000
00110000
00000000
00100000
00001000
,
00000000
00001000
00010000
01000000
00000000
01000000
00100000
00010000
,
10000000
00100000
01000000
00010000
,
00100000
00000000
00001000
00010000
00000000
00010000
00000100
00000000
,
00001000
00001010
00000001
00000101
,
00000100
00000010
00002000
00003000
,
00000100
00000000
00010000
00000000
00001000
00010000
00000000
00001000
,
00000000
01000000
00100000
10000000
00000000
00010000
00100000
01000000
,
10000000
00000000
00000000
11000000
00000000
00110000
00000000
00102000
,
00000000
00000000
00000000
00000000
00003000
00000000
00010000
00001000
,
00010000
00000000
00001000
00000100
00000000
00000010
00000100
00000001
,
00000000
00001000
00000100
00000010
00000001
00000010
00000001
00000010
,
00000100
00000000
00000000
00010000
00000000
00001000
00010000
01000000
,
00000000
10000000
00000000
00100000
00000000
00010000
00000000
00000000
,
00001000
00000000
00011000
00000000
00001000
00100000
00010000
01000000
,
00000000
10000000
00000000
01000000
00000000
00010000
01000000
00001000
,
00010000
00100000
00010000
00001000
00010000
00001000
00010000
00000010
,
00000000
00001000
00000000
00000100
00000000
00000010
00000001
00000000
,
00000001
00000100
00000000
00001000
00010000
00000000
00100000
10000000
,
00000000
01000000
00010000
00000000
00001000
00000000
00000000
00020020
,
00000000
00000000
00000000
00030030
,
00000200
00000000
00000000
00000000
,
00000000
00000000
00000000
00000300
,
00000000
00000000
00000000
00000000
;
