
//----- song ID: mrsk -----//
#TITLE:ムラサキグルマ;
#ARTIST:ここなつ Produced by はるなば;
#TITLETRANSLIT:Murasaki guruma;
#ARTISTTRANSLIT:Coconatsu Produced by Harunaba;
#BANNER:Murasaki guruma.png;
#BACKGROUND:Murasaki guruma-bg.png;
#CDTITLE:./CDTitles/SDVX III GRAVITY WARS.png;
#MUSIC:Murasaki guruma.ogg;
#SAMPLESTART:72.001;
#SAMPLELENGTH:15;
#BPMS:0=145,32=125,44=180;
#NOTES:
     dance-single:
     :
     Beginner:
     3:
     :
0000
0000
0000
0000
,
0000
0000
0000
0000
,
0000
0000
0000
0000
,
0000
0000
0000
0000
,
0000
0000
0000
0000
,
0010
0000
0000
0000
,
0010
0000
0000
0000
,
0100
0000
0000
0000
,
0100
0000
0000
0000
,
0020
0000
0000
0000
,
0000
0000
0030
0000
,
2002
0000
0000
0000
,
3003
0000
0000
0000
,
0000
0000
0000
0000
,
0000
0000
0000
0000
,
0001
0000
0000
1000
,
1000
0000
0000
0001
,
0001
0000
0000
1000
,
1000
0000
0000
0001
,
0001
0000
0000
0000
,
0010
0000
0000
0000
,
0100
0000
0000
0000
,
1000
0000
0000
0000
,
0001
0000
0000
0000
,
1000
0000
0000
0000
,
0010
0000
0000
0000
,
0100
0000
0100
0000
,
0100
0000
0000
0000
,
0001
0000
0000
0000
,
1000
0000
0000
0000
,
0010
0000
0010
0000
,
0010
0000
0000
0000
,
1000
0000
0000
0000
,
0001
0000
0000
0000
,
0100
0000
0000
0000
,
0001
0000
0002
0000
,
0003
0000
0000
0000
,
1000
0000
2000
0000
,
3000
0000
0000
0000
,
0010
0000
0020
0000
,
0030
0000
0000
0000
,
0100
0000
0100
0000
,
0200
0000
0300
0000
,
0001
0000
0000
0000
,
0000
0000
0000
0000
,
1000
0000
0000
0000
,
0001
0000
0000
0000
,
1001
0000
0000
0000
,
0110
0000
0000
0000
,
1001
0000
0000
0000
,
0000
0000
0000
0000
,
0001
0000
1000
0000
,
1000
0000
0000
0000
,
0010
0000
0100
0000
,
0100
0000
0000
0000
,
0001
0000
0010
0000
,
0010
0000
0000
0000
,
0100
0000
1000
0000
,
1000
0000
0000
0000
,
0001
0000
1000
0000
,
0010
0000
0000
0000
,
1000
0000
0001
0000
,
0100
0000
0000
0000
,
0001
0000
0010
0000
,
0100
0000
0000
0000
,
1000
0000
0100
0000
,
0010
0000
0000
0000
,
1001
0000
0000
0000
,
0001
0000
0000
0000
,
0010
0000
0000
0000
,
0100
0000
0000
1000
,
1000
0000
0000
0001
,
0001
0000
0000
1000
,
1000
0000
0000
0001
,
0001
0000
0000
0000
,
0200
0000
0000
0000
,
0000
0000
0000
0000
,
0300
0000
0000
0000
,
0000
0000
0000
0000
;
#NOTES:
     dance-single:
     :
     Easy:
     7:
     :
0000
0000
0000
0000
,
0000
0000
0000
0000
,
0000
0000
0000
0000
,
0000
0000
0000
0000
,
0000
0000
0000
0000
,
0002
0003
2000
3000
,
0200
0300
0020
0030
,
0002
0003
0100
0010
,
1000
0100
0002
0000
,
0000
0000
0000
0000
,
0000
0000
0003
0000
,
0220
0000
0000
0000
,
0000
0000
0000
0000
,
0000
0000
0000
0000
,
0000
0000
0000
0330
,
1000
0000
0000
0001
0000
0000
0100
0000
,
0010
0000
0000
1000
0000
0000
0001
0000
,
0100
0000
0000
0010
0000
0000
0100
0000
,
0001
0000
0000
1000
0000
0000
0100
0000
,
1000
0010
0100
0001
,
0000
0001
0010
0100
,
0000
0100
1000
0010
,
1000
0100
0010
0001
,
0000
0001
1000
0010
,
0000
0010
0100
0001
,
0020
0030
0001
0001
,
0010
0100
1000
0001
,
1001
1000
0100
0001
,
0100
1000
0010
0100
,
0001
0010
1000
0010
,
0001
0100
0010
1000
,
0100
0100
0010
0001
,
0100
0010
0001
0010
,
2000
3000
0002
0003
,
0001
0010
0100
1000
,
0010
0001
0020
0100
,
0100
0100
0130
0001
,
0010
1000
0020
0100
,
0100
0100
0130
1000
,
0010
0001
0020
0100
,
0100
0100
0130
0001
,
0010
1000
0010
0001
,
0101
0110
1010
0000
,
2001
0000
0000
0000
,
0100
0000
0000
0001
0000
0000
0010
0000
,
3020
0000
0000
0100
,
0100
0000
0000
1000
0000
0000
1030
0000
,
1001
0000
0000
0010
0000
0000
0100
0000
,
1001
0000
0000
0100
0000
0000
0010
0000
,
2002
0000
0000
3003
,
0001
1000
0110
0000
,
0011
0010
0100
1000
,
1010
0010
0100
0001
,
0011
0010
0100
1000
,
1010
0010
0100
0001
,
0010
1000
0010
0001
,
0010
0100
1000
0010
,
0110
0100
0001
1000
,
1001
0110
1001
0110
,
1001
0001
0010
0100
,
1000
0010
0001
0010
,
0100
0001
0010
1000
,
0010
0100
1000
0010
,
0110
0100
0001
1000
,
1000
0010
0001
0001
,
0010
1000
1000
0100
,
0001
0001
0100
1000
,
2000
3020
0230
0302
,
0013
0001
1000
0010
,
2000
3200
0320
0032
,
0103
0001
1000
0100
,
0110
0000
0000
0001
0000
0000
1000
0000
,
0110
0000
0000
1000
0000
0000
0001
0000
,
0110
0000
0000
0001
0000
0000
1000
0000
,
0110
0000
0000
1000
0000
0000
0001
0000
,
0200
0000
0000
0000
,
0000
0000
0000
0000
,
0300
0000
0000
0000
,
0000
0000
0000
0000
;
#NOTES:
     dance-single:
     :
     Medium:
     11:
     :
0000
0000
0000
0000
,
0000
0000
0000
0000
,
0000
0000
0000
0000
,
0000
0000
0000
0000
,
0000
0000
0000
0001
,
0200
0000
0300
0001
0020
0000
0030
0100
,
2000
0000
3000
0010
0200
0000
0301
0000
,
0010
0000
0000
0001
1000
0000
0100
0000
,
0001
0100
0020
0000
,
0000
0000
0000
0000
,
0000
0000
0030
0000
,
2002
0000
0000
0000
,
0000
0000
0000
0000
,
0000
0000
0000
0000
,
0000
0000
0000
3003
,
0001
0100
0000
0010
1000
0000
0001
0000
,
1000
0010
0000
0100
0001
0000
0010
0000
,
0001
0100
0000
1000
0100
0000
0001
0000
,
1000
0100
0000
0001
0100
0000
1000
0000
,
0001
0000
0000
0000
0100
0000
0000
0000
0010
0000
0000
1000
0000
0000
0001
0000
,
0000
0000
0000
0000
1000
0000
0000
0000
0001
0000
0000
0100
0000
0000
1000
0000
,
0000
0000
0110
0000
0001
0100
0000
0101
,
0000
0001
0010
0001
0010
0100
0000
1000
,
0001
0001
0100
0000
0010
1000
0000
0100
,
0000
1000
0100
0010
,
0001
0001
0100
0000
0001
0000
1000
0100
,
0001
0100
1000
0010
,
0100
0000
0001
0010
0001
0010
0000
0010
,
0001
0000
1000
0100
1000
0100
0000
0100
,
1000
0000
0001
0000
0100
0010
0000
0100
,
0000
0001
0000
0010
0000
1000
0000
0010
,
0100
0000
1000
0001
1000
0001
0000
0100
,
0010
0001
0010
1000
,
0001
0000
1000
0100
0010
0000
0000
0001
,
1000
0010
0100
2000
,
3200
0000
0000
0000
0302
0000
0000
0000
0023
0000
0000
0000
0130
0000
0000
1000
,
0000
0001
0010
0000
0100
0000
0002
0000
,
0203
0000
0000
0000
2300
0000
0000
0000
3020
0000
0000
0000
0130
0000
0000
0001
,
0000
1000
0010
0000
0100
0000
2000
0000
,
3200
0000
0000
0000
0302
0000
0000
0000
0023
0000
0000
0000
1030
0000
0000
0010
,
0000
0100
1000
0000
0010
0000
0100
0000
,
0001
0010
0001
0010
0100
1000
0010
0000
,
0010
0100
0001
1000
0100
0000
0110
0000
,
0011
0000
0000
1000
0000
0000
0100
0000
,
0010
0000
0000
0001
0000
0000
0100
0000
,
0001
0000
0000
1000
0000
0000
0100
0000
,
0010
0000
0000
0001
0000
0000
0200
0000
,
0010
0000
0000
0302
0000
0000
1000
0000
,
0023
0000
0000
0100
0000
0000
0032
0000
,
1003
0000
1000
0010
0000
0100
0001
0000
,
2000
0000
3001
1000
,
0010
0000
0001
0010
0100
0000
0001
0010
,
0100
0000
0010
0100
1000
0000
0001
0000
,
0100
0000
1000
0100
0010
0000
1000
0100
,
0010
0000
0100
0010
0001
0000
1000
0000
,
0100
0000
0001
0100
0010
0000
0001
0100
,
0010
0000
0100
0010
1000
0000
0200
0000
,
2300
3020
0032
0023
,
2030
3200
0302
0103
,
1000
0000
0100
0010
0001
0000
0100
0010
,
0001
0000
0010
0100
1000
0000
0100
0000
,
0001
0000
0010
0100
1000
0000
0010
0100
,
1000
0000
0100
0010
0001
0000
0010
0000
,
1000
0000
0100
0010
0001
0000
0100
0010
,
0001
0000
1000
0100
0010
0000
1000
0100
,
0010
0000
0001
0100
0010
0000
1000
0000
,
1010
0011
0101
1100
,
2001
3020
0230
0302
,
0023
0100
1000
0001
,
0230
2300
3002
0203
,
0320
0100
1000
0001
,
0130
0010
0000
1000
0001
0000
0011
0000
,
0010
0100
0000
1000
0010
0000
0110
0000
,
0100
0001
0000
0010
0100
0000
1100
0000
,
1000
0010
0000
0100
0001
0010
0100
1000
,
0020
0000
0000
0000
,
0000
0000
0000
0000
,
0030
0000
0000
0000
,
0000
0000
0000
0000
;
#NOTES:
     dance-single:
     :
     Hard:
     15:
     :
0000
0000
0000
0000
,
0000
0000
0000
0000
,
0000
0000
0000
0000
,
0000
0000
0000
0000
,
0000
0000
0000
1000
,
0200
0000
0300
1000
0020
0000
0030
1000
,
0200
0000
0300
1000
0020
0000
0032
0000
,
0023
0000
0030
0100
0002
0000
0023
0000
,
2030
3002
2000
0000
,
0000
0000
0000
0000
,
0000
0000
3003
0000
,
0110
0002
2003
3020
,
0032
0023
2030
3200
,
0320
0032
0023
0230
,
2300
0000
0000
0000
3020
0000
0000
0000
0130
0000
0000
0000
0010
0100
0010
0000
,
0001
0010
0100
0000
0100
0000
0001
0010
0100
0000
0100
0000
0010
0000
0000
0000
,
1000
0010
0100
0000
0100
0000
1000
0010
0100
0000
0100
0000
0010
0000
0000
0000
,
0001
0010
0100
0000
0100
0000
0001
0010
0100
0000
0100
0000
0010
0000
0000
0000
,
1000
0010
0100
0000
0100
0000
1000
0010
0100
0000
0100
0000
0001
1000
0001
1000
,
0001
0000
0010
0000
0000
0000
0100
0000
1000
0000
0000
0010
0000
0000
0110
0000
,
0000
0000
0100
0000
0001
0000
0010
0000
1000
0000
0000
0010
0000
0000
0011
0000
,
0000
0000
1000
0010
0100
0000
0000
0001
0000
0000
0010
0000
0000
0000
0011
0000
,
0000
0000
0001
0010
0100
0000
0000
1000
0000
0000
0010
0000
0000
0100
0010
0000
,
1000
0000
1000
0000
0000
0000
0001
0000
0010
0000
0000
0100
0000
0000
1100
0000
,
0000
0000
1000
0000
0001
0000
0100
0010
1000
0000
0000
1001
0000
0000
0001
0000
,
0011
0011
0010
0100
1000
0001
0101
0000
,
0011
0000
0000
1100
0000
0000
1010
0000
0000
0010
0100
0000
0001
0000
0010
0100
,
1000
0001
0100
0010
1000
0001
0010
0100
,
1000
0010
0100
1000
0100
0010
1000
0100
,
0010
1000
0010
0100
1000
0010
0100
0010
,
1000
0000
0100
0000
1000
0000
0010
0000
1000
0000
0001
0000
0100
0000
0001
1000
,
0001
0010
0100
0010
0001
0100
0010
0001
,
0010
0100
0001
0010
0100
0001
0100
0010
,
0001
0100
0010
0100
0001
0010
0001
0100
,
0020
0001
1000
0230
,
1300
0000
0100
0000
0001
0000
0010
0000
2000
0000
0000
0000
3010
0000
0000
0100
,
0000
0000
1000
0000
0010
0000
0000
0000
1000
0000
0001
0010
0200
0000
0000
0000
,
0301
0000
0100
0000
1000
0000
0010
0000
0002
0000
0000
0000
0013
0000
0100
0010
,
0000
0100
0010
0000
1000
0000
0000
0000
0001
0000
1000
0010
0200
0000
0000
0000
,
1300
0000
0100
0000
0001
0000
0010
0000
2000
0000
0000
0000
3010
0000
0000
0100
,
0000
0000
1000
0000
0010
0000
0000
0000
1000
0000
0001
0010
0200
0000
0000
0000
,
0301
0100
1000
0010
0001
0010
1000
0000
,
0100
0000
1000
0010
1000
0000
0100
0000
1100
0000
0000
0000
1001
0000
0000
0000
,
0011
1000
0100
0020
1000
0000
0000
0001
,
0001
0000
0000
1000
0000
0001
0001
0000
,
0230
0000
0000
0001
0000
0000
0010
0000
,
2300
0000
0000
3001
0000
1000
0020
0000
,
0100
0000
0000
2030
0000
0000
0001
0000
,
3200
0000
0000
0010
0000
0000
2300
0000
,
3001
0000
0001
0100
0000
0010
1000
0000
,
0001
0000
1000
0100
0000
1000
0010
0000
0200
0000
0000
0000
0300
0000
0000
0000
,
0010
0000
0100
0000
0001
0000
0010
0001
1000
0000
0001
0000
0100
0000
0010
1000
,
0001
0000
1000
0000
0100
0000
0010
0001
1000
0000
0001
0000
0100
0000
0001
1000
,
0100
0000
1000
0000
0010
0000
0100
0001
1000
0000
0001
0000
0010
0000
0100
1000
,
0001
0000
1000
0000
0010
0000
0100
0001
1000
0000
0010
0000
1000
0000
0100
1000
,
0001
0000
0100
0000
0001
0000
0010
0001
1000
0000
0001
0000
0100
0000
0010
1000
,
0001
0000
1000
0000
0100
0000
0010
0001
1000
0000
0001
0000
0100
0000
0001
1000
,
0100
1000
0010
0100
0001
0010
0100
1000
,
0100
0010
0001
0000
0100
0010
1000
0000
0100
0010
0001
0000
1000
0000
0000
0000
,
1001
0000
0000
0000
0001
0000
0010
0100
1000
0000
0010
0000
0100
0000
1000
0100
,
0010
0000
1000
0000
0100
0000
0010
0100
1000
0000
0010
0000
0100
0000
0010
0000
,
1000
0000
0001
0000
0010
0000
0100
0010
0001
0000
0100
0000
0010
0000
0001
0010
,
0100
0000
0001
0000
0010
0000
0100
0010
0001
0000
0100
0000
0010
0000
0000
0000
,
1000
0000
0100
0000
0010
0000
0001
0010
0100
0000
1000
0000
0001
0000
0010
0100
,
1000
0100
0010
0001
1000
0000
1010
0000
,
0010
0100
0001
1000
0100
0000
0110
0000
,
1001
0110
1001
0110
,
0001
0010
0000
0000
0100
1000
0000
0000
0001
0100
0000
0000
0010
0000
0001
0000
,
0010
0000
1000
0000
0100
0000
0010
0000
0100
0000
1000
0000
0001
0100
0010
0000
,
1000
0100
0000
0000
0010
0001
0000
0000
1000
0010
0000
0000
0100
0000
0001
0000
,
0010
0000
0100
0000
0010
0000
0001
0000
1000
0000
0100
0000
0010
0100
0010
0000
,
1000
0010
0100
0000
0100
0000
1000
0010
0100
0000
0100
0000
0010
0000
0000
0000
,
0001
0010
0100
0000
0100
0000
0001
0010
0100
0000
0100
0000
0010
0000
0000
0000
,
1000
0010
0100
0000
0100
0000
1000
0010
0100
0000
0100
0000
0010
0000
0000
0000
,
0001
0010
0100
0000
0100
0000
0001
0010
0100
0000
0100
0000
1000
0010
0100
0001
,
2000
0000
0000
0000
,
0000
0000
0000
0000
,
3000
0000
0000
0000
,
0000
0000
0000
0000
;
#NOTES:
     dance-double:
     :
     Easy:
     7:
     :
00000000
00000000
00000000
00000000
,
00000000
00000000
00000000
00000000
,
00000000
00000000
00000000
00000000
,
00000000
00000000
00000000
00000000
,
00000000
00000000
00000000
00000000
,
00020000
00030000
00002000
00003000
,
00200000
00300000
00020000
00030000
,
02000000
03000000
00100000
10000000
,
01000000
00010000
00002000
00000000
,
00000000
00000000
00000000
00000000
,
00000000
00000000
00003000
00000000
,
00022000
00000000
00000000
00000000
,
00000000
00000000
00000000
00000000
,
00000000
00000000
00000000
00000000
,
00000000
00000000
00000000
00033000
,
00010000
00000000
00000000
00010000
00000000
00000000
00000100
00000000
,
00001000
00000000
00000000
00001000
00000000
00000000
00000010
00000000
,
00000100
00000000
00000000
00000100
00000000
00000000
00000001
00000000
,
00000010
00000000
00000000
00000010
00000000
00000000
00000001
00000000
,
00001000
00000010
00000100
00000001
,
00000000
00000010
00000100
00001000
,
00000000
00000010
00010000
00001000
,
00000000
00001000
00010000
00000100
,
00001100
00001000
00000010
00000100
,
00000000
00000001
00000010
00000100
,
00002000
00003000
00000001
00000001
,
00000100
00001000
00010000
01000000
,
10000000
00010000
01000000
00100000
,
10000000
00010000
00100000
00010000
,
10000000
00100000
01000000
00010000
,
00100000
00001000
00010000
00001000
,
00011000
00010000
01000000
10000000
,
00100000
01000000
00010000
10000000
,
02000000
03000000
02000000
03000000
,
10000000
00100000
10000000
01000000
,
00010000
00001000
00000200
00000010
,
00000010
00000010
00000310
00000100
,
00001000
00010000
02000000
00100000
,
00100000
00100000
03100000
01000000
,
00010000
00001000
00000200
00000010
,
00000010
00000010
00000310
00000100
,
00001000
00010000
01000000
10000000
,
00100000
00010000
00001000
00010000
,
00011000
00000000
00000000
00000000
00000000
00000000
00000000
00001000
,
00010000
00000000
00000000
00000100
00000000
00000000
00000010
00000000
,
00000001
00000000
00000000
00000001
,
00000100
00000000
00000000
00001000
00000000
00000000
00010000
00000000
,
00011000
00000000
00000000
00100000
00000000
00000000
00001000
00000000
,
00011000
00000000
00000000
00000010
00000000
00000000
00010000
00000000
,
00022000
00000000
00000000
00033000
,
00010000
01000000
10000000
00000000
,
10000000
01000000
00100000
00010000
,
01000000
00100000
00010000
00001000
,
00000010
00000001
00000100
00001000
,
00010000
00001000
00000100
00000001
,
00000010
00000100
00001000
00000010
,
00000100
00001000
00010000
01000000
,
00100000
00001000
00010000
00100000
,
10000000
10000000
00010000
00010000
,
10000000
01000000
00010000
00001000
,
00000010
00000001
00000010
00001000
,
00010000
01000000
10000000
00100000
,
00010000
00001000
00000100
00000001
,
00000100
00001000
00010000
00100000
,
10000000
01000000
00010000
00001000
,
00000010
00000001
00000100
00001000
,
00010000
00100000
10000000
01000000
,
20000000
30200000
02300000
03020000
,
00130000
00001000
00010000
00000010
,
00002000
00003200
00000320
00000032
,
00000103
00001000
00010000
00001000
,
00010000
00000000
00000000
00001000
00000000
00000000
00010000
00000000
,
00000010
00000000
00000000
00000100
00000000
00000000
00000010
00000000
,
00001000
00000000
00000000
00000100
00000000
00000000
00000010
00000000
,
00000001
00000000
00000000
00000100
00000000
00000000
00001000
00000000
,
00012000
00000000
00000000
00000000
,
00000000
00000000
00000000
00000000
,
00003000
00000000
00000000
00000000
,
00000000
00000000
00000000
00000000
;
#NOTES:
     dance-double:
     :
     Medium:
     11:
     :
00000000
00000000
00000000
00000000
,
00000000
00000000
00000000
00000000
,
00000000
00000000
00000000
00000000
,
00000000
00000000
00000000
00000000
,
00000000
00000000
00000000
00001000
,
00020000
00000000
00030000
00000100
00002000
00000000
00003000
00000010
,
00000200
00000000
00000300
00000001
00000020
00000000
00000130
00000000
,
00001000
00000000
00000000
00000010
00010000
00000000
00001000
00000000
,
00000100
00000001
00000020
00000000
,
00000000
00000000
00000000
00000000
,
00000000
00000000
00000030
00000000
,
00002002
00000000
00000000
00000000
,
00000000
00000000
00000000
00000000
,
00000000
00000000
00000000
00000000
,
00000000
00000000
00000000
00003003
,
00000001
00000100
00000000
00000010
00010000
00000000
00001000
00000000
,
00010000
01000000
00000000
10000000
00100000
00000000
01000000
00000000
,
00001000
00010000
00000000
00000010
00001000
00000000
00000001
00000000
,
00000100
00001000
00000000
00010000
00100000
00000000
10000000
00000000
,
00010000
00000000
00000000
00000000
01000000
00000000
00000000
00000000
00100000
00000000
00000000
00010000
00000000
00000000
00001000
00000000
,
00000000
00000000
00000000
00000000
00100000
00000000
00000000
00000000
00001000
00000000
00000000
00010000
00000000
00000000
01000000
00000000
,
00000000
00000000
00100000
00000000
00001000
00010000
00000000
00010100
,
00000000
00000100
00000010
00000001
00001000
00000010
00000000
00000100
,
00000001
00000001
00000010
00000000
00000100
00001000
00000000
00000010
,
00000000
00010000
00001000
01000000
,
00100000
00100000
01000000
00000000
00010000
00000000
10000000
01000000
,
00010000
00001000
00000010
00000001
,
00001000
00000000
00000001
00000000
00000010
00000100
00000000
00001000
,
00000010
00000000
00010000
00000000
00001000
00010000
00000000
00100000
,
01000000
00000000
00010000
00000000
10000000
01000000
00000000
00010000
,
00000000
00001000
00000000
00000100
00000000
00000010
00000000
00010000
,
00001000
00000000
01000000
00010000
01000000
00010000
00000000
10000000
,
01000000
00100000
00001000
00010000
,
01000000
00000000
10000000
01000000
00100000
00000000
00000000
00001000
,
00010000
00001000
01000000
00200000
,
00320000
00000000
00000000
00000000
00032000
00000000
00000000
00000000
00003200
00000000
00000000
00000000
00000310
00000000
00000000
00010000
,
00000000
00001000
00010000
00000000
00000100
00000000
00000020
00000000
,
00002030
00000000
00000000
00000000
00023000
00000000
00000000
00000000
02030000
00000000
00000000
00000000
03100000
00000000
00000000
00001000
,
00000000
00010000
00001000
00000000
01000000
00000000
00200000
00000000
,
00320000
00000000
00000000
00000000
00032000
00000000
00000000
00000000
00003200
00000000
00000000
00000000
00000310
00000000
00000000
00010000
,
00000000
00001000
00010000
00000000
00000100
00000000
00010000
00000000
,
00001000
00100000
00010000
10000000
01000000
00100000
00001000
00000000
,
00010000
00001000
00010000
00001000
00010000
00000000
00001000
00000000
,
00021000
00000000
00000000
00100000
00000000
00000000
00031000
00000000
,
00012000
00000000
00000000
00000010
00000000
00000000
00013000
00000000
,
02001000
00000000
00000000
00100000
00000000
00000000
03001000
00000000
,
00010200
00000000
00000000
00000010
00000000
00000000
00020300
00000000
,
00001000
00000000
00000000
00032000
00000000
00000000
00100000
00000000
,
00023000
00000000
00000000
00000010
00000000
00000000
00032000
00000000
,
00013000
00000000
00001000
00100000
00000000
01000000
00010000
00000000
,
00002000
00000000
00013000
00000000
,
00011000
00000000
00010000
00001000
00000100
00000000
00001000
00000100
,
00000010
00000000
00010000
00000100
00000010
00000000
00000100
00000000
,
00010000
00000000
00001000
00000100
00000010
00000000
00001000
00000100
,
00000010
00000000
00000100
00000010
00000001
00000000
00001000
00000000
,
00000001
00000000
00000100
00000010
00001000
00000000
00000100
00010000
,
00001000
00000000
00100000
01000000
10000000
00000000
00200000
00000000
,
00320000
00032000
00023000
02030000
,
23000000
30200000
00320000
00031000
,
00011000
00000000
00001000
00010000
00100000
00000000
00010000
00100000
,
01000000
00000000
00001000
00100000
01000000
00000000
00100000
00000000
,
00001000
00000000
00010000
00100000
01000000
00000000
00010000
00100000
,
01000000
00000000
00100000
01000000
10000000
00000000
00010000
00000000
,
10000000
00000000
00100000
01000000
00010000
00000000
00100000
00001000
,
00010000
00000000
00000100
00000010
00000001
00000000
00000100
00000000
,
00001000
00010000
00000010
00000000
00010000
00001000
00000010
00000000
,
00000001
00000100
00001000
00010000
,
00002000
00023000
02030000
03200000
,
00320000
10000000
01000000
00001000
,
02030000
03200000
00320000
00032000
,
00003200
00010000
00001000
00000010
,
00000301
00000010
00000000
00000100
00001000
00000000
00000010
00000000
,
00010000
00001000
00000000
01000000
00100000
00000000
10000000
00000000
,
01000000
00010000
00000000
00001000
00000010
00000000
00000001
00000000
,
00000100
00001000
00000000
00010000
00100000
00000000
10000000
00000000
,
02000000
00000000
00000000
00000000
,
00000000
00000000
00000000
00000000
,
03000000
00000000
00000000
00000000
,
00000000
00000000
00000000
00000000
;
#NOTES:
     dance-double:
     :
     Hard:
     15:
     :
00000000
00000000
00000000
00000000
,
00000000
00000000
00000000
00000000
,
00000000
00000000
00000000
00000000
,
00000000
00000000
00000000
00000000
,
00000000
00000000
00000000
00010000
,
00002000
00000000
00003000
00000100
00000002
00000000
00000003
00000010
,
00002000
00000000
00003000
00010000
02000000
00000000
23000000
00000000
,
30200000
00000000
00300000
01000000
00020000
00000000
10000000
00000000
,
00100000
00001000
02030000
00000000
,
00200000
00000000
00000000
00000000
,
00000000
00000000
03300000
00000000
,
10020000
00230000
02300000
23000000
,
30200000
00320000
00032000
02003000
,
03200000
00320000
00032000
00023000
,
00030200
00000320
00002030
00013000
,
01000000
00100000
00010000
00000000
00010000
00000000
01000000
00100000
00010000
00000000
00010000
00000000
00001000
00000000
00000000
00000000
,
00000010
00000100
00001000
00000000
00001000
00000000
00000010
00000100
00001000
00000000
00001000
00000000
00010000
00000000
00000000
00000000
,
01000000
00100000
00010000
00000000
00010000
00000000
01000000
00100000
00010000
00000000
00010000
00000000
00001000
00000000
00000000
00000000
,
00000010
00000100
00001000
00000000
00001000
00000000
00000010
00000100
00001000
00000000
00001000
00000000
00010000
00001000
00010000
00001000
,
00010000
00000000
00000100
00000000
00000000
00000000
00001000
00000000
00000010
00000000
00000000
00000100
00000000
00000000
00001010
00000000
,
00000000
00000000
00000001
00000000
00000100
00000000
00000010
00000000
00010000
00000000
00000000
01000000
00000000
00000000
00100000
00000000
,
00000000
00000000
00010000
00100000
00010000
00000000
00000000
10000000
00000000
00000000
10100000
00000000
00000000
00000000
10010000
00000000
,
00000000
00000000
00010000
01000000
00100000
00000000
00000000
00010000
00000000
00000000
00001000
00000000
00000000
00010000
00001000
00000000
,
01000000
00000000
01000000
00000000
00000000
00000000
00010000
00000000
00100000
00000000
00000000
01000000
00000000
00000000
00110000
00000000
,
00000000
00000000
10000000
00000000
01000000
00000000
00100000
00001000
00010000
00000000
00000000
00011000
00000000
00000000
00010000
00000000
,
00000010
00000000
00001000
00000100
00000010
00000000
00001000
00000000
00010000
00000000
00000010
00000000
00001010
00000000
00000000
00000000
,
00001001
00000000
00000000
00000011
00000000
00000000
00001100
00000000
00000000
00010000
00001000
00000000
01000000
00000000
00100000
10000000
,
00010000
00100000
01000000
10000000
00100000
00010000
00001000
00010000
,
00000100
00000010
00001000
00000010
00000100
00010000
00001000
00000100
,
00000001
00000010
00000100
00001000
00000010
00000100
00001000
00010000
,
01000000
00100000
00010000
10000000
00100000
00010000
00001000
00010000
,
00010100
00000000
00000011
00000010
00000100
00001000
00000010
00010000
,
00001000
00010000
00100000
01000000
00100000
00010000
00100000
10000000
,
01000000
00010000
01000000
10000000
00100000
00010000
00001000
00100000
,
00001000
00000100
00000010
00020000
,
00030100
00000000
00000010
00000000
00001000
00000000
00010000
00000000
02000000
00000000
00000000
00000000
03100000
00000000
00000000
00001000
,
00000000
00000000
00000010
00000000
00000100
00000000
00000000
00000000
00010000
00000000
00001000
00010000
00002000
00000000
00000000
00000000
,
01003000
00000000
00100000
00000000
00010000
00000000
00001000
00000000
00000200
00000000
00000000
00000000
00000310
00000000
00000000
00010000
,
00000000
00000000
00100000
00000000
01000000
00000000
00000000
00000000
00001000
00000000
00010000
00001000
00020000
00000000
00000000
00000000
,
00030100
00000000
00000010
00000000
00001000
00000000
00010000
00000000
02000000
00000000
00000000
00000000
13000000
00000000
00000000
00100000
,
00000000
00010000
00001000
00010000
00000100
00000010
00001000
00010000
,
01000000
00100000
00010000
01000000
00100000
00010000
00001000
00000100
,
00000010
00001000
00000100
00000010
00000011
00000000
00001100
00000000
,
00010000
00000010
00001000
00020000
01000000
00000000
00000000
00100000
,
00100000
00000000
00000000
00032000
00000000
00000100
00000100
00000000
,
00003002
00000000
00000000
00000100
00000000
00000000
00000023
00000000
,
00002030
00000000
00000000
00013000
00000000
00001000
02000000
00000000
,
00010000
00000000
00000000
03002000
00000000
00000000
00010000
00000000
,
00203000
00000000
00000000
00010000
00000000
00000000
00302000
00000000
,
00013000
00000000
00001000
00000100
00000000
00000010
00010000
00000000
,
00022000
00000000
00033000
00011000
,
00010000
01000000
00100000
00010000
01000000
00100000
00010000
00001000
,
00000010
00000100
00001000
00000010
00000100
00001000
00010000
01000000
,
00100000
00010000
01000000
00100000
00010000
00001000
00000100
00000010
,
00010000
00001000
00000010
00000001
00000100
00001000
00010000
00100000
,
01000000
00010000
00100000
01000000
00010000
00001000
00000100
00000010
,
00001000
00000100
00000010
00001000
00010000
00100000
10000000
01000000
,
00010000
00001000
00010000
00100000
10000000
01000000
00010000
01000000
,
10000000
00100000
00010000
00001000
00010000
01000000
00200000
00000000
,
00301000
00000100
00000001
00000010
00001000
00010000
01000000
10000000
,
00100000
00010000
00001000
00010000
01000000
00100000
10000000
00100000
,
01000000
00010000
00001000
00000100
00000010
00000001
00000010
00000100
,
00001000
00010000
01000000
10000000
00100000
00010000
00002000
00000000
,
00003010
00001000
00010000
01000000
10000000
00100000
01000000
10000000
,
01000000
00100000
00010000
00001000
00000100
00000010
00010000
00001000
,
00000010
00000100
00010000
00001000
00010000
01000000
00100000
00010000
,
10010000
01100000
10010000
01100000
,
10000000
01000000
00000000
00000000
00100000
00001000
00000000
00000000
00010000
00000100
00000000
00000000
00000010
00000000
00000001
00000000
,
00000100
00001000
00010000
00100000
10000000
01000000
00010000
00001000
,
00000010
00000001
00000000
00000000
00000001
00000100
00000000
00000000
00000010
00010000
00000000
00000000
00001000
00000000
01000000
00000000
,
00100000
00010000
00001000
00000100
00000001
00000010
00001000
00010000
,
01000000
00100000
00010000
00000000
00010000
00000000
01000000
00100000
00010000
00000000
00010000
00000000
00001000
00000000
00001000
00000000
,
00000010
00000100
00001000
00000000
00001000
00000000
00000010
00000100
00001000
00000000
00001000
00000000
00010000
00000000
00010000
00000000
,
01000000
00100000
00010000
00000000
00010000
00000000
01000000
00100000
00010000
00000000
00010000
00000000
00001000
00000000
00001000
00000000
,
00000010
00000100
00001000
00000000
00001000
00000000
00000010
00000100
00001000
00000000
00001000
00000000
00010000
00001000
00010000
00001000
,
00020000
00000000
00000000
00000000
,
00000000
00000000
00000000
00000000
,
00030000
00000000
00000000
00000000
,
00000000
00000000
00000000
00000000
;
