
//----- song ID: ngon -----//
#TITLE:Moving On;
#ARTIST:J.J. Pops;
#BANNER:Moving On.png;
#BACKGROUND:Moving On-bg.png;
#CDTITLE:./CDTitles/DDR HOTTEST PARTY.png;
#MUSIC:Moving On.ogg;
#SAMPLESTART:57.751;
#SAMPLELENGTH:15;
#BPMS:0=140;
#BGSTAGE:3;
#NOTES:
     dance-single:
     :
     Beginner:
     1:
     :
0000
0000
0000
0000
,
0000
0000
0000
0000
,
0000
0000
0000
0000
,
0000
0000
0000
0000
,
0000
0000
0000
0000
,
0000
0000
0000
0000
,
0001
0000
0000
0000
,
0000
0000
0000
0000
,
0001
0000
0000
0000
,
0000
0000
0000
0000
,
0010
0000
0000
0000
,
0000
0000
0000
0000
,
0010
0000
0000
0000
,
0000
0000
0000
0000
,
0010
0000
0000
0000
,
0000
0000
0000
0000
,
0000
0000
0000
0000
,
0000
0000
0000
0000
,
1000
0000
0000
0000
,
0000
0000
0000
0000
,
1000
0000
0000
0000
,
0000
0000
0000
0000
,
0010
0000
0000
0000
,
0000
0000
0000
0000
,
0010
0000
0000
0000
,
0000
0000
0000
0000
,
1000
0000
0000
0000
,
0000
0000
0000
0000
,
1000
0000
0000
0000
,
0000
0000
0000
0000
,
0100
0000
0000
0000
,
0000
0000
0000
0000
,
0000
0000
0000
0000
,
0000
0000
0000
0000
,
1000
0000
0000
0000
,
0000
0000
0000
0000
,
1000
0000
0000
0000
,
0000
0000
0000
0000
,
0010
0000
0000
0000
,
0000
0000
0000
0000
,
0010
0000
0000
0000
,
0000
0000
0000
0000
,
0001
0000
0000
0000
,
0000
0000
0000
0000
,
0001
0000
0000
0000
,
0000
0000
0000
0000
,
0010
0000
0000
0000
,
0000
0000
0000
0000
,
0010
0000
0000
0000
,
0000
0000
0000
0000
,
0001
0000
0000
0000
,
0000
0000
0000
0000
,
0000
0000
0000
0000
,
0000
0000
0000
0000
,
0010
0000
0000
0000
,
0000
0000
0000
0000
,
1000
0000
0000
0000
,
1000
0000
0000
0000
,
0000
0000
0000
0000
;
#NOTES:
     dance-single:
     :
     Easy:
     3:
     :
0000
0000
0000
0000
,
0000
0000
0000
0000
,
0000
0000
0000
0000
,
0000
0000
0000
0000
,
0000
0000
0000
0000
,
0000
0000
0000
0000
,
1000
0000
0000
0000
,
0001
0000
0000
0000
,
1000
0000
0000
0000
,
0000
0000
0000
0000
,
1000
0000
1000
0000
,
0010
0000
0000
0000
,
1000
0000
1000
0000
,
0100
0000
0000
0000
,
0001
0000
0001
0000
,
0010
0000
0000
0000
,
0001
0000
0001
0000
,
0100
0000
0000
0000
,
0002
0000
0000
0000
,
0003
0000
0000
0000
,
0001
0000
0010
0000
,
0001
0000
0010
0000
,
0200
0000
0000
0000
,
0300
0000
0000
0000
,
1000
0000
0010
0000
,
1000
0000
0010
0000
,
1000
0000
0000
0000
,
1000
0000
0000
0000
,
1000
0000
0001
0000
,
1000
0000
0000
0000
,
0001
0000
0000
0000
,
0001
0000
0000
0000
,
0001
0000
1000
0000
,
0001
0000
0000
0000
,
0002
0000
0000
0000
,
0003
0000
0001
0000
,
0020
0000
0000
0000
,
0030
0000
0010
0000
,
0200
0000
0000
0000
,
0300
0000
0100
0000
,
2000
0000
0000
0000
,
3000
0000
0000
0000
,
2000
0000
0000
0000
,
3000
0000
1000
0000
,
0020
0000
0000
0000
,
0030
0000
0010
0000
,
0200
0000
0000
0000
,
0300
0000
0100
0000
,
0002
0000
0000
0000
,
0003
0000
0000
0000
,
1001
0000
0000
0000
,
0001
0000
0001
0000
,
0010
0000
0000
0000
,
0001
0000
0100
0000
,
0010
0000
0000
0000
,
1000
0000
1000
0000
,
0100
0000
0010
0000
,
1001
0000
0000
0000
,
0000
0000
0000
0000
;
#NOTES:
     dance-single:
     :
     Medium:
     7:
     :
0000
0000
0000
0000
,
0000
0000
0000
0000
,
0000
0000
0000
0000
,
0000
0000
0000
0000
,
0000
0000
0000
0000
,
0000
0000
0000
0000
,
2000
0000
0000
0000
3000
0000
1000
0100
,
0020
0000
0000
0000
0030
0000
0010
0001
,
0010
0010
0001
0001
,
2002
0000
0000
3003
,
0001
0100
0001
0100
,
0010
1000
0010
0000
,
1000
0010
1000
0010
,
1000
0100
1000
0000
,
0100
1000
0100
1000
,
0001
0010
0001
0000
,
0001
0000
0000
0000
0100
0000
0000
0000
0001
0000
0000
1000
0000
0000
0001
0000
,
0000
0000
0000
0000
,
0001
0000
0100
0000
0010
1000
0010
0000
,
1000
0100
0010
0000
,
0001
0000
0011
0000
0010
0001
0000
1000
,
0000
0001
1000
0000
0000
0000
0000
0000
,
1000
0000
0100
0000
0010
0001
0010
0000
,
0001
0100
0010
0000
,
1000
0000
1010
0000
0010
0000
1000
0001
,
0000
1000
0001
0000
0000
0000
0000
0000
,
2000
0000
3000
1000
,
0020
0000
0030
0010
,
0200
0000
0300
0100
,
0002
0000
0000
0003
,
1000
0000
0100
0000
0010
0001
0010
0000
,
0001
0000
0100
0000
0010
1000
0010
0000
,
1000
0000
1001
0000
,
0000
0000
0000
0000
,
0001
0100
1000
0100
,
0001
0000
1001
0000
,
1000
0100
0001
0100
,
1000
0000
1001
0000
,
1000
1000
0100
0010
,
0001
0001
0010
0100
,
1100
0000
0101
0000
,
1001
0000
0000
0000
,
1000
0010
0001
0010
,
1000
0000
1001
0000
,
0001
0010
1000
0010
,
0001
0000
1001
0000
,
0001
0001
0010
0100
,
1000
1000
0100
0010
,
0011
0000
1010
0000
,
1001
0000
0000
0000
,
2000
0000
0000
3000
,
0002
0003
0200
0300
,
0020
0000
0000
0030
,
2000
3000
0002
0003
,
1000
0000
0010
0000
0100
0001
0100
0000
,
0001
0000
0010
0000
0100
1000
0100
0000
,
1000
0000
0000
0000
0001
0000
0000
0000
0100
0000
0000
0010
0000
0000
0110
0000
,
0000
0000
0000
0000
;
#NOTES:
     dance-single:
     :
     Hard:
     11:
     :
0000
0000
0000
0000
,
0000
0000
0000
0000
,
0000
0000
0000
0000
,
0000
0000
0000
0000
,
0000
0000
0000
0000
,
0000
0000
0000
0000
,
2000
0100
0001
0100
,
3002
0010
1000
0010
,
1003
0100
0010
0000
0001
0100
0010
0000
,
2002
0000
0000
3003
,
1000
0100
0010
0100
1000
0001
0010
0000
,
0001
0100
0010
0100
0001
1000
0010
0000
,
2000
0000
0001
0000
0100
0000
3010
0100
,
0002
0000
1000
0000
0100
0000
0013
0100
,
1000
0001
0010
0001
1000
0010
1000
0000
,
0001
1000
0100
1000
0001
0100
0001
0000
,
1000
0000
0100
0000
0010
0000
0001
0000
1000
0000
0000
0001
0000
0000
1001
0000
,
0000
0000
0000
0000
,
2000
0000
3200
0000
0310
0001
0100
0010
,
2000
3020
0032
0023
,
1030
1010
0001
0011
,
0010
0001
0100
0000
0010
1000
0100
0000
,
2000
0000
3002
0000
0103
0010
1000
0010
,
0200
0302
0023
0230
,
1300
0000
1100
0000
0001
0000
0100
0001
,
0000
0001
1000
0000
0010
0100
0010
0000
,
2000
0000
3200
0000
0301
0100
1000
0000
,
0002
0000
0203
0000
1300
0100
0001
0000
,
1000
0010
0100
0000
0001
0010
0100
0000
,
1000
0001
0100
0010
1000
0000
0000
0000
,
0002
0000
0000
0013
0000
0000
0011
0000
,
2000
0000
0000
3100
0000
0000
1100
0000
,
1000
0000
0000
1000
0002
0000
0000
0000
,
0000
0000
0000
0003
,
0001
0100
0010
0100
0001
0100
0010
0000
,
1000
0100
0010
0100
1000
0100
0010
0000
,
0001
0000
0010
0000
1000
0010
0001
0000
,
1000
0100
0010
0001
0100
0000
1001
0000
,
1000
0010
1000
0010
0000
0010
0100
0000
,
0002
0023
0230
2300
,
3001
0000
0100
0000
0001
0000
0000
0000
1000
0000
0000
0100
0000
0000
0010
0000
,
0001
0000
0000
1000
0000
0000
1000
0000
0001
0000
0000
0000
1001
0000
0000
0000
,
1000
0010
0100
0010
1000
0010
0100
0000
,
0001
0010
0100
0010
0001
0010
0100
0000
,
1000
0000
0100
0000
0001
0100
1000
0000
,
0001
0010
0100
1000
0010
0000
1001
0000
,
0001
0100
0001
0100
0000
0100
0010
0000
,
1000
0000
0000
0000
1000
0000
0100
0000
0010
0000
0000
0001
0000
0000
0001
0000
,
1000
0100
1000
0100
0001
0000
0001
0100
,
2000
0000
0002
3003
,
1001
0000
0001
0100
0001
0100
0010
0000
,
1000
0000
1000
0100
1000
0100
0010
0000
,
0002
0010
0203
1000
,
0301
0000
0001
0100
0010
1000
0010
0000
,
1001
0000
1000
0010
1000
0010
0100
0000
,
0001
0000
0001
0010
0001
0010
0100
0000
,
1000
0000
0010
0000
0100
0000
0001
0000
1000
0000
0000
0001
0000
0000
1001
0000
,
0000
0000
0000
0000
;
#NOTES:
     dance-double:
     :
     Easy:
     3:
     :
00000000
00000000
00000000
00000000
,
00000000
00000000
00000000
00000000
,
00000000
00000000
00000000
00000000
,
00000000
00000000
00000000
00000000
,
00000000
00000000
00000000
00000000
,
00000000
00000000
00000000
00000000
,
00001000
00000000
00000000
00000000
,
00010000
00000000
00000000
00000000
,
00001000
00000000
00000000
00000000
,
00000000
00000000
00000000
00000000
,
00001000
00000000
00001000
00000000
,
01000000
00000000
00000000
00000000
,
01000000
00000000
01000000
00000000
,
00010000
00000000
00000000
00000000
,
00010000
00000000
10000000
00000000
,
01000000
00000000
00000000
00000000
,
01100000
00000000
00000000
00000000
,
00000000
00000000
00000000
00000000
,
10000000
00000000
01000000
00000000
,
00100000
00000000
00000000
00000000
,
00001000
00000000
00010000
00000000
,
00001000
00000000
00000000
00000000
,
00001000
00000000
00010000
00000000
,
00000010
00000000
00000000
00000000
,
00001000
00000000
00000001
00000000
,
00001000
00000000
00000000
00000000
,
00000002
00000000
00000000
00000003
,
00000001
00000100
00000010
00000000
,
00020000
00000000
00000000
00030000
,
00010000
00001000
00010000
00000000
,
00011000
00000000
00000000
00000000
,
00011000
00000000
00000000
00000000
,
00001000
00000000
00010000
00000000
,
00100000
00000000
00000000
00000000
,
20000000
00000000
00000000
00000000
,
30000000
00000000
10000000
00000000
,
00020000
00000000
00000000
00000000
,
00030000
00000000
00010000
00000000
,
02000000
00000000
00000000
00000000
,
03000000
00000000
01000000
00000000
,
00002000
00000000
00000000
00000000
,
00003000
00000000
00000000
00000000
,
00001000
00000000
00010000
00000000
,
00000100
00000000
00000000
00000000
,
00000100
00000000
00010000
00000000
,
00001000
00000000
00000000
00000000
,
00010000
00000000
00001000
00000000
,
01000000
00000000
00000000
00000000
,
01000000
00000000
00001000
00000000
,
00010000
00000000
00000000
00000000
,
00011000
00000000
00000000
00000000
,
00010000
00000000
00000100
00000000
,
00001000
00000000
00000000
00000000
,
00001000
00000000
00000010
00000000
,
00010000
00000000
00000000
00000000
,
00010000
00000000
00001000
00000000
,
00100000
00000000
00100000
00000000
,
01100000
00000000
00000000
00000000
,
00000000
00000000
00000000
00000000
;
#NOTES:
     dance-double:
     :
     Medium:
     7:
     :
00000000
00000000
00000000
00000000
,
00000000
00000000
00000000
00000000
,
00000000
00000000
00000000
00000000
,
00000000
00000000
00000000
00000000
,
00000000
00000000
00000000
00000000
,
00000000
00000000
00000000
00000000
,
00001000
00000000
00001000
00010000
,
00000010
00000000
00000010
00001000
,
00000001
00000010
00000100
00010000
,
00002000
00000000
00000000
00003000
,
00001000
00010000
00001000
00010000
,
00001000
00100000
00001000
00100000
,
00010000
00010000
01000000
00000000
,
00010000
00010000
10000000
00000000
,
10000000
01000000
10000000
01000000
,
10000000
00010000
10000000
00010000
,
00100000
00100000
00001000
00000000
,
00011000
00000000
00000000
00000000
,
00001000
00000000
00010000
00000000
00000010
00001000
00000010
00000000
,
00000100
00000001
00000100
00000000
,
00000001
00000000
00000010
00000000
00000100
00000010
00000000
00000001
,
00000000
00001000
00000100
00000000
00000000
00000000
00000000
00000000
,
00000100
00000000
00001000
00000000
00000100
00010000
00000100
00000000
,
00010000
00001000
00010000
00000000
,
00001000
00000000
01000000
00000000
00010000
00000000
01000000
00100000
,
00000000
01000000
00100000
00000000
00000000
00000000
00000000
00000000
,
20000000
00000000
30000000
10000000
,
00020000
00000000
00030000
00010000
,
00200000
00000000
00300000
00100000
,
00002000
00000000
00000000
00003000
,
00001000
00000000
00010000
00000000
00000100
00001000
00000100
00000000
,
00000010
00000000
00000001
00000000
00000100
00000010
00000100
00000000
,
00001000
00000000
00011000
00000000
,
00000000
00000000
00000000
00000000
,
00001000
00010000
00001000
00000000
,
00100000
00010000
00100000
00000000
,
00010000
01000000
00010000
10000000
,
00010000
00000000
10010000
00000000
,
10000000
01000000
00100000
00010000
,
00100000
00100000
00001000
00000000
,
00011000
00000000
00010010
00000000
,
00011000
00000000
00000000
00000000
,
00010000
00001000
00010000
00000000
,
00000010
00001000
00000010
00000000
,
00001000
00000100
00001000
00000001
,
00001000
00000000
00001001
00000000
,
00000001
00000100
00000010
00001000
,
00000010
00000010
00010000
00000000
,
00011000
00000000
00101000
00000000
,
00011000
00000000
00000000
00000000
,
00010000
00001000
00010000
00001000
,
00100000
00010000
01000000
00000000
,
00010000
10000000
01000000
00000000
,
00100000
00001000
00010000
00000000
,
00001000
00010000
00001000
00010000
,
00000100
00001000
00000100
00000010
,
00000001
00000000
00000100
00000000
00000001
00000000
00000000
00000000
00001000
00000000
00000000
00000010
00000000
00000000
00000110
00000000
,
00000000
00000000
00000000
00000000
;
#NOTES:
     dance-double:
     :
     Hard:
     11:
     :
00000000
00000000
00000000
00000000
,
00000000
00000000
00000000
00000000
,
00000000
00000000
00000000
00000000
,
00000000
00000000
00000000
00000000
,
00000000
00000000
00000000
00000000
,
00000000
00000000
00000000
00000000
,
00001000
00000000
00010000
00000000
00000100
00000000
00001000
00000100
,
00000010
00000000
00000001
00000000
00001000
00000000
00000010
00000100
,
00000010
00000000
00001000
00000010
00001000
00000000
00000010
00010000
,
00002000
00000000
00000000
00003000
,
00001000
00100000
00001000
00100000
00010000
00000000
01000000
00000000
,
00100000
10000000
00100000
10000000
00010000
00000000
00100000
01000000
,
00200000
00000000
00010000
00000000
00301000
00000000
00010000
00001000
,
00020000
00000000
00001000
00000000
00030100
00000000
00001000
00000100
,
00000010
00000001
00000010
00000000
00000001
00001000
00000001
00000000
,
00001000
00000100
00001000
00000000
00000100
00010000
00000100
00000000
,
00010000
00000000
00001000
00000000
00100000
00000000
00001000
00000000
00010000
00000000
00000000
00001000
00000000
00000000
00011000
00000000
,
00000000
00000000
00000000
00000000
,
00001000
00000000
00010000
00000000
00001000
01000000
00010000
01000000
,
00100000
10000000
01000000
10000000
,
00100000
01000000
00010000
00000000
00100000
01000000
00100000
00010000
,
00000000
00010000
00100000
00000000
00001000
00000000
00011000
00000000
,
00010000
00000000
00001000
00000000
00010000
00000100
00001000
00000100
,
00000010
00000001
00000100
00000001
,
00000010
00000100
00001000
00000000
00000010
00000100
00000010
00001000
,
00000000
00001000
00000010
00000000
00010000
00000000
00011000
00000000
,
00001000
00000000
00010000
00000000
00100000
10000000
00100000
00000000
,
10000000
01000000
00010000
01000000
,
00010000
00000000
00001000
00000000
00000010
00000001
00000010
00000000
,
00000001
00001000
00000010
00000100
00000010
00000000
00001000
00000000
,
00000001
00000000
00000001
00001000
00000000
00001000
00000100
00000000
,
00010000
00000000
00010000
00001000
00000000
00001000
01000000
00010000
,
01000000
00000000
00000000
01000000
00200000
00000000
00000000
00000000
,
00000000
00000000
00000000
00300000
,
10000000
00100000
10000000
00100000
01000000
00100000
01000000
00000000
,
00010000
01000000
00010000
01000000
00001000
00010000
00001000
00000000
,
00010000
00001000
00000010
00001000
,
00010000
01000000
00010000
00001000
,
00000010
00000100
00001000
00000000
00000100
00000000
00010000
00000000
,
00001000
01000000
00010000
00000000
00100000
00000000
01000000
00000000
,
00010000
00000000
00000000
00000000
01000000
00000000
00100000
00000000
00010000
00000000
00000000
00010000
00000000
00000000
01000000
00000000
,
00001000
00000000
00000000
00001000
00000000
00000000
00010000
00000000
00000100
00000000
00000000
00000000
00000110
00000000
00000000
00000000
,
00000001
00000010
00000001
00000010
00000100
00000010
00000100
00000000
,
00001000
00000100
00001000
00000100
00010000
00001000
00010000
00000000
,
00001000
00010000
00100000
00010000
,
00001000
00000100
00001000
00010000
,
00100000
01000000
00010000
00000000
01000000
00000000
00001000
00000000
,
00010000
00000100
00001000
00000000
00000010
00000000
00000100
00000000
,
00001000
00000000
00000100
00000010
00001000
00000000
00000100
00000010
,
00000001
00000100
00001000
00010000
,
00011000
00000000
00001000
01000000
00001000
01000000
00010000
00000000
,
00100000
00000000
01000000
10000000
01000000
10000000
00010000
00000000
,
20000000
32000000
03020000
00032000
,
00003010
00000001
00000100
00000000
00000010
00001000
00000100
00000000
,
00000110
00000000
00000010
00000001
00000010
00000100
00001000
00000000
,
00001100
00000000
00000100
00010000
00000100
00010000
00001000
00000000
,
00010000
00000000
00001000
00000000
01000000
00000000
00010000
00000000
00100000
00000000
00000000
01000000
00000000
00000000
01100000
00000000
,
00000000
00000000
00000000
00000000
;
