
//----- song ID: movo -----//
#TITLE:Move On;
#ARTIST:kors k feat. haru;
#BANNER:Move On.png;
#BACKGROUND:Move On-bg.png;
#CDTITLE:./CDTitles/DDR WORLD.png;
#MUSIC:Move On.ogg;
#SAMPLESTART:81.14;
#SAMPLELENGTH:15;
#BPMS:0=170;
#BGSTAGE:1;
#NOTES:
     dance-single:
     :
     Beginner:
     2:
     :
0000
0000
0000
0000
,
0000
0000
0000
0000
,
0000
0000
0000
0000
,
0000
0000
0000
0000
,
0000
0000
0000
0000
,
0000
0000
0000
0000
,
0001
0000
0000
0000
,
0001
0000
0000
0000
,
0010
0000
0000
0000
,
0000
0000
0000
0000
,
0010
0000
0000
0000
,
0010
0000
0000
0000
,
1000
0000
0000
0000
,
0000
0000
0000
0000
,
1000
0000
0000
0000
,
0010
0000
0000
0000
,
1000
0000
0000
0000
,
0000
0000
0000
0000
,
1000
0000
0000
0000
,
1000
0000
0000
0000
,
0010
0000
0000
0000
,
0000
0000
0000
0000
,
0010
0000
0000
0000
,
0001
0000
0000
0000
,
0010
0000
0000
0000
,
0000
0000
0000
0000
,
0002
0000
0000
0000
,
0003
0000
0000
0000
,
0001
0000
0001
0000
,
0010
0000
0000
0000
,
0020
0000
0000
0000
,
0030
0000
0000
0000
,
0010
0000
0010
0000
,
1000
0000
0000
0000
,
1000
0000
0000
0000
,
1000
0000
0000
0000
,
0100
0000
0000
0000
,
0000
0000
0000
0000
,
1000
0000
0000
0000
,
1000
0000
0000
0000
,
0010
0000
0000
0000
,
0000
0000
0000
0000
,
0020
0000
0000
0000
,
0030
0000
0000
0000
,
0002
0000
0000
0000
,
0003
0000
0000
0000
,
0020
0000
0000
0000
,
0030
0000
0000
0000
,
2000
0000
0000
0000
,
3000
0000
0000
0000
,
0010
0000
0010
0000
,
0010
0000
0000
0000
,
0001
0000
0001
0000
,
0001
0000
0000
0000
,
0002
0000
0000
0000
,
0003
0000
0000
0000
,
1001
0000
0000
0000
,
0000
0000
0000
0000
,
0001
0000
0000
0000
,
0100
0000
0000
0000
,
0001
0000
0000
0000
,
0000
0000
0000
0000
,
0001
0000
0000
0000
,
0001
0000
0000
0000
,
0010
0000
0000
0000
,
0000
0000
0000
0000
,
0010
0000
0000
0000
,
0100
0000
0000
0000
,
0010
0000
0000
0000
,
0000
0000
0000
0000
,
0010
0000
0000
0000
,
0010
0000
0000
0000
,
1000
0000
0000
0000
,
0000
0000
0000
0000
,
2000
0000
0000
0000
,
3000
0000
0000
0000
,
0010
0000
0010
0000
,
0010
0000
0000
0000
,
0002
0000
0000
0000
,
0003
0000
0000
0000
,
0010
0000
0000
0000
,
1000
0000
0000
0000
,
1001
0000
0000
0000
,
0000
0000
0000
0000
;
#NOTES:
     dance-single:
     :
     Easy:
     7:
     :
0000
0000
0000
0000
,
0000
0000
0000
0000
,
0000
0000
0000
0000
,
0000
0000
0000
0000
,
0000
0000
0000
0000
,
0000
0000
0000
0000
,
0001
0000
0001
0000
,
1000
0000
1000
0000
,
0010
0010
0100
0100
,
0220
0000
0330
0000
,
1000
0100
1000
0100
,
0010
0001
0010
0000
,
0001
0100
0001
0100
,
0010
1000
0010
0000
,
1000
1000
0100
0000
,
1000
1000
0010
0000
,
1000
0001
1000
0001
,
1000
0000
1001
0000
,
0001
0100
0001
0100
,
0010
1000
0010
0000
,
1000
0100
1000
0100
,
0010
0001
0010
0000
,
0001
0001
0100
0000
,
0001
0001
0010
0000
,
0220
0000
0000
0000
,
0330
0000
0000
0000
,
1000
0001
0100
0000
,
0001
1000
0100
0000
,
0010
0010
0100
0100
,
0010
0000
0000
0000
,
0001
1000
0100
0000
,
1000
0001
0100
0000
,
0020
0000
0000
0030
,
0200
0000
0000
0300
,
0001
0010
0100
0010
,
0001
0010
0100
0000
,
1000
0010
0100
0001
,
1000
0001
1000
0000
,
1000
0010
0100
0010
,
1000
0010
0100
0000
,
0001
0010
0100
1000
,
0001
0000
0000
0000
,
2000
0000
0000
3000
,
0020
0000
0000
0030
,
0200
0000
0000
0000
,
0300
0000
0000
0000
,
0002
0000
0000
0003
,
0020
0000
0000
0030
,
0200
0000
0000
0000
,
0300
0000
0000
0000
,
1000
1000
0100
0100
,
0010
0001
0010
0000
,
0001
0001
0100
0100
,
0010
1000
0010
0000
,
1000
0100
0010
0001
,
1000
0100
0010
0001
,
2002
0000
0000
3003
,
1000
0001
1001
0000
,
0001
0010
0001
0010
,
0100
1000
0100
0000
,
1000
0010
1000
0010
,
0100
0001
0100
0000
,
0001
0001
0010
0000
,
0001
0001
0100
0000
,
0001
1000
0001
1000
,
0001
0000
1001
0000
,
1000
0010
1000
0010
,
0100
0001
0100
0000
,
0001
0000
0000
0010
0000
0000
0000
0100
,
0000
1000
0001
0001
,
1000
1000
0010
0000
,
1000
1000
0100
0000
,
0220
0000
0000
0000
,
0330
0000
0000
0000
,
0001
1000
0010
0010
,
1000
0001
0010
0010
,
0100
0010
0100
0010
,
0100
0000
0000
0000
,
1000
0001
0010
0010
,
0001
1000
0010
0010
,
0200
0000
0000
0300
,
0020
0000
0000
0030
,
0110
0000
0000
0000
,
0000
0000
0000
0000
;
#NOTES:
     dance-single:
     :
     Medium:
     12:
     :
0000
0000
0000
0000
,
0000
0000
0000
0000
,
0000
0000
0000
0000
,
0000
0000
0000
0000
,
0000
0000
0000
0000
,
0000
0000
0000
0000
,
1000
0000
1000
0100
0010
0000
0001
1000
,
0001
0000
0001
0100
0010
0000
1000
0001
,
1000
0100
0010
0001
1000
0010
0100
0001
,
0010
0010
0100
0100
0110
0000
1001
0000
,
1000
0100
0010
0100
1000
0010
0000
2010
,
0000
3020
0000
0230
0000
0302
0000
1003
,
0000
0000
1000
0000
0200
0000
0000
0000
0010
0000
0000
0010
0000
0000
0010
0000
,
0310
0001
0100
0000
0010
1000
0100
1000
,
0000
1000
0100
0010
0100
0010
0000
0021
,
0000
0032
0000
2003
0000
0000
3001
0000
,
2000
0000
0000
0000
0100
0000
0000
0000
3010
0000
0000
0010
0100
0000
0001
0000
,
1000
0000
0000
0001
0000
0000
1000
0000
1001
0000
0000
0000
0110
0000
0000
0000
,
0001
0010
0100
0010
0001
0100
0000
0210
,
0000
0302
0000
2003
0000
3100
0010
0100
,
1000
0000
1000
0001
0000
0101
0000
2001
,
0000
0000
3100
0000
0001
0010
0100
1000
,
0002
0000
0013
0100
2000
0000
3010
0100
,
0001
1000
0100
0000
1000
0010
0100
0001
,
2000
0000
0000
0000
3000
0000
1000
0000
0010
0000
0100
0010
0100
0000
0010
0000
,
0000
0000
0110
0000
0001
0100
0010
1000
,
0000
1000
0010
0000
1000
0100
0010
0001
,
0000
0001
0100
0000
0001
0010
1000
0010
,
0000
0011
0000
0101
0000
1010
0000
1100
,
0000
0110
0020
0000
0032
0000
2003
0000
,
3001
0010
0001
0000
1000
0100
0001
0100
,
0000
1000
0010
1000
0000
0001
0010
0001
,
2000
0000
0000
0000
3001
0100
0010
0220
,
0000
0000
0000
0330
,
1000
0000
0001
0100
0001
0000
1000
0100
,
1000
0001
0000
1001
0000
1000
0100
0010
,
0001
0000
0010
1000
0010
0000
0001
0010
,
0100
1000
0000
1000
0000
0002
0203
0302
,
1003
0002
0203
0320
,
2030
0000
3100
0010
0000
0010
0000
0001
,
2000
0100
0000
3100
,
1001
0000
0110
0000
,
1000
0000
0000
1000
0010
0000
0100
0000
,
0001
0000
0000
0001
0010
0000
0000
0010
,
0100
0000
0000
0100
1000
0000
1000
0001
,
0000
0000
1000
0001
0000
0000
1000
0000
,
0100
0000
0000
0100
1000
0000
0010
0000
,
1000
0000
0000
1000
0001
0000
0010
0000
,
0001
0000
0000
0001
0100
0010
0100
0010
,
0000
0000
0100
0010
2000
0000
0000
0000
,
3002
0000
0000
0000
,
0000
0003
0022
0033
,
2002
0000
0000
0000
,
0000
3003
2200
3300
,
1000
0100
1000
0000
0100
0010
0001
0000
,
0001
0100
0001
0000
0100
0010
1000
0000
,
0001
0100
1000
0100
0001
0010
1000
0010
,
0001
0001
1000
1000
0001
0000
1001
0000
,
0001
0010
0100
0010
0001
0100
0000
0102
,
0000
0203
0000
0320
0000
2030
0000
3001
,
0000
0000
0001
0000
0020
0000
0000
0000
0100
0000
0000
0100
0000
0000
0100
0000
,
0130
1000
0010
0000
0100
0001
0010
0001
,
0000
0001
0010
0100
0010
0100
0000
1200
,
0000
2300
0000
3002
0000
0000
1003
0000
,
0002
0000
0000
0000
0010
0000
0000
0000
0103
0000
0000
0100
0010
0000
1000
0000
,
0001
0000
0000
1000
0000
0000
0001
0000
1001
0000
0000
0000
0110
0000
0000
0000
,
1000
0100
0010
0100
1000
0010
0000
0120
,
0000
2030
0000
3002
0000
0013
0100
0010
,
0001
0000
0001
1000
0000
1010
0000
1002
,
0000
0000
0013
0000
1000
0100
0010
0001
,
2000
0000
3100
0010
0002
0000
0103
0010
,
1000
0001
0010
0000
0001
0100
0010
0220
,
0000
0000
0000
0000
,
0330
0000
0110
0000
1000
0010
0100
0001
,
0000
0001
0100
0000
0001
0010
0100
1000
,
0000
1000
0010
0000
1000
0100
0001
0100
,
0000
1100
0000
1010
0000
0101
0000
0011
,
0000
0001
0010
0100
0010
0001
0100
0010
,
1000
0100
1000
0000
0001
0010
1000
0010
,
0000
0001
0100
0001
0000
1000
0100
1000
,
0002
0000
0000
0000
1003
0010
0100
0220
,
0000
0000
0000
0330
,
1001
0000
0000
0000
,
0000
0000
0000
0000
;
#NOTES:
     dance-single:
     :
     Hard:
     15:
     :
0000
0000
0000
0000
,
0000
0000
0000
0000
,
0000
0000
0000
0000
,
0000
0000
0000
0000
,
0000
0000
0000
0000
,
0000
0000
0000
0000
,
1000
0000
0001
0000
1000
0000
0001
0000
1000
0000
0001
0000
1000
0001
1000
0000
,
0010
0000
0100
0000
0010
0000
0100
0000
0010
0000
0100
0000
0010
0000
1000
0010
,
1000
0000
0001
0100
0001
0000
1000
0100
1000
0000
0001
0010
0001
0000
1000
0010
,
1000
1000
0001
0001
1000
0000
1001
0000
,
1000
0000
0010
0100
0010
0000
1000
0000
0100
0010
0001
0000
0100
0000
0010
0000
,
1000
0000
0010
1000
0010
0000
0100
0010
0100
0000
0001
0100
0001
0000
0000
0000
,
1000
0000
0001
0010
0001
0000
0100
0001
0100
0000
0010
1000
0010
0000
1000
0000
,
0001
0000
0100
0000
0110
0000
0000
0000
1000
0000
0000
0100
0010
0000
0010
0000
,
0001
0000
0010
0100
0010
0000
0001
0000
0100
0010
1000
0000
0100
0000
0010
0000
,
0001
0000
0010
0001
0010
0000
0100
0010
0100
0000
1000
0100
1000
0000
0000
0000
,
0001
0000
1000
0010
1000
0000
0100
1000
0100
0000
0000
0010
0001
0000
0001
0000
,
1000
0000
0000
0100
0000
0000
0100
0000
0110
0000
0000
0000
1001
0000
0000
0000
,
0001
0000
1000
0100
1000
0000
0010
0000
0100
0010
1000
0000
0100
0000
0010
0000
,
0001
0000
0010
0100
0010
0000
0100
1000
0100
0000
1000
0001
1000
0000
0000
0000
,
0001
0000
0100
0001
1000
0000
1100
0000
0000
0000
0110
0000
0000
0000
0011
0000
,
0001
0000
0100
0000
1000
0000
0100
0000
0001
0000
0000
0001
1000
0000
1000
0000
,
0200
0000
0001
0000
0010
0000
1300
0010
,
0200
0000
1000
0000
0010
0000
0301
0010
,
0200
0000
0000
0000
0300
0000
0100
0000
1000
0000
0001
0010
0001
0000
0100
0000
,
0000
0000
0110
0000
1000
0100
0010
0001
,
0100
0000
1000
0000
0001
0000
0010
0000
1000
0000
0100
1000
0100
0000
1000
0000
,
0010
0000
0001
0000
1000
0000
0100
0000
0001
0000
0010
0001
0010
0000
0001
0000
,
1000
0100
0001
0100
1000
0010
0001
0010
,
1000
0000
0100
0000
0210
0000
0300
0000
0021
0000
0030
0001
1000
0000
1000
0000
,
0001
0100
0010
1000
0020
0000
0000
0000
0030
0000
0010
0000
0100
0000
0001
0000
,
0000
0000
1000
0100
0010
0000
0001
0100
0010
0000
1000
0010
0100
0000
0001
0010
,
0200
0000
0000
0000
0300
0000
0100
0000
1000
0000
0001
1000
0001
0000
2001
0000
,
0000
3002
1000
1003
,
0001
0100
0001
0100
0010
1000
0010
1000
,
0001
0000
0100
0000
0010
0000
1000
0000
0001
0000
0100
0010
1000
0000
0001
0000
,
1000
0100
1000
0100
0001
0100
0001
0100
,
1000
0100
0001
0100
1000
0002
0023
0230
,
1300
0100
1000
0100
0010
0001
0010
0001
,
1000
0000
0100
0000
0010
0000
0001
0000
1000
0000
0100
0010
0001
0000
1000
0000
,
0001
0100
0001
0100
1000
0100
1000
0100
,
0002
0000
1003
0000
0010
0100
0110
0000
,
1010
0000
0000
1010
0000
0000
0000
0000
,
0000
0000
1001
0000
,
0011
0000
0000
0101
0000
0000
1001
0000
,
0000
0000
0000
0000
0000
0000
0001
1000
0001
0000
0000
0000
0000
0000
0000
0000
,
0011
0000
0000
0011
0000
0000
0000
0000
,
0000
0000
1001
0000
,
1010
0000
0000
1100
0000
0000
1001
1001
,
0000
1000
0001
0010
0100
0000
0000
0000
,
1000
0000
0000
0000
0100
0000
0000
0000
1100
0000
0000
0000
1000
0100
0010
0000
,
0001
0000
0000
0000
0100
0000
0000
0000
0101
0000
0000
0000
0001
0000
0100
0010
,
1000
0000
0000
0000
0100
0000
0000
0000
0110
0000
0000
0000
0001
1000
0001
0000
,
0010
0000
0000
0000
0010
0000
0100
0000
1000
0000
0000
0000
1000
0000
1000
0001
,
1000
0000
0100
0000
0010
0000
0001
0000
0100
0000
0010
0000
1000
0001
1000
0000
,
0001
0000
0100
0000
0010
0000
1000
0000
0100
0000
0010
0000
0001
0000
1000
0001
,
1000
0100
1000
0100
1000
0000
0001
0000
0010
0100
0010
0100
0010
0000
0001
1000
,
0001
0001
1000
1000
0001
0000
1001
0000
,
1000
0000
0010
0100
0001
0000
0010
0100
1000
0000
0000
0001
0100
0000
0001
0000
,
0010
0000
0100
0010
0001
0000
0100
0010
1000
0000
0000
0100
0010
0000
0100
0000
,
1000
0000
0001
0100
0001
0000
0010
0001
0010
0000
0000
0001
0100
0000
0010
0000
,
1000
0000
0100
1000
0100
0000
1000
0010
1000
0000
0000
0100
0010
0000
0010
0000
,
0001
0000
0100
0010
1000
0000
0010
0100
0001
0000
0000
0001
1000
0000
0100
0000
,
0010
0000
0100
1000
0001
0000
0010
0100
1000
0000
0000
0001
1000
0000
0010
0000
,
0200
0000
0000
0000
0010
0000
0000
0000
0301
0000
0010
0001
0010
0000
0100
0000
,
1000
0000
0000
1000
0000
0000
0010
0000
1010
0000
0000
0000
1001
0000
0000
0000
,
0001
0000
0100
0010
1000
0000
0100
0010
0001
0000
0000
1000
0010
0000
1000
0000
,
0100
0000
0010
0100
1000
0000
0010
0100
0001
0000
0000
0010
0100
0000
0010
0000
,
0001
0100
0010
1010
0000
1100
0000
1001
,
0001
1000
0001
0000
1000
0001
1000
0000
0100
0010
0100
0010
0100
0000
0000
0000
,
1000
0000
0010
0100
0001
0000
0100
0010
1000
0000
0000
1000
0001
0000
0010
0000
,
0100
0000
0010
0001
1000
0000
0100
0010
0001
0000
0000
1000
0001
0000
0100
0000
,
0020
0000
0000
0000
0130
0000
0010
0000
1000
0000
0100
0010
0001
0000
1001
0000
,
0000
0000
0110
0000
1000
0001
1000
0100
,
0001
0000
1000
0000
0010
0000
0001
0010
0001
0000
1000
0100
1000
0000
0001
0000
,
0100
0000
1000
0000
0001
0000
0010
1000
0010
0000
0100
0001
0100
0000
0001
0000
,
1000
0100
0001
0100
1000
0010
0001
0010
,
1000
0000
0010
1000
0100
0000
0010
0001
0100
0000
0010
0100
0010
0000
0010
0000
,
1000
0000
0001
0000
0101
0000
0000
0000
0100
0001
1000
0010
1000
0000
0001
0000
,
0000
0000
0001
0010
0100
0000
1000
0010
0100
0000
0010
0100
0001
0000
1000
0000
,
0020
0000
0000
0000
0030
0000
0010
0000
0100
0000
0001
1000
0001
0000
0200
0000
,
0000
0000
0301
0000
1000
0010
0100
0000
,
1001
0000
0000
0000
,
0000
0000
0000
0000
;
#NOTES:
     dance-double:
     :
     Easy:
     7:
     :
00000000
00000000
00000000
00000000
,
00000000
00000000
00000000
00000000
,
00000000
00000000
00000000
00000000
,
00000000
00000000
00000000
00000000
,
00000000
00000000
00000000
00000000
,
00000000
00000000
00000000
00000000
,
00001000
00000000
00001000
00000000
,
00010000
00000000
00010000
00000000
,
00001000
00001000
00010000
00010000
,
00022000
00000000
00033000
00000000
,
00001000
00010000
00001000
00010000
,
00001000
00100000
00001000
00000000
,
00100000
00010000
00100000
00010000
,
10000000
00010000
10000000
00000000
,
00010000
10000000
01000000
00000000
,
00100000
00001000
00010000
00000000
,
00001000
00010000
00000100
00001000
,
00000100
00000000
00000110
00000000
,
00000001
00001000
00000001
00001000
,
00000100
00001000
00000100
00000000
,
00000010
00000100
00000010
00000100
,
00001000
00000100
00010000
00000000
,
00001000
01000000
00010000
00000000
,
01000000
00100000
10000000
00000000
,
02200000
00000000
00000000
00000000
,
03300000
00000000
00000000
00000000
,
10000000
00000000
10000000
00000000
,
01000000
00100000
00010000
00000000
,
00100000
00000000
00100000
00000000
,
00001000
00010000
00001000
00000000
,
00010000
00000000
00010000
00000000
,
00000100
00001000
00000010
00000100
,
00000002
00000000
00000000
00000003
,
00002000
00000000
00000000
00003000
,
00000001
00000100
00000010
00000000
,
00000100
00000010
00001000
00000000
,
00000010
00010000
00001000
00010000
,
00001000
00000000
00011000
00000000
,
00010000
00001000
00100000
00010000
,
00100000
01000000
10000000
00000000
,
00010000
01000000
00100000
00000000
,
01100000
00000000
00000000
00000000
,
20000000
00000000
00000000
30000000
,
02000000
00000000
00000000
03000000
,
00020000
00000000
00000000
00000000
,
00030000
00000000
00011000
00000000
,
00002000
00000000
00000000
00003000
,
00000020
00000000
00000000
00000030
,
00000002
00000000
00000000
00000000
,
00000003
00000000
00001001
00000000
,
00000001
00000001
00000100
00000100
,
00000010
00001000
00000010
00000000
,
00000100
00000100
00000010
00000010
,
00001000
00000010
00010000
00000000
,
00001000
00010000
00001000
00100000
,
00010000
01000000
00010000
00100000
,
02200000
00000000
00000000
03300000
,
10000000
01000000
00010000
00001000
,
00010000
00001000
00010000
00001000
,
00010000
00000010
00010000
00000000
,
00000010
00001000
00000010
00001000
,
00000001
00001000
00000001
00000000
,
00001000
00000001
00000100
00000000
,
00000010
00010000
00001000
00000000
,
00010000
00001000
01000000
00010000
,
01000000
00000000
01100000
00000000
,
10000000
00010000
10000000
00010000
,
01000000
00010000
01000000
00000000
,
00100000
01000000
00100000
01000000
,
00010000
01000000
00001000
00000000
,
00010000
00000100
00001000
00000000
,
00000100
00000010
00000001
00000000
,
00000220
00000000
00000000
00000000
,
00000330
00000000
00000000
00000000
,
00000001
00000000
00000001
00000000
,
00000100
00000010
00001000
00000000
,
00000010
00000000
00000010
00000000
,
00010000
00001000
00010000
00000000
,
00001000
00000000
00001000
00000000
,
01000000
00010000
00100000
01000000
,
20000000
00000000
00000000
30000000
,
00020000
00000000
00000000
00030000
,
10010000
00000000
00000000
00000000
,
00000000
00000000
00000000
00000000
;
#NOTES:
     dance-double:
     :
     Medium:
     12:
     :
00000000
00000000
00000000
00000000
,
00000000
00000000
00000000
00000000
,
00000000
00000000
00000000
00000000
,
00000000
00000000
00000000
00000000
,
00000000
00000000
00000000
00000000
,
00000000
00000000
00000000
00000000
,
00001000
00000000
00010000
00001000
00010000
00000000
00000100
00001000
,
00000100
00000000
00000010
00000001
00000010
00000000
00000001
00000000
,
00000100
00000010
00000100
00000000
00001000
00010000
00001000
00000000
,
00010000
00100000
10000000
00000000
00010000
00000000
00000000
00000000
,
10000000
01000000
10000000
01000000
00100000
00010000
00000000
00100000
,
00000000
00001000
00000000
00010000
00000000
00000100
00001000
00000100
,
00000000
00000100
00002000
00000000
00000010
00000000
00000100
00000000
,
00003001
00000100
00000010
00000000
00001000
00000010
00000100
00000010
,
00000000
00001000
00000010
00001000
00000100
00010000
00000000
00001000
,
00000000
01000000
00000000
00010000
00000000
10000000
01000000
00010000
,
01000000
00000000
10000000
00000000
00100000
00010000
00001000
00010000
,
00001000
00000000
00000000
00001000
00000000
00000000
00010000
00000000
00010000
00000000
00000000
00000000
00011000
00000000
00000000
00000000
,
00010000
00000100
00001000
00000010
00001000
00000100
00000010
00000001
,
00000000
00000100
00000010
00001000
00000000
00000100
00000010
00000001
,
00001000
00000000
00001000
00000100
00000000
00010000
00000000
00011000
,
00000000
00000000
00001000
00010000
01000000
10000000
01000000
00000000
,
20000000
00000000
31000000
01000000
00200000
00000000
00301000
00001000
,
00010000
00000010
00001000
00000010
00001000
00000000
00000100
00000020
,
00000000
00000000
00000030
00000000
00001001
00001000
00000001
00001000
,
00000000
00000001
00000100
00000000
00000001
00000010
00000100
00001000
,
00000001
00000100
00000001
00000100
00000010
00001000
00000010
00001000
,
00010000
01000000
00010000
01000000
00100000
10000000
00100000
10000000
,
00000000
11000000
00000000
01100000
00000000
00110000
00000000
00101000
,
00000000
00001000
00020000
00000000
00032000
00000000
00023000
00000000
,
00031000
00000010
00001000
00000000
00010000
00000000
00011000
00000000
,
00010000
00100000
00010000
00000000
00001000
00000010
00001000
00010000
,
00002000
00000000
00000000
00000000
00013000
00010000
00001000
00022000
,
00000000
00000000
00000000
00033000
,
00001000
00000000
00010000
00000100
00010000
00000000
00000010
00001000
,
00000010
00001000
00000000
00001000
00000000
00000001
00000100
00001000
,
00000100
00000000
00000001
00000010
00000100
00000000
00000100
00001000
,
00000100
00010000
00000000
00011000
00000000
00010000
00001000
00010000
,
00001000
00020000
02030000
23000000
,
30200000
00000000
01300000
00010000
00000000
00110000
00000000
00100000
,
00002000
00010000
01000000
00013000
,
00011000
00000000
00000110
00000000
,
00000001
00000000
00000000
00000001
00000100
00000000
00000010
00000000
,
00001000
00000000
00000000
00001000
00000010
00000000
00000000
00000010
,
00010000
00000000
00000000
00010000
00001000
00000000
00001000
00100000
,
00000000
00000000
00010000
01000000
00000000
00000000
00010000
00000000
,
10000000
00000000
00000000
10000000
01000000
00000000
10000000
00000000
,
00100000
00000000
00000000
00100000
01000000
00000000
00010000
00000000
,
01000000
00000000
00000000
01000000
00001000
00010000
00001000
00010000
,
00000000
00000000
00001000
00010000
00001000
00000000
00000000
00000000
,
00010000
00000100
00000001
00000100
,
00001000
00000000
00000100
00000000
00000010
00000000
00000001
00001000
,
00000010
00010000
00100000
00010000
,
00001000
00100000
00010000
10000000
,
01000000
00100000
01000000
00000000
00100000
00001000
00100000
00000000
,
00001000
00010000
00001000
00000000
00010000
00000100
00010000
00000000
,
00002000
00100000
00023000
00000100
,
00031000
00010000
00000100
00001000
00000010
00000000
00000110
00000000
,
00000001
00000010
00000001
00000010
00000100
00001000
00000000
00000100
,
00000000
00010000
00000000
00001000
00000000
00100000
00010000
00100000
,
00000000
00100000
00020000
00000000
01000000
00000000
00100000
00000000
,
10030000
00100000
01000000
00000000
00010000
01000000
00100000
01000000
,
00000000
00010000
01000000
00010000
00100000
00001000
00000000
00010000
,
00000000
00000010
00000000
00001000
00000000
00000001
00000010
00001000
,
00000010
00000000
00000001
00000000
00000100
00001000
00010000
00001000
,
00010000
00000000
00000000
00010000
00000000
00000000
00001000
00000000
00001000
00000000
00000000
00000000
00011000
00000000
00000000
00000000
,
00001000
00100000
00010000
01000000
00010000
00100000
01000000
10000000
,
00000000
00100000
01000000
00010000
00000000
00100000
01000000
10000000
,
00010000
00000000
00010000
00100000
00000000
00001000
00000000
00010000
,
00000000
00000000
00011000
00000000
00001000
00000010
00000001
00000000
,
00000002
00000000
00000013
00000010
00000200
00000000
00010300
00010000
,
00001000
01000000
00010000
01000000
00010000
00000000
00100000
02000000
,
00000000
00000000
00000000
00000000
,
03000000
00000000
01100000
00000000
10000000
01000000
00100000
00010000
,
10000000
00100000
10000000
00100000
01000000
00010000
01000000
00010000
,
00001000
00000010
00001000
00000010
00000100
00000001
00000100
00000001
,
00000000
00000011
00000000
00000110
00000000
00001100
00000000
00010100
,
00000000
00010000
00001000
00100000
01000000
00010000
00001000
00100000
,
00010000
01000000
00001000
00000000
00010000
00000000
00011000
00000000
,
00001000
00000100
00001000
00000000
00010000
01000000
00010000
00001000
,
00020000
00000000
00030000
00000000
00010000
00001000
00000010
00000002
,
00000000
00000000
00000000
00000003
,
00001001
00000000
00000000
00000000
,
00000000
00000000
00000000
00000000
;
#NOTES:
     dance-double:
     :
     Hard:
     15:
     :
00000000
00000000
00000000
00000000
,
00000000
00000000
00000000
00000000
,
00000000
00000000
00000000
00000000
,
00000000
00000000
00000000
00000000
,
00000000
00000000
00000000
00000000
,
00000000
00000000
00000000
00000000
,
00001000
00000000
00010000
00000000
00001000
00000000
00100000
00000000
00001000
00000000
00010000
00000000
00001000
00010000
00001000
00000000
,
00010000
00000000
00001000
00000000
00010000
00000000
00000010
00000000
00010000
00000000
00001000
00000000
00010000
00001000
00010000
00000000
,
00001000
01000000
00010000
01000000
00100000
10000000
01000000
00100000
,
00001000
00010000
00000100
00001000
00000010
00000100
00000110
00000000
,
00000001
00000000
00000100
00000000
00001000
00000000
00010000
00000000
00000010
00000000
00000100
00001000
00000100
00000000
00000010
00000000
,
00001000
00000100
00010000
00001000
00100000
00010000
01000000
00100000
,
10000000
00000000
01000000
00100000
01000000
00000000
00100000
00010000
00100000
00000000
00001000
00010000
00000000
00001000
00010000
00000000
,
00100000
00000000
01000000
00010000
01000000
00000000
00100000
01000000
00100000
00000000
10000000
00010000
10000000
00000000
00010000
00000000
,
10000000
00000000
01000000
00100000
00010000
00000000
00100000
00001000
00010000
00000000
00001000
00000000
00100000
00000000
01000000
00000000
,
00010000
00000000
00001000
00000000
00000010
00000000
00001000
00000000
00010000
00000000
00000100
00001000
00000100
00000000
00001000
00000000
,
00000010
00000000
00000100
00000000
00001000
00000000
00010000
00000000
00000010
00000000
00000000
00000010
00000100
00000000
00001000
00000000
,
00010000
00000000
00000000
00100000
00000000
00000000
01000000
00000000
01100000
00000000
00000000
00000000
10010000
00000000
00000000
00000000
,
10000000
00000000
01000000
00000000
00010000
00000000
00001000
00000000
00100000
00000000
01000000
00010000
01000000
00000000
00100000
00000000
,
00010000
01000000
00001000
00010000
00000010
00001000
00000100
00000010
,
00000001
00000000
00000100
00000010
00000100
00000000
00000010
00001000
00000010
00000000
00010000
00001000
00010000
00000000
00001000
00000000
,
00000010
00000000
00000100
00001000
00000100
00000000
00000010
00000100
00000010
00000000
00000001
00001000
00000001
00000000
00001000
00000000
,
00000002
00000000
00000000
00000000
00000103
00000000
00000010
00010000
00002000
00000000
00000000
00000000
00013000
00000000
00001000
00100000
,
00020000
00000000
00000000
00000000
01030000
00000000
00100000
10000000
00010000
00000000
01000000
00010000
01000000
00000000
00010000
00000000
,
10000000
00000000
00000000
00000000
10000000
00000000
01000000
00000000
00010000
00000000
00001000
00010000
00001000
00000000
00011000
00000000
,
00000000
00000000
00011000
00000000
00010000
00001000
00000010
00000001
,
00000100
00001000
00010000
00100000
01000000
00100000
00010000
00001000
,
00010000
01000000
10000000
00100000
01000000
10000000
01000000
00010000
,
00100000
00001000
00010000
00001000
00000010
00001000
00010000
00001000
,
00000100
00000000
00000001
00000000
00000010
00000000
00000010
00000000
00000001
00000000
00000000
00000001
00001000
00000000
00001000
00000000
,
00000001
00000000
00000100
00000010
00000100
00000000
00001000
00010000
00001000
00000000
01000000
00100000
01000000
00000000
00010000
00000000
,
10000000
00000000
01000000
00100000
01000000
00000000
00010000
00001000
00010000
00000000
00000100
00000010
00000100
00000000
00001000
00000000
,
00000002
00000000
00000000
00000000
00000003
00000000
00000001
00000000
00000010
00000000
00000100
00001000
00000100
00000000
00020000
00000000
,
00000000
00032000
00013000
00011000
,
00001000
00010000
00001000
00010000
01000000
10000000
01000000
10000000
,
00100000
01000000
00100000
00010000
00001000
00010000
00100000
01000000
,
00100000
10000000
00010000
00100000
00001000
00010000
00000010
00001000
,
00000001
00000010
00000100
00001000
00000000
00002000
00003002
00002003
,
00003001
00000010
00000001
00000010
00001000
00010000
00001000
00010000
,
01000000
10000000
00100000
10000000
01000000
00010000
00001000
00000010
,
00000001
00000100
00000010
00000100
00001000
00010000
00100000
01000000
,
00200000
00000000
10300000
00000000
00010000
10000000
10010000
00000000
,
20000000
00000000
30000000
10000000
02000000
00000000
03200000
00000000
,
00320000
00000000
00030000
00010000
00002000
00000000
00003200
00000000
,
00000320
00000000
00000030
00000010
00000001
00000100
00001000
00000200
,
00000000
00000000
00000000
00000000
00000300
00000000
00000001
00001000
00000001
00000000
00000010
00000000
00000100
00000000
00001000
00000000
,
00000002
00000000
00000003
00000001
00000200
00000000
00000320
00000000
,
00002030
00000000
00003000
00001000
00020000
00000000
02030000
00000000
,
03200000
00000000
00300000
00100000
10000000
01000000
00010000
02000000
,
00000000
03000000
01000000
00000000
10000000
00010000
10000000
00000000
,
10000000
00000000
00000000
00000000
00100000
00000000
00000000
00000000
10100000
00000000
00000000
00000000
00100000
01000000
00010000
00000000
,
00100000
00000000
00000000
00000000
00001000
00000000
00000000
00000000
00011000
00000000
00000000
00000000
00001000
00000000
00010000
00000100
,
00001000
00000000
00000000
00000000
00000010
00000000
00000000
00000000
00000110
00000000
00000000
00000000
00000100
00000001
00001000
00000000
,
00000100
00000000
00000000
00000000
00000010
00000000
00000001
00000000
00000100
00000000
00000000
00000000
00000010
00000000
00001000
00000001
,
00001000
00000000
00000100
00000000
00000001
00000000
00000100
00000000
00001000
00000000
00000100
00000000
00010000
00001000
01000000
00000000
,
00010000
00000000
01000000
00000000
10000000
00000000
01000000
00000000
00001000
00000000
00010000
00000000
00000100
00000000
00001000
00000100
,
00000010
00000001
00000010
00000000
00000001
00001000
00000001
00000000
00001000
00000100
00001000
00000000
00000100
00010000
00000100
00000000
,
00010000
00010000
00001000
00001000
00010000
00000000
00011000
00000000
,
00001000
00000000
00100000
00001000
00100000
00000000
00010000
01000000
00100000
00000000
10000000
01000000
00100000
00000000
00010000
00000000
,
10000000
01000000
00010000
00001000
00010000
01000000
10000000
00100000
,
01000000
00000000
00010000
00100000
00010000
00000000
00100000
00001000
00010000
00000000
00001000
00010000
00000000
00000010
00001000
00000000
,
00000100
00000000
00000010
00000001
00000010
00000000
00000100
00001000
00000100
00000000
00000010
00000001
00000000
00000010
00001000
00000000
,
00010000
00000000
00001000
00100000
00010000
00000000
01000000
00100000
10000000
00000000
01000000
00100000
00010000
00000000
00110000
00000000
,
00000000
00000000
10000000
00100000
01000000
00000000
00010000
00000000
01000000
00000000
00001000
00000000
00020000
00000000
00000000
00000000
,
00032000
00000000
00000010
00000000
00013000
01000000
00100000
00001000
,
00010000
00000000
00000000
00010000
00000000
00000000
00001000
00000000
00022000
00000000
00000000
00000000
00033000
00000000
00000000
00000000
,
00010000
00000000
00000010
00010000
00000010
00000000
00001000
00000100
00000010
00000000
00000001
00000100
00000010
00000000
00001000
00000000
,
00000001
00000100
00001000
00010000
00001000
00000100
00000001
00000010
,
00000100
00000000
00001000
00000010
00001000
00000000
00001010
00000000
00000000
00000000
00000010
00000000
00010000
00000000
00011000
00000000
,
00001000
00000000
01000000
00010000
01000000
00000000
00100000
10000000
00100000
00000000
01000000
00010000
01000000
00000000
00000000
00000000
,
00001000
00000000
00010000
00000010
00001000
00000000
00000100
00000010
00000001
00000000
00000100
00000010
00001000
00000000
00000010
00000000
,
00000100
00000000
00000001
00000010
00000100
00000000
00001000
00000000
00000100
00000000
00010000
00000000
00001000
00000000
00022000
00000000
,
00000000
00000000
00000000
00000000
00033000
00000000
00010000
00000000
00001000
00000000
00000100
00000010
00001000
00000000
00000010
00000000
,
00000000
00000000
00001010
00000000
00000001
00000100
00001000
00010000
,
00100000
00000000
01000000
00000000
00001000
00000000
00010000
00000000
01000000
00000000
10000000
00010000
10000000
00000000
00100000
00000000
,
01000000
00000000
00100000
00000000
00010000
00000000
00001000
00000000
00000100
00000000
00000010
00001000
00000010
00000000
00000100
00000000
,
00000000
00000100
00000001
00000010
00000000
00000010
00001000
00010000
,
00000000
00000000
00010000
00000000
01000000
00000000
10000000
00000000
00010000
00100000
00001000
00010000
00001000
00000000
00010000
00000000
,
00000000
00000000
00000000
00000000
00011000
00000000
00000000
00000000
00010000
00000100
00001000
00000100
00000010
00000000
00000001
00000000
,
00000000
00000000
00000001
00000000
00000100
00000000
00001000
00000000
00010000
00000000
00100000
10000000
00000000
00100000
10000000
00000000
,
00020000
00000000
00000000
00000000
00030000
00000000
00010000
00000000
10000000
00000000
01000000
00100000
00010000
00000000
00200000
00000000
,
00000000
00000000
00301000
00000000
00010000
00001000
00010000
00000000
,
00011000
00000000
00000000
00000000
,
00000000
00000000
00000000
00000000
;
