
//----- song ID: mons -----//
#VERSION:0.83;
#TITLE:Monsters Den;
#ARTIST:kors k;
#BANNER:Monsters Den.png;
#BACKGROUND:Monsters Den-bg.png;
#CDTITLE:./CDTitles/DDR WORLD.png;
#MUSIC:Monsters Den.ogg;
#SAMPLESTART:85.5;
#SAMPLELENGTH:15;
#BPMS:0=160;

//---------------dance-single - ----------------
#NOTEDATA:;
#STEPSTYPE:dance-single;
#DIFFICULTY:Beginner;
#METER:3;
#NOTES:
0000
0000
0000
0000
,
0000
0000
0000
0000
,
0000
0000
0000
0000
,
0000
0000
0000
0000
,
0000
0000
0000
0000
,
1000
0000
1000
0000
,
0010
0000
0000
0000
,
0010
0000
0010
0000
,
0001
0000
0000
0000
,
0001
0000
0001
0000
,
0100
0000
0000
0000
,
0001
0000
0010
0000
,
0001
0000
0000
0000
,
0001
0000
0001
0000
,
0010
0000
0000
0000
,
0010
0000
1000
0000
,
0010
0000
0000
0000
,
1000
0000
1000
0000
,
0100
0000
0000
0000
,
1000
0000
0010
0000
,
1000
0000
0000
0000
,
1000
0000
1000
0000
,
0010
0000
0000
0000
,
0001
0000
0010
0000
,
0001
0000
0000
0000
,
1001
0000
0000
0000
,
0000
0000
0000
0000
,
1001
0000
0000
0000
,
0000
0000
0000
0000
,
0001
0000
0001
0000
,
0010
0000
0000
0000
,
0010
0000
0010
0000
,
1000
0000
0000
0000
,
1001
0000
0000
0000
,
0000
0000
0000
0000
,
1001
0000
0000
0000
,
0000
0000
0000
0000
,
2000
0000
0000
0000
,
3000
0000
0000
0000
,
0002
0000
0000
0000
,
0003
0000
0000
0000
,
1001
0000
0000
0000
,
0000
0000
0000
0000
,
0000
0000
0000
0000
,
0000
0000
0000
0000
,
1000
0000
1000
0000
,
0010
0000
0000
0000
,
0001
0000
0001
0000
,
0010
0000
0000
0000
,
1000
1000
1000
0000
,
0010
0010
0010
0000
,
0001
0001
0001
0000
,
0010
0010
0010
0000
,
2000
0000
0000
0000
,
3000
0000
0000
0000
,
0002
0000
0000
0000
,
0003
0000
0000
0000
,
0001
0000
0100
0000
,
0001
0001
0010
0000
,
0010
0000
0100
0000
,
0010
0010
0010
0000
,
1000
0000
0100
0000
,
1000
1000
0010
0000
,
1000
0000
0010
0000
,
0010
0100
0010
0000
,
1001
0000
0000
0000
,
0000
0000
0000
0000
,
0001
0000
0100
0000
,
0010
0000
0010
0000
,
2000
0000
0000
0000
,
3000
0000
0000
0000
,
0002
0000
0000
0000
,
0003
0000
0000
0000
,
1001
0000
0000
0000
,
1000
1000
0010
0000
,
0010
0010
0001
0000
,
0002
0000
0000
0000
,
0003
0000
0000
0000
,
0001
0001
0010
0000
,
0010
0010
1000
0000
,
1000
0000
0001
0000
,
1001
0000
0000
0000
;

//---------------dance-single - ----------------
#NOTEDATA:;
#STEPSTYPE:dance-single;
#DIFFICULTY:Easy;
#METER:5;
#NOTES:
0000
0000
0000
0000
,
0000
0000
0000
0000
,
0000
0000
0000
0000
,
0000
0000
0000
0000
,
0000
0000
0000
0000
,
0001
0001
0010
0000
,
0010
0010
0100
0000
,
1000
0001
1000
0001
,
1000
0000
0000
0000
,
1000
0100
1000
0010
,
1000
0100
1000
0000
,
0001
0100
0001
0010
,
0001
0100
0001
0000
,
1000
0001
0010
0100
,
0010
0001
1000
0000
,
0001
1000
0010
0100
,
0110
0000
0000
0000
,
1000
0010
0100
0001
,
1000
0010
0100
0000
,
0001
0010
0100
1000
,
0001
0010
0100
0000
,
1000
0001
0100
0010
,
1000
0001
0010
0000
,
0001
1000
0100
0010
,
0002
0000
0000
0003
,
1001
0000
0001
0000
,
0010
0010
0010
0000
,
1001
0000
1000
0000
,
0010
0010
0010
0000
,
1000
0001
1000
0000
,
1000
1000
0100
0000
,
1000
0000
0010
0000
,
0100
0010
0100
0000
,
0002
0000
0000
0003
,
2000
0000
0000
3000
,
0200
0000
0000
0300
,
0020
0000
0000
0030
,
0001
0000
1000
0000
,
0100
0010
0100
0000
,
0010
0100
0010
0000
,
0001
1000
0001
1000
,
0001
0000
0000
0000
,
0000
0000
0000
0000
,
0001
0000
0010
0000
,
0100
0000
1000
0000
,
1000
0000
0000
0000
,
0000
0000
0000
0000
,
1000
0000
0010
0000
,
0100
0000
0001
0000
,
1001
0000
0110
0000
,
1001
0000
0110
0000
,
1001
0000
0110
0000
,
1001
0000
0110
0000
,
1000
1000
0010
0000
,
1000
1000
0100
0000
,
1000
0001
1000
0001
,
1000
0000
0000
0000
,
0001
0010
0001
0010
,
0001
0100
0001
0000
,
1000
0100
1000
0100
,
1000
0010
1000
0000
,
0001
0010
1000
0000
,
1000
0010
0001
0000
,
1000
0010
0001
0000
,
0001
0010
1000
0000
,
2002
0000
0000
3003
,
1001
0000
0000
0000
,
1000
0100
0010
0001
,
2000
0000
0000
3000
,
1000
1000
0001
0100
,
0010
0010
1000
0001
,
0020
0000
0000
0030
,
0200
0000
0000
0300
,
0110
0000
1001
0000
,
0001
0010
0100
0000
,
1000
0001
0010
0100
,
1000
0000
0001
0000
,
1000
0001
1000
0000
,
1000
0010
0100
0000
,
0001
1000
0010
0100
,
0002
0000
0000
0003
,
1001
0000
0000
0000
;

//---------------dance-single - ----------------
#NOTEDATA:;
#STEPSTYPE:dance-single;
#DIFFICULTY:Medium;
#METER:10;
#BPMS:0=160,100=80,132=160,166=80,167=160,169=80,170=160,172=80,173=160,175=80,176=160,288=80;
#NOTES:
0000
0000
0000
0000
,
0000
0000
0000
0000
,
0000
0000
0000
0000
,
0000
0000
0000
0000
,
0000
0000
0000
0000
,
1000
0000
0100
0000
0010
0100
1000
0000
,
0001
0000
0100
0000
0010
0100
0001
0000
,
1000
0100
0010
0000
0001
0100
0010
0000
,
2002
0000
0000
3003
,
0002
0000
0103
0000
0010
1000
0100
0000
,
0002
0000
0103
0000
1000
0001
1000
0000
,
0002
0000
0013
0000
0100
1000
0010
0000
,
0100
0101
0001
1001
,
2000
0000
3010
0000
0100
0001
0010
0000
,
2000
0000
3010
0000
0001
1000
0001
0000
,
2000
0000
3100
0000
0010
0001
0100
0000
,
0020
0000
0100
0130
,
0110
0000
1001
0000
1000
0010
1000
0001
,
2000
0000
0000
0000
3001
0010
0001
1000
,
0002
0000
0000
0000
1003
0100
1000
0001
,
2000
0001
0001
3001
,
2000
0000
0000
0000
3001
0010
0100
1000
,
0002
0000
0000
0000
0013
0100
1000
0010
,
0200
0000
0000
0000
0301
1000
0100
0010
,
0002
0000
1000
1003
,
2002
0000
0000
0000
0000
0000
3003
0000
0001
0100
0001
0000
1000
0100
1000
0000
,
0010
0100
0010
0000
0100
0010
0100
0000
0001
0000
1000
0000
0001
0000
0000
0000
,
2000
0000
0000
0000
3200
0000
0000
0000
0310
0001
0010
0000
0100
1000
0100
0000
,
0010
0001
0010
0000
0100
1000
0100
0000
0010
0000
0001
0000
1000
0000
0000
0000
,
0001
0001
0100
0001
1000
1000
0010
1000
,
0100
0010
0100
0010
0001
1000
0001
0000
,
1000
0000
0010
0000
0100
0000
0010
0000
1000
0000
0100
0000
0010
0001
0010
0000
,
0001
0000
0100
0000
0010
1000
0010
0000
1000
0001
1000
0001
1000
0000
0000
0000
,
0002
0000
0000
0000
,
0000
0000
0000
0003
,
2000
0000
0000
0000
,
0000
0000
0000
3000
,
0001
0010
0001
0000
,
1000
0010
1000
0000
,
0001
0100
0001
0000
,
1000
0100
1000
0000
,
0001
0000
0000
0001
0000
0000
0002
0000
0003
0000
0000
0000
1000
0000
0000
1000
,
0000
0000
2000
0000
3000
0000
0000
0000
0010
0000
0000
0010
0000
0000
0020
0000
,
0030
0000
0000
0000
0100
0000
0000
0100
0000
0000
0200
0000
0300
0000
0000
0000
,
0001
0001
0010
0100
,
1000
1000
0010
0100
,
0001
0100
0010
0000
1000
0100
0010
0000
,
2002
0000
0000
3003
,
1000
0000
0100
0000
0010
0001
0100
0000
,
0001
0000
0010
0000
0100
1000
0001
0000
,
1000
0000
0010
0000
0001
0010
1000
0000
,
0001
0000
0010
0000
1000
0010
0001
0000
,
1000
0100
0010
0000
0001
0000
0001
0000
,
0001
0100
0010
0000
1000
0000
1000
0000
,
0001
0010
0100
0000
1000
0001
0100
0000
,
1001
0000
0000
0110
0000
0000
1001
0000
,
2000
0000
0000
3000
,
0001
0000
0000
1000
0000
0000
0001
0000
0000
1000
0000
0000
0001
0000
0000
0000
,
1000
0100
0010
0001
1000
0000
0010
0000
,
0100
0000
0000
0010
0000
0000
1000
0000
0000
0001
0000
0000
0010
0000
0000
0000
,
0001
0010
0100
1000
0010
0000
0010
0000
,
1000
0100
0010
0001
0100
0000
0100
0000
,
0020
0000
0000
0030
,
0110
0000
0000
0110
0000
0000
1001
0000
,
1000
0000
0001
0000
0010
0100
0010
0000
,
0001
1000
0001
0000
0100
0010
0100
0000
,
0001
0010
1000
0010
,
0002
0000
0000
0003
,
1000
0000
0010
0000
0100
0000
0010
0100
,
0001
0100
0001
0000
1000
0100
1000
0000
,
0001
1000
0010
0000
1000
0001
0010
0000
,
0001
1000
0100
1000
0001
0000
0100
0000
,
0110
0000
0000
0000
;

//---------------dance-single - ----------------
#NOTEDATA:;
#STEPSTYPE:dance-single;
#DIFFICULTY:Hard;
#METER:15;
#BPMS:0=160,100=80,132=160,166=80,167=160,169=80,170=160,172=80,173=160,175=80,176=160,288=80;
#NOTES:
0000
0000
0000
0000
,
0000
0000
0000
0000
,
0000
0000
0000
0000
,
0000
0000
0000
0000
,
0000
0000
0000
0000
,
1000
0100
1000
0000
1000
0010
0100
0000
,
0001
0100
0001
0000
0001
0010
0100
0000
,
1000
0001
1000
0001
0100
0010
0100
0010
,
2000
0000
0000
0000
3001
0100
0000
0010
1000
0000
0001
0100
0000
0000
0000
0000
,
0002
0000
0000
0000
1003
0000
0000
0000
0001
0010
0000
0100
1000
0000
0001
0000
,
2000
0000
0000
0000
3001
0000
0000
0000
1000
0010
0000
0100
0001
0000
1000
0000
,
0200
0000
0000
0000
0310
0000
0000
0000
0001
1000
0000
0010
0100
0000
0001
0000
,
1000
0100
1100
0000
0110
0000
0011
0001
,
2000
0000
0000
0000
3010
0000
0000
0000
1000
0100
0000
0100
0010
0000
0001
1000
,
0002
0000
0000
0000
0013
0000
0000
0000
0001
0100
0000
0100
0010
0000
1000
0001
,
2000
0000
0000
0000
3100
0000
0000
0000
1000
0100
0000
0100
0010
0000
0001
1000
,
0002
0003
1001
0110
,
1000
0001
1000
0001
1000
0000
0000
0000
0001
0100
0001
0100
0010
0100
0010
0000
,
2000
0000
0000
0000
3001
0000
0000
0000
1000
0100
1000
0100
0010
0000
0100
0000
,
0020
0000
0000
0000
0130
0000
0000
0000
1000
0001
1000
0001
0100
0001
0100
0000
,
0020
0000
1030
0000
1010
0000
0101
0001
,
2000
0000
0000
0000
3001
0000
0000
0000
1000
0100
1000
0100
0010
0100
0010
0000
,
0002
0000
0000
0000
1003
0000
0000
0000
0001
0100
0001
0100
0010
0000
0100
0000
,
0020
0000
0000
0000
0130
0000
0000
0000
0001
1000
0001
1000
0100
1000
0100
0000
,
0020
0030
0011
1100
,
0002
0000
0000
0000
2003
0000
0000
0000
3001
0000
0010
0100
1000
0001
0010
0000
0100
0000
1000
0000
0001
0000
0100
0000
0001
0000
1000
0000
0010
0000
0000
0000
,
1000
0100
0010
0001
1000
0000
0100
0000
0010
0000
0001
0000
1000
0000
0100
0000
2000
0000
0000
0000
3010
0000
0100
0000
0001
0000
0100
0000
0010
0000
0000
0000
,
2000
0000
0000
0000
3002
0000
0000
0000
0203
0000
0000
0000
0310
0000
1000
0010
0100
0001
1000
0000
0010
0000
0100
0000
0001
1000
0001
0000
0100
0000
0000
0000
,
0001
0010
0100
0000
1000
0010
0100
0000
0001
0010
0100
0000
1000
0010
0100
0000
0001
0000
0100
0000
0020
0000
0000
0000
1030
0001
1000
0001
1000
0000
0000
0000
,
0001
0000
0001
0000
0100
0000
0000
0000
1010
0000
0001
1000
0001
0010
0100
1000
0001
0000
0010
0000
0100
0000
1000
0000
0001
0000
1000
0000
0001
0000
0000
0000
,
2000
0000
0000
0000
3010
0100
0010
0000
0100
0001
0100
0000
0001
0000
1000
0000
0100
0000
0010
0000
0100
0000
0000
0000
2000
0000
0000
0000
3002
0000
0000
0000
,
0103
0000
0010
0000
0100
0000
0000
0000
0100
0000
0001
0000
0010
0000
0001
0000
0100
0000
0001
1000
0001
1000
0001
0000
0100
0000
0001
1000
0001
1000
0001
0000
,
0010
0000
0100
1000
0100
0000
1000
0010
1000
0000
0001
0000
0100
0000
0010
0000
1000
0100
0010
0001
1000
0100
0010
0001
1000
0100
0010
0001
1000
0000
0000
0000
,
0002
0000
0000
0000
,
0000
0000
0000
0003
,
2000
0000
0000
0000
,
0000
0000
0000
3000
,
0001
0000
0000
0000
0000
0000
0001
0010
0001
0000
0000
0100
0000
0000
0010
0000
,
0000
0000
0010
1000
0010
0000
0000
0000
1000
0000
0000
0001
0000
0000
1000
0000
,
0001
0000
0000
0000
0000
0000
1000
0010
1000
0000
0000
0100
0000
0000
0010
0000
,
0000
0000
0001
0000
0001
0000
0000
0000
1000
0000
0000
0000
0001
1000
0001
1000
,
0001
0100
0000
0010
1000
0000
0100
0010
0002
0000
0003
0000
1000
0100
0000
0010
,
0001
0000
0100
0010
2000
0000
3000
0000
0001
1000
0000
0010
0100
0000
0001
1000
,
0200
0000
0300
0000
1000
0001
0000
0100
0010
0000
1000
0001
0020
0000
0030
0000
,
0001
0010
0001
1000
0100
1000
0010
0000
0100
0000
0010
0000
,
1000
0000
0000
0000
0100
0000
0000
0000
0010
0000
0000
0000
0001
0000
0000
1000
0000
0000
0001
0000
0000
1000
0000
0000
,
0001
0100
0001
0000
1000
0100
1000
0000
0001
0100
0010
1000
0001
0100
0010
1000
,
0002
0000
0000
0003
,
1000
0100
0000
0010
0001
0000
1000
0100
0000
0100
0010
0000
0001
0000
1000
0000
,
0001
0100
0000
0010
1000
0000
0001
0100
0000
0100
0010
0000
1000
0000
0001
0000
,
1000
0100
0000
0001
0100
0000
1000
0100
0000
0100
0001
0000
0100
0000
1000
0000
,
0001
0100
0000
1000
0100
0000
0001
0100
0000
0100
1000
0000
0100
0000
0001
0000
,
1000
0000
0010
0000
0100
0000
0001
0010
0000
0010
0001
0000
1000
0010
1000
0000
,
0001
0000
0010
0000
0100
0000
1000
0010
0000
0010
1000
0000
0001
0010
0001
0000
,
1000
0000
0100
0000
1000
0000
0010
0100
0000
0100
0010
0000
0100
0001
1000
0000
,
0200
0000
0310
0022
0000
0033
1001
0000
,
0220
0000
0000
0000
0000
0000
0330
0000
0010
0100
0010
0100
0010
0100
0010
0000
,
0100
0010
0000
0100
0010
0000
0100
0010
0000
0010
0100
0000
1001
0000
0000
0000
,
1000
0010
0000
0100
0001
0000
0010
0100
0000
0100
0010
0000
0001
0000
1000
0000
,
0100
0010
0000
0001
0100
0000
0010
1000
0000
1000
0100
0000
0020
0000
0032
0000
,
1003
0000
0010
0000
0001
0000
0010
1000
0000
1000
0100
0000
0010
0001
0010
0000
,
0001
0000
0100
0000
1000
0000
0100
0001
0000
0001
0010
0000
0100
1000
0100
0000
,
0020
0000
0000
0030
,
1001
0000
0000
0000
0001
0100
0010
0000
0000
0000
1000
0100
0010
0000
0000
0000
,
0002
0000
0000
0000
2003
0000
0000
0000
3001
0000
0100
0010
1000
0001
0100
0000
,
0010
1000
0010
0000
0100
0001
0100
0000
0001
0010
0001
0000
1000
0100
1000
0000
,
0001
0010
0001
0010
0100
0010
0100
0000
1000
0010
1000
0010
0100
0010
0100
0000
,
0002
0000
1003
0010
0001
0010
1000
0000
,
0002
0000
0000
0000
0023
0000
0000
0000
0230
0000
0000
0000
1300
0000
0001
0010
,
0100
1000
0001
0000
0010
0100
1000
0000
0001
0010
0100
0010
0001
0000
0000
0000
,
1000
0100
1000
0000
0001
0100
0001
0000
1000
0100
1000
0000
0001
0100
0001
0000
,
2000
0000
0000
0000
0000
0000
0000
0000
3100
0010
0100
0010
0100
0000
0000
0000
,
1001
0000
0000
0000
;

//---------------dance-single - ----------------
#NOTEDATA:;
#STEPSTYPE:dance-single;
#DIFFICULTY:Challenge;
#METER:17;
#BPMS:0=160,100=80,132=160,166=80,167=160,169=80,170=160,172=80,173=160,175=80,176=160,288=80;
#NOTES:
0000
0000
0000
0000
,
0000
0000
0000
0000
,
0000
0000
0000
0000
,
0000
0000
0000
0000
,
0000
0000
0000
0000
,
1000
0100
1000
0100
0010
0001
0010
0001
,
0100
0001
0100
0001
1000
0010
1000
0010
,
1000
0100
0010
0001
0100
0010
1000
0100
,
0020
0000
0000
0030
,
0002
0000
0000
0000
2003
0000
0000
0000
3001
0010
0100
1000
0001
0000
1000
0100
,
0020
0000
0000
0000
0032
0000
0000
0000
0103
0010
1000
0001
0100
0000
0010
1000
,
0200
0000
0000
0000
0320
0000
0000
0000
0031
1000
0100
0010
0001
0000
1000
0010
,
0200
0000
0302
0103
2000
3100
0002
0023
,
0230
0000
0000
0000
2300
0000
0000
0000
3100
0010
0001
0100
0010
0000
0100
1000
,
0200
0000
0000
0000
0302
0000
0000
0000
1003
0100
0010
0001
0100
0000
0010
0001
,
0020
0000
0000
0000
2030
0000
0000
0000
3001
0010
0100
1000
0001
0000
0010
1000
,
0020
0000
0031
0100
0002
0013
0200
0000
,
1300
0010
0001
0010
2000
0000
0000
0000
3001
0100
0010
1000
0010
0100
0001
0000
,
2000
0000
0000
0000
3200
0000
0000
0000
0310
0001
0100
0010
1000
0100
0010
0000
,
0002
0000
0000
0000
2003
0000
0000
0000
3010
0100
0001
1000
0001
0100
0010
0000
,
2000
0000
3200
0301
0200
1300
0200
0320
,
0032
0000
0000
0000
2003
0000
0000
0000
3010
0100
1000
0100
0010
0100
1000
0100
,
0020
0000
0000
0000
2030
0000
0000
0000
3100
0010
1000
0010
0100
0010
1000
0010
,
0200
0000
0000
0000
0302
0000
0000
0000
0103
0010
0001
0010
0100
0010
0001
0100
,
0020
0030
2000
3020
,
0230
0000
0000
0000
0302
0000
0000
0000
1003
0000
0001
0010
0100
1000
0001
0010
0100
1000
0001
0010
0100
1000
0001
0010
0100
1000
0001
0010
0100
1000
0001
0010
,
0100
1000
0001
0010
0100
1000
0001
0010
0100
1000
0001
0010
0100
1000
0001
0010
0200
0000
0000
0000
1300
0000
0100
0000
0001
0000
0100
0000
1000
0000
0000
0000
,
0002
0000
0000
0000
0203
0000
0000
0000
0320
0000
0000
0000
1030
0000
0010
0100
0001
1000
0010
0100
0001
1000
0010
0100
0001
1000
0001
1000
0001
0000
0010
0000
,
0100
1000
0001
1000
0100
1000
0001
1000
0100
1000
0001
1000
0010
0100
0001
1000
0200
0000
0000
0000
0000
0000
0000
0000
0310
0001
0010
0001
0010
0000
0000
0000
,
0001
0000
0001
0000
1000
0000
0000
0000
0001
0000
0100
0010
1000
0100
0010
0001
1000
0001
0010
0100
1000
0100
0010
0001
1000
0000
0010
0000
0100
0010
0100
0010
,
0100
0000
0000
0000
0001
0100
0010
1000
0001
1000
0010
0100
0001
0100
0010
1000
0001
0000
0000
0000
0020
0000
0000
0000
0230
0000
0000
0000
1300
0001
1000
0001
,
1000
0000
1000
0000
1000
0000
0000
0000
0001
0000
1000
0000
0200
0000
0000
0000
0310
0000
0001
0010
0100
1000
0010
0100
0001
0000
1000
0100
0010
0001
0100
0010
,
1000
0000
0001
0010
0100
0000
1000
0010
0100
0000
0001
0000
0010
0000
0100
0000
1000
0100
1000
0100
0010
0001
0010
0001
1000
0010
1000
0010
0100
0001
0100
0001
,
2000
0000
0000
0000
,
0000
0000
0000
0000
,
3000
0000
0000
0000
,
0000
0000
0000
0000
,
1000
0000
0000
0000
0000
0000
0001
0010
1000
0000
0000
0010
0000
0000
0001
0000
,
0000
0000
1000
0001
1000
0000
0000
0000
0001
0000
0000
0100
0000
0000
1000
0000
,
0100
0000
0000
0000
0000
0000
0001
0100
1000
0000
0000
0100
0000
0000
0001
0000
,
0000
0000
0010
0000
0010
0000
0000
0000
0001
0000
0000
0000
1000
0001
1000
0001
,
1000
0100
0000
0001
0100
0000
1000
0001
0200
0000
0300
0000
0001
0010
0000
1000
,
0010
0000
0001
1000
0020
0000
0030
0000
1000
0010
0000
0001
0010
0000
1000
0001
,
0200
0000
0000
0000
0300
0000
0001
0100
0010
0000
1000
0000
0000
0000
0100
0000
0001
0000
0000
0000
1000
0000
0010
0000
0002
0000
0000
0000
0003
0000
0000
0000
,
1000
0100
0010
0001
0100
0010
1000
0000
0100
0000
0010
0000
,
0001
0000
0000
0000
0100
0000
0000
0000
0010
0000
0000
0000
1000
0000
0000
0100
0000
0000
0001
0000
0000
0100
0000
0000
,
1000
0010
0100
0001
0010
0100
1000
0001
1000
0001
1000
0001
1000
0001
1000
0001
,
2000
0000
0000
3000
,
1000
0100
0000
0001
0100
0000
1000
0100
0000
0001
0100
0010
0001
1000
0001
0010
,
0001
0100
0000
1000
0100
0000
0001
0100
0000
1000
0100
0010
1000
0001
1000
0010
,
1000
0010
0000
0001
0010
0000
1000
0010
0000
0001
0010
0100
0001
1000
0001
0100
,
0001
0010
0000
1000
0010
0000
0001
0010
0000
1000
0010
0100
1000
0001
1000
0100
,
0010
0001
0100
0000
0010
1000
0010
1000
0000
1000
0100
0010
0001
0010
0100
0000
,
1000
0010
0100
0000
0001
0010
0001
0010
0000
0010
0100
1000
0100
0010
0001
0000
,
1000
0001
0010
0000
1000
0010
0001
0010
0000
0100
1000
0001
0100
0010
0001
0010
,
0100
0000
1000
0000
0100
0000
0001
0010
0000
0010
0001
0000
1000
0100
0010
0001
,
2000
0000
0000
0000
3001
1000
0001
1000
0001
1000
0001
1000
0001
1000
0001
1000
,
0001
0100
0000
0100
1000
0000
0001
0010
0000
0010
1000
0000
0002
0000
0000
0000
,
1003
0100
0010
1000
0010
0000
0100
0010
0001
1000
0010
0000
0100
1000
0100
0000
,
0001
0010
0000
0010
1000
0000
0001
0100
0000
0100
1000
0000
0002
0000
2003
0000
,
3010
0100
0001
0000
1000
0100
1000
0100
0000
0100
0010
0001
0100
0001
0010
0000
,
0100
1000
0010
0000
0100
0001
0100
0001
0000
0001
0010
0100
1000
0010
1000
0100
,
0010
0001
0100
0010
1000
0100
0010
0001
0100
0010
1000
0100
0010
0001
0100
0010
,
2000
0000
0000
0000
3001
0100
0020
0000
0000
0000
1030
0100
0020
0000
0000
0000
,
0032
0000
0000
0000
2003
0000
0000
0000
3010
0000
0100
1000
0100
0010
0100
0001
,
0100
0010
0100
1000
0100
0010
0100
0001
0100
0010
0100
1000
0100
0010
0100
0001
,
0100
0010
0100
1000
0100
0010
0100
0001
0100
0010
0100
1000
0100
0010
0100
0001
,
0200
0000
0301
1000
0100
0010
0200
0000
,
2300
0000
0000
0000
3002
0000
0000
0000
0203
0000
0000
0000
0310
0000
0001
0010
,
0100
0010
1000
0010
0100
0010
0001
0010
0100
0010
0100
0010
0200
0000
0302
0000
,
1003
0100
0010
0001
1000
0100
0010
0001
1000
0001
0010
0100
1000
0001
0010
0100
,
1000
0001
0100
0010
1000
0001
0100
0010
1000
0001
1000
0001
2000
0000
0000
0000
,
3001
0000
0000
0000
;

//---------------dance-double - ----------------
#NOTEDATA:;
#STEPSTYPE:dance-double;
#DIFFICULTY:Easy;
#METER:5;
#NOTES:
00000000
00000000
00000000
00000000
,
00000000
00000000
00000000
00000000
,
00000000
00000000
00000000
00000000
,
00000000
00000000
00000000
00000000
,
00000000
00000000
00000000
00000000
,
00010000
00000000
00001000
00000000
,
00010000
00001000
01000000
00000000
,
00100000
01000000
00100000
01000000
,
00100000
00000000
00000000
00000000
,
10000000
01000000
10000000
00010000
,
10000000
01000000
00100000
00000000
,
00100000
00010000
00100000
00001000
,
00010000
00000000
00011000
00000000
,
00001000
00010000
00000100
00001000
,
00000010
00001000
00000100
00000000
,
00000100
00000010
00000001
00000000
,
00001001
00000000
00000000
00000000
,
00000001
00000010
00000001
00000010
,
00000100
00001000
00000100
00000000
,
00010000
00001000
00010000
00001000
,
01000000
00010000
01000000
00000000
,
00010000
10000000
00100000
10000000
,
00010000
01000000
00010000
00000000
,
10000000
01000000
00100000
00000000
,
00020000
00000000
00000000
00030000
,
10010000
00000000
10000000
00000000
,
00010000
00010000
01000000
00000000
,
00001000
00000000
00010000
00000000
,
00001000
00010000
00001000
00000000
,
00010000
00000000
00000010
00000000
,
00001000
00001000
00000010
00000000
,
00000100
00000000
00000001
00000000
,
00001000
00000001
00001000
00000000
,
00000002
00000000
00000000
00000003
,
00000020
00000000
00000000
00000030
,
00000200
00000000
00000000
00000300
,
00020000
00000000
00000000
00030000
,
00001000
00000000
00010000
00000000
,
00001000
01000000
00001000
00000000
,
01000000
00010000
01000000
00000000
,
00100000
01000000
00100000
00000000
,
01100000
00000000
00000000
00000000
,
00000000
00000000
00000000
00000000
,
10000000
00000000
00100000
00000000
,
10000000
00000000
01000000
00000000
,
00100000
00000000
00000000
00000000
,
00000000
00000000
00000000
00000000
,
00100000
00000000
00001000
00000000
,
00010000
00000000
00001000
00000000
,
00011000
00000000
00000000
00000000
,
00000110
00000000
00000000
00000000
,
00001001
00000000
00000000
00000000
,
00000110
00000000
00000000
00000000
,
00000001
00000100
00000010
00000000
,
00001000
00000010
00010000
00000000
,
00001000
00010000
00001000
00000000
,
00011000
00000000
00000000
00000000
,
00010000
00001000
00010000
00001000
,
01000000
00010000
01000000
00000000
,
00010000
00100000
00010000
00100000
,
01000000
10000000
01000000
00000000
,
10000000
01000000
00010000
00000000
,
00001000
00000000
00010000
00000000
,
00001000
00000010
00000001
00000000
,
00000100
00000000
00000010
00000000
,
00000220
00000000
00000000
00000330
,
00001001
00000000
00000000
00000000
,
00001000
00000010
00010000
00001000
,
00020000
00000000
00000000
00030000
,
00010000
00001000
00100000
00100000
,
00010000
10000000
01000000
01000000
,
00200000
00000000
00000000
00300000
,
02000000
00000000
00000000
03000000
,
01100000
00000000
10010000
00000000
,
10000000
01000000
00010000
00000000
,
00001000
00010000
00001000
00000000
,
00010000
00000010
00001000
00000000
,
00000110
00000000
00001001
00000000
,
00000001
00000100
00001000
00000000
,
00010000
00001000
01000000
00010000
,
00200000
00000000
00000000
00300000
,
01100000
00000000
00000000
00000000
;

//---------------dance-double - ----------------
#NOTEDATA:;
#STEPSTYPE:dance-double;
#DIFFICULTY:Medium;
#METER:10;
#BPMS:0=160,100=80,132=160,166=80,167=160,169=80,170=160,172=80,173=160,175=80,176=160,288=80;
#NOTES:
00000000
00000000
00000000
00000000
,
00000000
00000000
00000000
00000000
,
00000000
00000000
00000000
00000000
,
00000000
00000000
00000000
00000000
,
00000000
00000000
00000000
00000000
,
00001000
00000000
00010000
00000000
00001000
00010000
00001000
00000000
,
00010000
00000000
00001000
00000000
00010000
00001000
00010000
00000000
,
00001000
00010000
00000100
00001000
00000100
00000010
00000001
00000000
,
00002002
00000000
00000000
00003003
,
00000001
00000000
00000010
00000000
00000100
00001000
00000100
00000000
,
00010000
00001000
00100000
00001000
,
00010000
00000000
00001000
00000000
01000000
00010000
01000000
00000000
,
00100000
00100000
10000000
10000000
,
00010000
00000000
00100000
00000000
01000000
10000000
01000000
00000000
,
10000000
00000000
00100000
00000000
01000000
00010000
01000000
00000000
,
00001000
00010000
00000010
00001000
,
00000002
00000000
00001000
00001003
,
00001001
00000000
00000000
00000000
00000001
00000010
00000100
00001000
,
00000200
00000000
00000300
00000000
00000100
00010000
00001000
00010000
,
00002000
00000000
00003000
00000000
00001000
00100000
00010000
01000000
,
00100000
20000000
00010000
30010000
,
20000000
00000000
30000000
00000000
10000000
00100000
01000000
00010000
,
02000000
00000000
03000000
00000000
01000000
00001000
00010000
00001000
,
00020000
00000000
00030000
00000000
00010000
00000010
00001000
00000100
,
00000020
00000000
00000001
00000031
,
00002002
00000000
00000000
00000000
00000000
00000000
00003003
00000000
00000001
00000100
00000001
00000000
00001000
00000100
00001000
00000000
,
00000100
00010000
00001000
00100000
00010000
10000000
00010000
00000000
,
20000000
00000000
00000000
00000000
30020000
00000000
00000000
00000000
01030000
00100000
01000000
00000000
00010000
10000000
00010000
00000000
,
00100000
00001000
00010000
00000100
00001000
00000001
00000100
00000000
,
00000001
00000010
00000100
00001000
00000010
00000100
00001000
00010000
,
00100000
01000000
00001000
00010000
00001000
00100000
00010000
00000000
,
10000000
01000000
00010000
00001000
00000010
00000100
00010000
00001000
,
00000100
00000000
00000001
00000000
00001000
00000000
00000100
00000000
00000010
00000100
00000010
00000100
00000010
00000000
00000000
00000000
,
00000002
00000000
00000000
00000000
,
00000000
00000000
00000000
00000003
,
00002000
00000000
00000000
00000000
,
00000000
00000000
00000000
00003000
,
00001000
00000100
00010000
00000000
,
00001000
00010000
00001000
00000000
,
00001000
00100000
00010000
00000000
,
01000000
00100000
01000000
00000000
,
00100000
00000000
00000000
00100000
00000000
00000000
00200000
00000000
00300000
00000000
00000000
00000000
10000000
00000000
00000000
10000000
,
00000000
00000000
20000000
00000000
30000000
00000000
00000000
00000000
00010000
00000000
00000000
00010000
00000000
00000000
00020000
00000000
,
00030000
00000000
00000000
00000000
01000000
00000000
00000000
01000000
00000000
00000000
02000000
00000000
03000000
00000000
00000000
00000000
,
01000000
01000000
00010000
00100000
,
00001000
00010000
00000010
00001000
,
00000100
00000000
00000010
00000000
00000001
00001000
00000001
00000000
,
00002002
00000000
00000000
00003003
,
00000001
00000000
00000010
00000000
00000100
00001000
00000100
00000000
,
00010000
00000000
00001000
00000000
00100000
00010000
00100000
00000000
,
01000000
00000000
10000000
00000000
00010000
01000000
00010000
00000000
,
10000000
00000000
01000000
00000000
00100000
00010000
01000000
00000000
,
00010000
00100000
00001000
00000000
00010000
00000000
00010000
00000000
,
00000100
00001000
00000010
00000000
00000100
00000000
00000100
00000000
,
00000001
00000100
00001000
00000000
00010000
00000000
00100000
00000000
,
10000000
00000000
00000000
01100000
00000000
00000000
10010000
00000000
,
20000000
00000000
00000000
30000000
,
01000000
00000000
00000000
01000000
00000000
00000000
00100000
00000000
00000000
00100000
00000000
00000000
00010000
00000000
00000000
00000000
,
10000000
01000000
00100000
00000000
00001000
00000000
00010000
00000000
,
00000100
00000000
00000000
00001000
00000000
00000000
00000100
00000000
00000000
00000010
00000000
00000000
00000001
00000000
00000000
00000000
,
00001000
00000001
00000100
00000000
00000010
00000000
00000010
00000000
,
00000100
00001000
00010000
00000000
00001000
00000000
00001000
00000000
,
00020000
00000000
00000000
00030000
,
00010000
00000000
00001000
01000000
00000000
00010000
00100000
00000000
,
01000000
10000000
00100000
00010000
,
00001000
00010000
00001000
00000000
00010000
00001000
00010000
00000000
,
00001000
00000100
00000001
00001000
,
00000200
00000000
00000000
00000300
,
00000100
00000010
00000001
00001000
,
00000100
00010000
00001000
00000000
00100000
00010000
01000000
00000000
,
00100000
10000000
01000000
00000000
00100000
00010000
01000000
00000000
,
00100000
00000000
10000000
00000000
01000000
00010000
00001000
00000000
,
00011000
00000000
00000000
00000000
;

//---------------dance-double - ----------------
#NOTEDATA:;
#STEPSTYPE:dance-double;
#DIFFICULTY:Hard;
#METER:15;
#BPMS:0=160,100=80,132=160,166=80,167=160,169=80,170=160,172=80,173=160,175=80,176=160,288=80;
#NOTES:
00000000
00000000
00000000
00000000
,
00000000
00000000
00000000
00000000
,
00000000
00000000
00000000
00000000
,
00000000
00000000
00000000
00000000
,
00000000
00000000
00000000
00000000
,
00001000
00010000
00001000
00000000
00010000
00100000
10000000
00000000
,
00010000
10000000
00010000
00000000
10000000
01000000
00100000
00000000
,
00010000
00100000
00010000
00100000
00001000
00010000
00001000
00010000
,
00001000
00000000
00000000
00000000
00010000
00000100
00000000
00001000
00000100
00000000
00000010
00000001
00000000
00000000
00000000
00000000
,
00002000
00000000
00000000
00000000
00003001
00000000
00000000
00000000
00000001
00000100
00000000
00000010
00001000
00000000
00000010
00000000
,
00020000
00000000
00000000
00000000
00031000
00000000
00000000
00000000
00001000
00100000
00000000
00010000
01000000
00000000
00100000
00000000
,
20000000
00000000
00000000
00000000
30010000
00000000
00000000
00000000
00010000
10000000
00000000
01000000
00100000
00000000
00010000
00000000
,
10000000
01000000
00010000
00000000
10000000
00100000
00010000
10000000
,
00020000
00000000
00000000
00000000
10030000
00000000
00000000
00000000
10000000
01000000
00000000
00100000
00010000
00000000
00100000
00000000
,
00002000
00000000
00000000
00000000
00013000
00000000
00000000
00000000
00010000
00000010
00000000
00001000
00000100
00000000
00000010
00000000
,
00000002
00000000
00000000
00000000
00001003
00000000
00000000
00000000
00001000
00000001
00000000
00000100
00000010
00000000
00001000
00000000
,
00000002
00000000
00000003
00000000
00000001
00000100
00001000
00000000
,
00010000
00001000
00010000
00001000
00010000
00000000
00000000
00000000
00001000
01000000
00001000
01000000
00010000
01000000
00010000
00000000
,
20000000
00000000
00000000
00000000
30010000
00000000
00000000
00000000
10000000
01000000
10000000
01000000
00100000
00000000
00010000
00000000
,
00200000
00000000
00000000
00000000
00301000
00000000
00000000
00000000
00100000
00001000
00100000
00001000
00010000
00001000
00010000
00000000
,
00002000
00000000
00013000
00000000
00010100
00000000
00001100
00000100
,
00000020
00000000
00000000
00000000
00000031
00000000
00000000
00000000
00001000
00000100
00001000
00000100
00000010
00000100
00000010
00000000
,
00000200
00000000
00000000
00000000
00010300
00000000
00000000
00000000
00001000
00010000
00001000
00010000
00001000
00000000
01000000
00000000
,
00020000
00000000
00000000
00000000
00130000
00000000
00000000
00000000
01000000
00100000
01000000
00100000
01000000
10000000
01000000
00000000
,
20000000
30000000
11000000
00110000
,
20000000
00000000
00000000
00000000
32000000
00000000
00000000
00000000
03100000
00000000
00010000
00100000
00001000
00010000
00001000
00000000
00010000
00000000
00000100
00000000
00001000
00000000
00000010
00000000
00000100
00000000
00000001
00000000
00000010
00000000
00000100
00000000
,
00001000
00000100
00010000
00001000
00010000
00000000
00001000
00000000
00100000
00000000
00010000
00000000
01000000
00000000
00100000
00000000
20000000
00000000
00000000
00000000
30010000
00000000
01000000
00000000
10000000
00000000
01000000
00000000
00010000
00000000
00000000
00000000
,
20000000
00000000
00000000
00000000
30200000
00000000
00000000
00000000
02300000
00000000
00000000
00000000
03010000
00000000
00100000
00001000
00010000
00001000
00100000
00000000
00001000
00000000
00010000
00000000
00000100
00001000
00000100
00000000
00000010
00000000
00000000
00000000
,
00000001
00000010
00000100
00000000
00001000
00000010
00000100
00000000
00000001
00000010
00000100
00000000
00001000
00000000
00000100
00000000
00010000
00000000
00001000
00000000
00020000
00000000
00000000
00000000
00031000
00100000
00001000
00010000
00001000
00000000
00000000
00000000
,
00010000
00000000
00010000
00000000
00001000
00000000
00000000
00000000
00011000
00000000
00001000
00100000
00010000
00100000
00010000
00100000
01000000
00000000
10000000
00000000
00010000
00000000
01000000
00000000
10000000
00000000
01000000
00000000
00010000
00000000
00000000
00000000
,
20000000
00000000
00000000
00000000
31000000
00100000
00010000
00000000
00100000
00001000
00010000
00000000
00001000
00000000
00010000
00000000
00000100
00000000
00001000
00000000
00000100
00000000
00000010
00000000
00000002
00000000
00000000
00000000
00002003
00000000
00000000
00000000
,
00003010
00000000
00000100
00000000
00000010
00000000
00000000
00000000
00000010
00000000
00010000
00000000
00001000
00000000
01000000
00000000
00010000
00000000
00100000
01000000
00100000
01000000
00100000
00000000
00001000
00000000
00010000
00001000
00010000
00001000
00010000
00000000
,
00000100
00000000
00000010
00000100
00000010
00000000
00000001
00001000
00000001
00000000
00000100
00000000
00001000
00000000
00010000
00000000
00100000
10000000
01000000
00000000
00100000
00010000
01000000
00000000
00100000
10000000
01000000
00100000
01000000
00000000
00000000
00000000
,
00200000
00000000
00000000
00000000
,
00000000
00000000
00000000
00300000
,
00002000
00000000
00000000
00000000
,
00000000
00000000
00000000
00003000
,
00010000
00000000
00000000
00000000
00000000
00000000
00010000
00001000
00010000
00000000
00000000
00000010
00000000
00000000
00000100
00000000
,
00000000
00000000
00000001
00001000
00000001
00000000
00000000
00000000
00000010
00000000
00000000
00000100
00000000
00000000
00000010
00000000
,
00000001
00000000
00000000
00000000
00000000
00000000
00000001
00001000
00000001
00000000
00000000
00000100
00000000
00000000
00001000
00000000
,
00000000
00010000
00010000
00000000
00001000
00000000
00100000
00000000
,
00010000
10000000
00000000
01000000
00010000
00000000
00001000
00000000
00000020
00000000
00000030
00000000
00000001
00000100
00000000
00001000
,
00010000
00000000
00100000
00000000
20000000
00000000
30000000
00000000
00010000
10000000
00000000
00100000
00010000
00000000
00001000
00000000
,
00000200
00000000
00000300
00000000
00000001
00000010
00000000
00001000
00010000
00000000
01000000
00000000
20000000
00000000
30000000
00000000
,
10000000
01000000
10000000
00010000
00100000
00010000
01000000
00000000
00001000
00000000
00010000
00000000
,
00000010
00000000
00000000
00000000
00001000
00000000
00000000
00000000
00000100
00000000
00000000
00000000
00000010
00000000
00000000
00000001
00000000
00000000
00000010
00000000
00000000
00000001
00000000
00000000
,
00001000
00000100
00001000
00000000
00000100
00010000
00000100
00000000
00010000
00001000
00010000
00001000
00010000
00001000
00010000
00001000
,
00020000
00000000
00000000
00030000
,
00001000
00010000
00000000
00001000
00100000
00000000
00010000
01000000
00000000
01000000
00100000
00000000
10000000
00000000
00010000
00000000
,
10000000
01000000
00000000
00100000
00010000
00000000
00100000
00001000
00000000
00001000
00010000
00000000
00000100
00000000
00001000
00000000
,
00000010
00001000
00000000
00000001
00000100
00000000
00000001
00000010
00000000
00000010
00001000
00000000
00010000
00000000
01000000
00000000
,
00100000
00010000
00000000
10000000
01000000
00000000
10000000
00100000
00000000
00100000
00010000
00000000
00001000
00000000
00010000
00000000
,
00001000
00000000
00000010
00000000
00000001
00000000
00000100
00000010
00000000
00000010
00000100
00000000
00001000
00000000
00010000
00000000
,
00100000
00000000
10000000
00000000
00010000
00000000
00100000
01000000
00000000
01000000
00100000
00000000
00001000
00000000
00010000
00000000
,
00000100
00000000
00000010
00000000
00000001
00000000
00000100
00001000
00000000
00001000
00010000
00000000
00100000
01000000
00100000
00000000
,
20000000
00000000
30010000
00120000
00000000
00130000
00011000
00000000
,
00022000
00000000
00000000
00000000
00000000
00000000
00033000
00000000
00001000
00010000
00001000
00010000
00001000
00010000
00001000
00000000
,
00010000
00001000
00000000
00010000
00001000
00000000
00010000
00001000
00000000
00001000
00010000
00000000
00011000
00000000
00000000
00000000
,
00010000
00000100
00000000
00001000
00000010
00000000
00000100
00000001
00000000
00000001
00000010
00000000
00000100
00000000
00010000
00000000
,
00001000
00100000
00000000
00010000
01000000
00000000
00010000
00100000
00000000
00100000
01000000
00000000
20000000
00000000
30020000
00000000
,
10030000
00000000
01000000
00000000
00010000
00000000
00001000
00000010
00000000
00000010
00000001
00000000
00001000
00000001
00001000
00000000
,
00000001
00000000
00000100
00000000
00001000
00000000
00010000
00100000
00000000
00100000
10000000
00000000
00010000
10000000
00010000
00000000
,
00200000
00000000
00000000
00300000
,
10010000
00000000
00000000
00000000
10000000
01000000
00100000
00000000
00000000
00000000
00010000
01000000
00100000
00000000
00000000
00000000
,
20000000
00000000
00000000
00000000
32000000
00000000
00000000
00000000
03100000
00000000
00001000
00010000
00000100
00001000
00000100
00000000
,
00000010
00000001
00000010
00000000
00000001
00001000
00000001
00000000
00000100
00000010
00000100
00000000
00000010
00001000
00000010
00000000
,
00001000
00000100
00001000
00000100
00010000
00001000
00010000
00000000
00001000
01000000
00001000
01000000
00010000
01000000
00010000
00000000
,
00200000
00000000
01300000
00010000
01000000
10000000
00010000
00000000
,
20000000
00000000
00000000
00000000
30200000
00000000
00000000
00000000
02300000
00000000
00000000
00000000
03010000
00000000
00100000
00001000
,
00010000
00000100
00001000
00000000
00000010
00000100
00000001
00000000
00000010
00000100
00001000
00000100
00010000
00000000
00000000
00000000
,
00001000
00100000
00001000
00000000
00010000
00000010
00010000
00000000
00001000
01000000
00001000
00000000
00010000
00000100
00010000
00000000
,
00002000
00000000
00000000
00000000
00000000
00000000
00000000
00000000
00013000
00001000
00010000
00001000
00010000
00000000
00000000
00000000
,
00011000
00000000
00000000
00000000
;

//---------------dance-double - ----------------
#NOTEDATA:;
#STEPSTYPE:dance-double;
#DIFFICULTY:Challenge;
#METER:17;
#BPMS:0=160,100=80,132=160,166=80,167=160,169=80,170=160,172=80,173=160,175=80,176=160,288=80;
#NOTES:
00000000
00000000
00000000
00000000
,
00000000
00000000
00000000
00000000
,
00000000
00000000
00000000
00000000
,
00000000
00000000
00000000
00000000
,
00000000
00000000
00000000
00000000
,
00001000
00010000
00001000
00010000
00000010
00001000
00000010
00001000
,
00000001
00000010
00000001
00000010
00000100
00001000
00000100
00001000
,
00000100
00010000
00001000
00100000
00010000
01000000
00100000
10000000
,
00020000
00000000
00000000
00030000
,
20000000
00000000
00000000
00000000
30020000
00000000
00000000
00000000
00130000
01000000
10000000
00010000
00100000
00000000
00001000
00010000
,
00002000
00000000
00000000
00000000
00023000
00000000
00000000
00000000
00030100
00001000
00000010
00000100
00000001
00000000
00000010
00000100
,
00000020
00000000
00000000
00000000
00000032
00000000
00000000
00000000
00001003
00000100
00010000
00001000
00010000
00000000
00001000
01000000
,
00020000
00000000
00230000
01300000
20000000
31000000
00200000
00320000
,
20030000
00000000
00000000
00000000
32000000
00000000
00000000
00000000
03010000
00001000
00100000
00010000
01000000
00000000
00100000
00010000
,
00002000
00000000
00000000
00000000
00003200
00000000
00000000
00000000
00000310
00010000
00000100
00001000
00000010
00000000
00000100
00000001
,
00002000
00000000
00000000
00000000
00003200
00000000
00000000
00000000
00000310
00000001
00001000
00000100
00000010
00000000
00000001
00001000
,
00000002
00000000
00000103
00001000
00010000
00100000
20000000
00000000
,
30010000
01000000
10000000
01000000
00020000
00000000
00000000
00000000
00130000
00001000
00010000
00001000
00010000
00000100
00010000
00000000
,
00002000
00000000
00000000
00000000
00023000
00000000
00000000
00000000
00030010
00001000
00000010
00000100
00000001
00001000
00000001
00000000
,
00000020
00000000
00000000
00000000
00000230
00000000
00000000
00000000
00001300
00000001
00001000
00000100
00010000
00000100
00010000
00000000
,
00002000
00000000
00023000
00130000
00020000
00031000
00020000
02030000
,
23000000
00000000
00000000
00000000
30020000
00000000
00000000
00000000
00130000
00001000
00010000
00001000
01000000
00001000
00010000
00001000
,
00200000
00000000
00000000
00000000
00020000
00300000
00000000
00000000
01030000
00001000
00010000
00001000
00010000
00000010
00010000
00001000
,
00020000
00000000
00000000
00000000
00030200
00000000
00000000
00000000
00001300
00000010
00000100
00000010
00001000
00000100
00000010
00000001
,
00002000
00003000
00000200
00020300
,
00032000
00000000
00000000
00000000
00023000
00000000
00000000
00000000
00031000
00000000
00100000
00010000
10000000
01000000
00100000
00010000
00100000
00001000
00010000
00001000
00100000
00001000
00010000
00001000
01000000
00001000
00010000
00001000
01000000
00001000
00010000
00001000
,
00010000
00000100
00001000
00000100
00000010
00000100
00001000
00000100
00010000
00000100
00001000
00000100
00000010
00000100
00001000
00000100
00020000
00000000
00000000
00000000
00031000
00000000
00000100
00000000
00000001
00000000
00001000
00000000
00000001
00000000
00000000
00000000
,
00000020
00000000
00000000
00000000
00000230
00000000
00000000
00000000
00002300
00000000
00000000
00000000
00003010
00000000
00001000
00000100
00010000
00001000
00010000
00000100
00010000
00001000
00010000
00000010
00010000
00001000
00010000
00000100
00010000
00000000
00001000
00000000
,
00100000
00010000
00100000
01000000
00100000
00010000
00100000
01000000
00100000
00010000
00100000
01000000
10000000
00000000
00100000
01000000
00200000
00000000
00000000
00000000
00000000
00000000
00000000
00000000
10300000
00010000
10000000
00010000
10000000
00000000
00000000
00000000
,
00010000
00000000
00010000
00000000
00100000
00000000
00000000
00000000
00001000
00000000
00010000
00000100
00001000
00000100
00001000
00000100
00000010
00000001
00000010
00000001
00001000
00000010
00001000
00000010
00000100
00000000
00001000
00000000
00010000
00001000
00010000
00001000
,
00010000
00000000
00000000
00000000
00001000
00100000
00010000
01000000
00001000
00100000
00010000
01000000
00001000
00000000
01000000
00010000
01000000
00000000
00000000
00000000
00200000
00000000
00000000
00000000
20300000
00000000
00000000
00000000
31000000
00100000
01000000
00100000
,
01000000
00000000
01000000
00000000
01000000
00000000
00000000
00000000
10000000
00000000
00010000
00000000
00200000
00000000
00000000
00000000
00301000
00000000
00010000
00000000
00000100
00001000
00000010
00000100
00000001
00000000
00000010
00000000
00000100
00001000
00000100
00010000
,
00001000
00000000
00100000
00010000
01000000
00000000
00100000
10000000
01000000
00000000
00010000
00000000
00001000
00000000
00000010
00000000
00000001
00000100
00000010
00000000
00000100
00001000
00010000
00000000
00100000
01000000
00100000
01000000
00010000
10000000
00010000
10000000
,
00020000
00000000
00000000
00000000
,
00000000
00000000
00000000
00000000
,
00030000
00000000
00000000
00000000
,
00000000
00000000
00000000
00000000
,
10000000
00000000
00000000
00000000
00000000
00000000
10000000
01000000
00010000
00000000
00000000
00001000
00000000
00000000
00000010
00000000
,
00000000
00000000
00000001
00001000
00000001
00000000
00000000
00000000
00000100
00000000
00000000
00000010
00000000
00000000
00001000
00000000
,
00000001
00000000
00000000
00000000
00000000
00000000
00000001
00000100
00001000
00000000
00000000
00010000
00000000
00000000
00100000
00000000
,
00000000
00000000
10000000
00000000
00010000
00000000
00000000
00000000
01000000
00000000
00000000
00000000
00100000
01000000
00100000
01000000
,
00010000
10000000
00000000
01000000
00010000
00000000
00001000
00000010
00000002
00000000
00000003
00000000
00000001
00000100
00000000
00001000
,
00010000
00000000
00100000
10000000
00020000
00000000
00030000
00000000
10000000
00100000
00000000
00010000
00001000
00000000
00000100
00000010
,
00002000
00000000
00000000
00000000
00003000
00000000
00000001
00000100
00000010
00000000
00001000
00000000
00000000
00000000
00000100
00000000
00010000
00000000
00000000
00000000
00001000
00000000
00010000
00000000
00002000
00000000
00000000
00000000
00003000
00000000
00000000
00000000
,
00001000
00010000
00100000
10000000
00010000
01000000
00100000
00000000
10000000
00000000
01000000
00000000
,
00010000
00000000
00000000
00000000
00001000
00000000
00000000
00000000
00100000
00000000
00000000
00000000
00001000
00000000
00000000
00010000
00000000
00000000
00001000
00000000
00000000
00010000
00000000
00000000
,
00001000
00010000
00000010
00000000
00001000
00000010
00000100
00000000
00000001
00001000
00000001
00001000
00000001
00001000
00000001
00001000
,
00000002
00000000
00000000
00000003
,
00000001
00000100
00000000
00000100
00001000
00000000
00001000
00010000
00000000
00010000
00100000
01000000
00010000
00100000
01000000
00000000
,
10000000
01000000
00000000
01000000
00010000
00000000
00010000
00001000
00000000
00001000
00000010
00000100
00001000
00000010
00000100
00000000
,
00000001
00000010
00000000
00001000
00000010
00000000
00000001
00000100
00000000
00001000
00010000
00100000
01000000
00010000
01000000
00100000
,
10000000
00100000
00000000
00010000
00100000
00000000
10000000
01000000
00000000
00010000
00001000
00000010
00000100
00000010
00000001
00000000
,
00001000
00000001
00001000
00000000
00000001
00000010
00000100
00001000
00000000
00001000
00000100
00010000
00001000
00010000
00001000
00000000
,
00100000
00010000
01000000
00000000
00100000
10000000
00010000
01000000
00000000
01000000
00100000
10000000
00010000
10000000
00010000
00000000
,
10000000
01000000
00100000
00000000
00001000
00010000
00001000
00010000
00000000
00010000
00000100
00001000
00000010
00001000
00000100
00000010
,
00000001
00000000
00000100
00000000
00001000
00000000
00010000
00001000
00000000
00001000
00010000
00000000
00001000
00010000
00001000
00000000
,
00020000
00000000
00000000
00000000
00031000
00010000
00001000
00010000
00001000
00010000
00001000
00010000
00001000
00010000
00001000
00010000
,
00001000
00010000
00000000
00100000
00010000
00000000
00001000
00000010
00000000
00001000
00010000
00000000
00002000
00000000
00000000
00000000
,
00013000
00100000
01000000
00010000
10000000
00000000
01000000
00010000
01000000
00100000
00010000
00000000
00100000
00001000
00010000
00000000
,
00001000
00000010
00000000
00000100
00001000
00000000
00000001
00000100
00000000
00000010
00000001
00000000
00000020
00000000
00002030
00000000
,
00003100
00010000
00001000
00000000
00010000
00001000
00010000
00001000
00000000
00001000
01000000
00010000
01000000
00010000
00100000
00000000
,
01000000
10000000
00010000
00000000
01000000
00100000
01000000
00100000
00000000
00100000
00010000
00001000
00000100
00000010
00001000
00000100
,
00000010
00000000
00000001
00000100
00001000
00000000
00010000
00100000
10000000
00000000
00010000
00100000
01000000
10000000
00100000
01000000
,
00020000
00000000
00000000
00000000
00130000
00001000
00020000
00000000
00000000
00000000
00031000
00100000
00020000
00000000
00000000
00000000
,
02030000
00000000
00000000
00000000
03002000
00000000
00000000
00000000
00013000
00000000
00000100
00001000
00000100
00000010
00000100
00000001
,
00000100
00000010
00000100
00001000
00000100
00010000
00000100
00001000
00000100
00000010
00000100
00000001
00000100
00000010
00000100
00001000
,
00000100
00010000
00000100
00001000
00000100
00000010
00000100
00000001
00000100
00000010
00000100
00001000
00000100
00010000
00000100
00000000
,
00020000
00000000
00031000
00100000
00010000
01000000
00200000
00000000
,
20300000
00000000
00000000
00000000
30020000
00000000
00000000
00000000
02030000
00000000
00000000
00000000
03100000
00000000
01000000
00010000
,
01000000
00100000
01000000
10000000
01000000
00100000
01000000
00010000
01000000
00001000
01000000
00010000
01000000
00100000
01000000
00000000
,
00100000
10000000
00100000
10000000
00010000
01000000
00010000
01000000
00001000
00010000
00001000
00010000
00000010
00001000
00000010
00001000
,
00000001
00000000
00000010
00001000
00010000
00000000
01000000
10000000
00010000
10000000
00010000
10000000
00020000
00000000
00000000
00000000
,
01030000
00000000
00000000
00000000
;
