
//----- song ID: mzcn -----//
#TITLE:ミカヅキ\:コネクト;
#ARTIST:かゆき;
#TITLETRANSLIT:Mikazuki connect;
#ARTISTTRANSLIT:Kayuki;
#BANNER:Mikazuki connect.png;
#BACKGROUND:Mikazuki connect-bg.png;
#CDTITLE:./CDTitles/GITADORA Matixx.png;
#MUSIC:Mikazuki connect.ogg;
#SAMPLESTART:62;
#SAMPLELENGTH:15;
#BPMS:0=160;
#BGSTAGE:1;
#NOTES:
     dance-single:
     :
     Beginner:
     3:
     :
0000
0000
0000
0000
,
0000
0000
0000
0000
,
0000
0000
0000
0000
,
0000
0000
0000
0000
,
0000
0000
0000
0000
,
0000
0000
0000
0000
,
0000
0000
0000
0000
,
0001
0000
0001
0000
,
0001
0000
0001
0000
,
1000
0000
1000
0000
,
1000
0000
1000
0000
,
0010
0000
0010
0000
,
0010
0000
0010
0000
,
0100
0000
0100
0000
,
0001
0000
1001
0000
,
2000
0000
0000
0000
,
0000
0000
3000
0000
,
0010
0000
0000
0000
,
0010
0000
0000
0000
,
0100
0000
0000
0000
,
0100
0000
0000
0000
,
0001
0000
0000
0000
,
0001
0000
0000
0000
,
1000
0000
0000
0000
,
1000
0000
0000
0000
,
0010
0000
0000
0000
,
0100
0000
0000
0000
,
0001
0000
0000
0000
,
1000
0000
0000
0000
,
0100
0000
0000
0000
,
0010
0000
0000
0000
,
0001
0000
0000
0000
,
1000
0000
0000
0000
,
2002
0000
0000
0000
0000
0000
0000
0000
0000
0000
0000
0000
0000
0000
0000
3003
,
0000
0000
0000
0000
,
0220
0000
0000
0000
0000
0000
0000
0000
0000
0000
0000
0000
0000
0000
0000
0330
,
0000
0000
0000
0000
,
2002
0000
0000
0000
0000
0000
0000
0000
0000
0000
0000
0000
0000
0000
0000
3003
,
0000
0000
0000
0000
,
0001
0000
0000
0000
,
1000
0000
0000
0000
,
0010
0000
0010
0000
,
0100
0000
0000
0000
,
0100
0000
0100
0000
,
0001
0000
0000
0000
,
0001
0000
0001
0000
,
1000
0000
0000
0000
,
1000
0000
1000
0000
,
0010
0000
0000
0000
,
0010
0000
0010
0000
,
0100
0000
0000
0000
,
0100
0000
0100
0000
,
0001
0000
0000
0000
,
0001
0000
0001
0000
,
1000
0000
0000
0000
,
1000
0000
1000
0000
,
0010
0000
0000
0000
,
0100
0000
0000
0000
,
0000
0000
0000
0000
,
0100
0000
0000
0000
,
0000
0000
0000
0000
,
0100
0000
0000
0000
,
0100
0000
0000
0000
,
0100
0000
0000
0000
,
0100
0000
0000
0000
,
0001
0000
0001
0000
,
0001
0000
0001
0000
,
1000
0000
1000
0000
,
1000
0000
1000
0000
,
0010
0000
0010
0000
,
0010
0000
0010
0000
,
0100
0000
0100
0000
,
0100
0000
0000
0000
,
0002
0000
0000
0000
,
0000
0000
0003
0000
,
2000
0000
0000
0000
,
0000
0000
0000
0000
0000
0000
0000
3000
,
0000
0000
0000
0000
;
#NOTES:
     dance-single:
     :
     Easy:
     7:
     :
0000
0000
0000
0000
,
0000
0000
0000
0000
,
0000
0000
0000
0000
,
0000
0000
0000
0000
,
0000
0000
0000
0000
,
0000
0000
0000
0000
,
0000
0000
0000
0000
,
0001
0010
0100
1000
,
0010
1000
0001
0100
,
0010
0010
0100
0001
,
1000
0100
0110
1001
,
1000
0010
0100
0001
,
0010
0001
1000
0010
,
0100
0001
0010
0100
,
1100
0010
2002
3003
,
0001
0000
0000
0001
0000
0000
1000
0000
,
0000
1000
0000
0000
0010
0000
0000
0000
,
0100
0001
1000
0001
,
1000
0100
0010
0000
,
0001
1000
0010
1000
,
0010
0000
0100
0000
0001
0000
0000
1000
,
0000
0100
1000
0100
,
1000
0001
0100
0000
,
0001
0010
0100
0010
,
0100
0000
1000
0000
0001
0000
0000
0100
,
0000
0010
1000
0001
,
0010
0000
0100
0000
1000
0000
0000
0010
,
0000
0100
0001
1000
,
0100
0000
1000
0000
0010
0000
0000
0100
,
0000
0001
1000
0100
,
1000
0000
0010
0000
0100
0000
0000
0001
,
0000
0010
0001
0100
,
0010
1000
0001
1001
,
1000
0000
0000
0010
0000
0000
0100
0000
,
0000
0000
0000
0000
,
0001
0000
0000
1000
0000
0000
0010
0000
,
0000
0000
0000
0000
,
1000
0000
0000
0100
0000
0000
0010
0000
,
0000
0001
1000
0010
,
0000
0100
0001
1000
,
0000
0010
0100
1001
,
0001
0010
0100
1000
,
0001
0100
0010
0100
,
0001
0010
0001
1000
,
0010
0100
0001
1000
,
0100
0010
0001
0001
,
0010
0100
1000
1000
,
0010
0010
0100
0001
,
0200
0000
0310
0110
,
1000
0100
0010
0001
,
1000
0010
0100
0010
,
1000
0100
1000
0001
,
0100
0010
1000
0001
,
1000
1000
0100
0100
,
0010
0010
0001
0001
,
1000
0010
0100
0001
,
1001
0110
2002
3003
,
1000
0000
0100
0000
,
0010
0000
0001
0000
,
0100
0000
0010
0000
,
1000
0000
0001
0000
,
1000
1000
1000
1000
,
0001
0001
0001
0001
,
0100
0100
0010
0010
,
2000
3000
0002
0003
,
1000
0100
1000
0010
,
0100
0010
1000
0100
,
1000
0010
0100
0001
,
1000
1100
0001
0101
,
1000
0100
0010
0001
,
0010
0000
0100
0000
1000
0000
0000
0010
,
0010
0000
0100
0001
,
1001
0110
2002
3003
,
1000
0000
0000
1000
0000
0000
1000
0000
,
0000
1000
0000
0000
0010
0000
0100
0000
,
0001
0000
0000
0001
0000
0000
0001
0000
,
0000
0010
0000
0000
0100
0000
0000
2000
,
0000
3000
0000
0000
,
0000
0000
0000
0000
;
#NOTES:
     dance-single:
     :
     Medium:
     11:
     :
0000
0000
0000
0000
,
0000
0000
0000
0000
,
0000
0000
0000
0000
,
0000
0000
0000
0000
,
0000
0000
0000
0000
,
0000
0000
0000
0000
0000
0000
0000
0001
,
0000
0001
0100
0001
0100
0010
1000
0000
,
0001
0000
0000
0100
0000
0000
0010
0000
0100
0000
0000
0001
0000
0000
0010
0000
,
0001
0000
0000
1000
0000
0000
0010
0000
0200
0000
0000
0000
0302
0000
0000
0000
,
0023
0000
0030
0001
2000
0000
3000
0100
,
1000
0000
0000
0010
0000
0000
0100
0000
0001
0000
0000
0000
1001
0000
0000
0000
,
2020
0000
3030
0010
1000
0010
0100
0001
,
0100
0000
0000
0001
0000
0000
0010
0000
0100
0000
0000
1000
0000
0000
0010
0000
,
0100
0000
0000
0001
0000
0000
2000
0000
0000
0000
0000
0000
3000
0000
0010
0000
,
0100
0000
0001
0100
1000
0000
0110
0000
,
0001
0000
0000
0001
0000
0000
0010
0000
0000
0100
0000
0000
1000
0000
0000
0010
,
0000
0000
0010
0000
0000
0100
0000
0000
0001
0000
0000
0000
1001
0000
0000
0000
,
1000
0000
0001
1000
0100
0010
0100
1000
,
0001
0000
0000
0000
0100
0000
0010
0000
1000
0000
0000
0100
0000
0000
1000
0000
,
0020
0000
0130
0001
1000
0000
0100
0000
,
0010
0000
0000
0000
0001
0000
0000
0000
0100
0000
0000
0010
0000
0000
1010
0000
,
0000
0000
1000
0000
0001
0100
0010
0100
,
0001
0000
1000
0100
0010
0001
0100
0100
,
0010
1000
0001
0100
,
0001
0001
0010
0100
1000
0100
1000
0010
,
0000
0000
0000
0000
0100
0000
0000
0000
0001
0000
0010
0000
0100
0000
0000
1000
,
0000
0000
0010
0000
1000
0000
0001
0000
0100
0000
0000
0001
0000
0000
0011
0000
,
0000
0000
0010
0100
1000
0001
1000
0001
,
0100
0000
0010
0000
0100
0000
0001
0000
1000
0000
0000
0100
0000
0000
0010
0000
,
0000
0100
1000
0010
0000
0100
0001
0010
,
0000
0000
0100
0000
0000
0000
0010
0000
0001
0000
0000
1000
0000
0000
1001
0000
,
0000
0000
1000
0100
1000
0100
0010
0001
,
1000
0000
0001
0100
0010
1000
0100
0000
,
1000
0000
0000
1000
0000
0000
0010
0000
0000
0100
0000
0000
0001
0000
0000
1001
,
0000
0000
0000
0000
,
1000
0000
0000
1100
0000
0000
0001
0000
0000
0101
0000
0000
0010
0000
0000
1001
,
0000
0000
0000
0000
,
1100
0000
0000
0101
0000
0000
1100
0000
0000
0101
0000
0000
1010
0000
0000
0011
,
0000
0000
0000
0000
0000
0000
1000
0000
0100
0000
0010
0000
0001
0100
0000
0010
,
0000
0000
0000
0000
1000
0000
0001
0000
0100
0000
0001
0000
1000
0000
0000
0010
,
0000
0100
0010
0100
0010
1000
1001
0000
,
0001
0100
0010
1000
0001
0000
0100
0001
,
1000
0000
0100
0000
0010
0001
0100
0000
,
0010
1000
0001
0100
0010
0000
1000
0000
,
0001
0000
1000
0100
0010
0001
0010
0100
,
2000
0000
3000
0010
0100
0001
0010
0001
,
1000
0010
0100
0000
0001
0100
1000
0000
,
0100
0000
0000
0000
0010
0000
0000
0000
1000
0000
0001
0000
0100
0000
0010
0100
,
0000
0000
0000
0010
0000
0000
1000
0000
0001
0000
0000
0000
0011
0000
0000
0000
,
1000
0010
0100
0001
0010
0000
0100
1000
,
0001
0000
0100
0000
0001
0010
0100
0000
,
1000
0001
0100
0010
0100
0000
0001
1000
,
0100
0000
1000
0010
0100
0001
0100
0010
,
2000
0000
3000
0001
0001
0100
0100
0010
,
1000
0001
0100
0000
0010
1000
0001
0000
,
0011
0000
0010
0100
1000
0000
0001
0100
,
0010
0000
0000
1000
0000
0000
0001
0000
2002
0000
0000
0000
3003
0000
0000
0000
,
1000
0000
0000
0000
0100
0000
0000
0000
0010
0000
0000
0000
0001
0000
0000
0001
,
0000
0001
0000
0000
0100
0010
1000
0000
,
0001
0000
0010
0000
,
0100
0000
1000
0000
,
0020
0230
0302
2003
,
3001
0000
0000
0010
0000
0000
0100
0000
1000
0000
0000
0000
0001
0000
0000
0000
,
1000
0100
0100
0000
0001
0100
0100
0000
,
1000
0000
0000
0001
0000
0000
0100
0000
0010
0000
0000
0000
0110
0000
0000
0000
,
0001
1000
0100
0000
0010
0001
1000
0000
,
0001
0010
0100
1000
0001
0100
0010
0000
,
1000
0001
0010
0000
0100
1000
0001
0000
,
0100
0001
0010
0001
1000
0010
0010
0000
,
1000
0100
1000
0100
0010
0001
0010
0001
,
1000
0000
0010
0000
1000
0000
0010
0000
0100
0000
0000
0001
0000
0000
0010
0000
,
0002
0000
0003
1000
0010
0100
0001
0010
,
0001
0000
0000
1000
0000
0000
0010
0000
0220
0000
0000
0000
0330
0000
0000
0000
,
0001
0000
0000
0101
0000
0000
1000
0000
0000
1100
0000
0000
0001
0000
0000
0011
,
0000
0000
1000
0000
0000
1010
0000
0000
0001
0000
0000
0000
1001
0000
0000
0000
,
1100
0000
0000
0101
0000
0000
1100
0000
0000
0101
0000
0000
1100
0000
0000
0101
,
0000
0000
0101
0000
0000
0101
0000
0000
1010
0000
0000
0110
0000
0000
2002
0000
,
0000
3003
0000
0000
,
0000
0000
0000
0000
;
#NOTES:
     dance-single:
     :
     Hard:
     15:
     :
0000
0000
0000
0000
,
0000
0000
0000
0000
,
0000
0000
0000
0000
,
0000
0000
0000
0000
,
0000
0000
0000
0000
0000
0000
0000
0000
1000
0000
0000
0010
0000
0000
0200
0000
,
0000
0000
0000
0000
0000
0000
0000
0010
,
0000
0301
0010
0100
1000
0001
1001
0000
,
0001
0000
1000
0100
0000
0010
0001
0000
1000
0000
0001
0100
0000
0010
1000
0000
,
0001
0000
1000
0100
0000
0010
0001
0000
1000
0000
0010
0100
0000
0001
0010
0000
,
0100
0000
0010
0001
0000
1000
0010
0000
0100
0000
0001
0010
0000
0100
1000
0000
,
0010
0000
1000
0100
0000
0010
0001
0000
1000
0000
1010
0000
0010
0000
0100
0000
,
0002
0000
0010
0000
0013
0000
0100
1000
0100
1000
0100
1000
0001
0100
0001
0100
,
0010
0000
0000
1000
0000
0000
0001
1000
0001
0000
0000
0010
0000
0000
0001
0000
,
1000
0000
0001
0100
0000
0100
0010
0000
1000
0000
0001
0000
0010
0000
0100
1000
,
0001
0000
0100
0000
0010
0000
0100
0001
1000
0000
0001
0000
0100
0000
0000
0000
,
0101
0000
0000
1100
0000
0000
0101
0000
0000
1100
0000
0000
0101
0000
0000
1010
,
0000
0000
0011
0000
0000
1010
0000
0000
0001
0010
0100
0000
1001
0000
0000
0000
,
1000
0100
1000
0100
0010
0001
0100
0010
,
1000
0000
0010
0000
1000
0000
0100
0000
0010
0000
0001
0100
0000
0100
0010
0000
,
1000
0000
0100
0000
0010
0001
0010
0000
0100
0000
1000
0000
0100
0000
1000
0000
,
0100
0000
1000
0000
0010
0000
0000
0000
1000
0000
0000
1100
0000
0000
0021
0000
,
0000
0000
0130
1000
0100
1000
0010
0100
,
0010
0000
0100
0000
0001
0000
0010
0000
0100
0000
1000
0000
0001
0100
0001
0100
,
0010
1000
0010
1000
0010
1000
0010
1000
,
0100
0000
1000
0000
0010
0000
0100
0000
0001
0000
0010
0100
1000
0000
1001
0000
,
0000
0000
0000
0000
0110
0000
0001
0000
1000
0000
0100
0000
1000
0010
0000
0100
,
0000
0000
0001
0000
1000
0100
0010
0100
1000
0000
0000
1010
0000
0000
0202
0000
,
0000
0000
0303
0000
0000
0000
0001
0010
0100
0000
1000
0000
0001
0000
0100
0000
,
0010
0000
0100
0000
0001
0000
1000
0000
0100
0000
0000
0010
0000
0000
0011
0000
,
0000
0000
0001
0000
1000
0000
0200
0000
0000
0000
0310
0100
1000
0100
2000
0000
,
0000
0000
3020
0000
0000
0000
0130
0000
0101
0000
0000
0011
0000
0000
2002
0000
,
0000
0000
3003
0000
0001
0000
0100
0010
1000
0000
0001
1000
0001
1000
0100
0010
,
0001
0000
0000
0100
0010
0000
0100
0001
1000
0000
0100
0010
0001
0000
0000
0000
,
0101
0000
0000
1100
0000
0000
0101
0000
0000
1100
0000
0000
0011
0000
0000
1010
,
0000
0000
0000
0000
,
0101
0000
0000
1000
0100
0000
0101
0000
0000
1000
0100
0000
0101
0000
1000
0010
,
0000
0000
0000
0000
,
0001
0100
0001
1000
0100
1000
0001
0100
0001
1000
0100
1000
0001
0100
0001
0010
,
0100
0000
0000
0000
0000
0000
1000
0000
0010
0000
0100
0000
0001
0010
0000
0001
,
0000
0000
0100
0000
0010
0000
1000
0001
0100
0000
0001
0000
0010
0100
0000
1000
,
0000
0010
0010
0100
0100
0001
1001
0000
,
0001
0000
1000
0000
0010
0100
0001
0000
0010
0000
0001
0000
1000
0100
0010
0000
,
0100
0000
1000
0000
0010
0100
0001
0000
0010
0100
1000
0000
0001
0000
0100
0000
,
0010
0000
1000
0000
0100
0010
0001
0000
0100
0000
0001
0000
1000
0010
0100
0000
,
0010
0000
1000
0000
0002
0000
0023
0000
0230
0000
2300
0000
3010
0000
0001
0010
,
0100
0000
0000
0000
0001
0000
1000
0001
0010
0000
0100
0000
1000
0000
0001
0100
,
0000
0010
1000
0000
0100
0000
1000
0010
0000
0010
0100
0000
0001
0000
1000
0000
,
0001
0000
0010
0000
0100
0000
1000
0010
0100
0000
0001
1000
0100
0000
1000
0001
,
0000
0000
1000
0100
0010
0000
0100
0000
1000
0000
0010
0000
0110
0000
0000
0000
,
1000
0000
0001
0000
0010
0100
1000
0000
0010
0000
1000
0000
0001
0100
0010
0000
,
0100
0000
0001
0000
0010
0100
1000
0000
0010
0100
0001
0000
0010
0000
0100
0000
,
1000
0000
0001
0100
0010
0000
1000
0000
0100
0000
1000
0000
0001
0010
0100
0000
,
0010
0001
2000
3020
0230
0302
1003
0100
,
1000
0000
0010
0000
0100
0000
0001
0010
0001
0000
0010
0100
0010
0000
0100
1000
,
0100
0000
1000
0000
0010
0000
0100
0001
1000
0000
0100
0000
0010
0001
0010
0001
,
0010
0000
0100
0000
1000
0000
0010
0100
0001
0000
1000
0000
0100
0000
0010
0000
,
0011
0000
0000
1100
0000
0000
0101
0000
2002
0000
0000
0000
3003
0000
0000
0000
,
2000
0000
0000
0000
3200
0000
0000
0000
0320
0000
0000
0000
0031
0000
0000
1000
,
0000
0010
0010
0100
0100
0001
2000
0000
,
3001
0000
0000
0000
0010
0000
0000
0000
0100
0000
0000
0000
1000
0000
0000
0001
,
0000
0000
0000
0100
0010
0000
0100
0000
,
0002
0023
0230
2300
,
3001
0000
0000
0100
0000
0000
0010
0000
2000
0000
0000
0000
3002
0000
0000
0000
,
0103
0000
0001
1000
0000
0000
0000
0000
0100
0000
1000
0001
0000
0000
0100
0000
,
0001
0000
0000
0001
0000
0000
0010
0000
0100
0000
1000
0010
0100
0001
0010
0100
,
1000
0000
0001
0000
0100
0010
1000
0000
0001
0000
0100
0001
0000
0010
0100
0000
,
1000
0000
0010
0000
0100
0001
1000
0000
0100
0000
1000
0010
0000
0100
0001
0000
,
0010
0000
0100
0000
1000
0010
0100
0000
0010
0000
1000
0001
0000
0010
0100
0000
,
1000
0000
0010
0000
0100
0001
1000
0000
0001
0000
0010
0000
0100
0000
0000
0000
,
1000
0100
1000
0100
1000
0100
1000
0000
0001
0100
0001
0100
0001
0100
0001
0000
,
1000
0100
1000
0100
1000
0100
1000
0000
0010
0000
0000
0100
0000
0000
1001
0000
,
0001
0000
0010
0000
0001
0000
1000
0010
0100
0000
0001
0000
0010
0000
0100
0000
,
1100
0000
0000
1010
0000
0000
0101
0000
2002
0000
0000
0000
3003
0000
0000
0000
,
1100
0000
0000
0001
0100
0000
1100
0000
0000
0001
0100
0000
1100
0000
0000
0101
,
0000
0000
1100
0000
0001
0100
0000
0000
1100
0000
0001
0100
0010
0000
0000
0000
,
1010
0000
0000
0001
0010
0000
1010
0000
0000
0001
0010
0000
1010
0000
0000
0011
,
0000
0000
0101
0000
0000
1100
0000
0000
1010
0000
0000
0110
0000
0000
2002
0000
,
0000
3003
0000
0000
,
0000
0000
0000
0000
;
#NOTES:
     dance-single:
     :
     Challenge:
     18:
     :
0000
0000
0000
0000
,
0000
0000
0000
0000
,
0000
0000
0000
0000
,
0000
0000
0000
0000
,
0000
0000
0000
0000
0000
0000
0000
0000
0101
0000
0000
0011
0000
0000
2200
0000
,
0000
0000
0000
0000
0000
0000
0300
0010
,
0000
0001
0001
0001
0001
3001
1001
0000
,
1000
0000
0010
0100
0001
1000
0100
0000
1000
0000
0001
0100
0010
1000
0100
0000
,
1000
0000
0000
0000
0000
0000
0001
0000
0000
0010
0000
0000
0100
0000
0000
1000
0000
0000
0001
0000
0100
0000
0001
0000
0100
0000
0000
0000
0000
0000
0001
0000
0000
0010
0000
0000
0100
0000
0000
1000
0000
0000
0010
0000
0000
0000
0000
0000
,
1000
0000
0000
0000
0000
0000
0001
0000
0000
0100
0000
0000
0001
0000
0000
0010
0000
0000
0100
0000
1000
0000
0100
0000
1000
0000
0000
0000
0000
0000
0001
0000
0000
1000
0000
0000
0010
0000
0000
0100
0000
0000
0001
0000
1000
0000
0001
0000
,
1000
0000
0100
0010
0001
1000
0010
0000
0100
0000
0001
0010
0001
0100
0010
1000
,
0200
0000
1000
0000
1300
0000
0100
1000
0001
0100
0010
0100
0001
1000
0100
1000
,
0010
0000
0000
0000
0000
0000
0100
0000
0000
0001
0000
0000
0000
0000
0000
0010
0000
0000
0100
0000
1000
0000
0100
0000
0010
0000
0000
0000
0000
0000
0001
0000
0000
1000
0000
0000
0000
0000
0000
0010
0000
0000
0100
0000
0000
0000
0000
0000
,
0001
0000
0000
1000
0000
0000
0010
0000
0000
0100
0000
0000
0010
0000
0000
1000
0000
0000
0001
0000
0000
0010
0000
0000
0100
0000
1000
0000
0100
0000
1000
0000
0000
0010
0000
0000
0100
0000
0001
0000
0100
0000
0001
0000
0000
0010
0000
0000
,
0100
0000
0000
0000
0000
0000
1000
0000
0100
0000
0010
0000
0001
0000
0000
0000
0000
0000
1000
0000
0000
0010
0000
0000
0100
0000
0000
0001
0000
0000
0100
0000
0000
0010
0000
0000
1000
0000
0000
0100
0000
0000
0010
0000
0000
0000
0000
0000
,
0001
0010
0001
1000
0010
1000
0001
0010
0001
0100
0010
0100
0001
0010
0001
1000
,
0100
1000
0001
0100
0001
1000
0100
1000
0010
0100
0001
0010
0002
0000
0000
0000
,
0103
0001
0010
0001
0100
0010
1000
0100
,
1000
0000
0010
0000
1000
0000
0100
0000
1000
0000
0010
0100
0000
0100
0001
0000
,
0010
0000
0100
0000
1000
0010
0100
0000
0010
0000
1000
0000
0001
0000
1000
0000
,
0100
0000
0010
0000
0100
0000
1000
0000
0010
0000
0000
1000
0000
0000
0011
0000
,
0000
0010
0100
0010
0001
0100
0010
0100
,
0001
0000
0010
0000
0001
0000
0010
0000
0100
0000
1000
0001
1000
0001
0100
0010
,
1000
0100
1000
0010
0100
0001
0010
0001
,
1000
0000
0010
0000
0100
0000
0001
0000
0010
0100
1000
0010
0100
0001
2000
0000
,
0000
0000
3000
0000
1010
0000
0010
0000
0100
0000
0001
0000
1000
0100
0000
0010
,
0000
0000
0100
0000
1000
0010
0100
0001
0010
0000
0000
1100
0000
0000
2020
0000
,
0000
0000
3030
0000
0000
0000
0010
0100
0001
0000
0010
0000
0100
0000
0010
0000
,
0001
0000
0100
0000
0001
0000
1000
0000
0001
0010
0100
1000
0100
0000
1010
0000
,
0000
0000
0001
0000
1000
0000
0020
0000
0000
0000
0130
0001
0010
0100
2000
0000
,
0000
0000
3020
0000
0000
0000
0130
0000
0101
0000
0000
0011
0000
0000
1001
0000
,
0000
0000
1000
0000
0100
0000
1000
0010
0100
0000
0010
1000
0100
0010
0100
1000
,
0010
0000
0000
0100
0001
0010
0100
1000
0010
1000
0100
0010
0001
0000
0000
0000
,
0101
0000
0000
1100
0000
0000
0101
0000
0000
1100
0000
0001
0101
0000
1000
1100
,
0000
0000
0000
0000
,
1000
0000
0000
0100
0000
0000
0000
0000
1000
0000
0100
0000
0010
0000
0000
0000
0000
0000
0001
0000
0000
0010
0000
0000
0000
0000
0001
0000
0010
0000
0100
0000
0000
0000
0000
0000
1000
0000
0000
0001
0000
0000
0000
0000
1000
0000
0010
0000
,
0100
0000
0000
0000
0000
0000
0001
0000
0000
0010
0000
0000
0100
0000
0000
1000
0000
0000
0001
0000
0000
0100
0000
0000
0110
0000
0000
0000
0000
0000
0000
0000
0000
0000
0000
0000
1000
0000
0001
0000
1000
0000
0001
0000
0000
0000
0000
0000
,
0010
0100
1000
0010
0100
0010
1000
0100
1000
0010
0100
0010
1000
0100
0010
0001
,
0000
0000
0000
0000
0000
0000
1000
0000
0000
0000
0000
0000
0010
0000
0000
0000
0000
0000
0100
0000
0000
0000
0000
0000
0001
0000
0000
0000
0000
0000
0010
0000
0001
0000
0010
0000
0100
0000
0000
1000
0000
0000
0000
0000
0000
0010
0000
0000
,
0000
0000
0000
0000
0000
0000
0110
0000
0000
0000
0000
0000
0100
0000
0000
0000
0000
0000
0010
0000
1000
0000
0010
0000
1000
0000
0000
0000
0000
0000
0001
0000
0010
0000
0001
0000
0010
0000
0000
0100
0000
0000
0000
0000
0000
1100
0000
0000
,
0000
1000
0010
1000
0100
1000
1001
0000
,
1000
0100
1000
0001
0100
0010
1000
0010
0100
0001
1000
0100
1000
0001
0100
0010
,
1000
0001
0010
0001
1000
0010
0100
0001
1000
0100
1000
0010
0100
0001
0010
0001
,
1000
0010
0100
0001
1000
0100
0010
0001
1000
0010
1000
0001
0010
0100
0010
0001
,
1000
0010
0100
0010
1000
0001
0010
0001
1000
0010
0100
0001
0010
0100
1000
0001
,
0100
0010
0100
0001
1000
0001
0010
0100
1000
0001
1000
0010
0100
0010
1000
0100
,
1000
0001
0100
0010
0100
0001
1000
0001
0010
0001
1000
0010
0100
0001
0010
0001
,
1000
0000
0000
0100
0000
0000
1000
0000
0000
0010
0000
0000
1000
0000
0000
0001
0000
0000
0100
0000
0000
0001
0000
0000
0010
0000
0000
0100
0000
0000
1000
0000
0100
0000
1000
0000
0100
0000
0000
0010
0000
0000
0001
0000
0000
1000
0000
0000
,
0000
0000
0000
0000
0000
0000
0001
0000
0100
0000
0010
0000
1000
0000
0000
0010
0000
0000
0100
0000
0000
0001
0000
0000
0010
0000
0000
0001
0000
0000
0010
0000
0000
0100
0000
0000
1000
0000
0000
0000
0000
0000
1001
0000
0000
0000
0000
0000
,
0001
0100
0010
1000
0001
0010
0001
1000
0010
0100
0010
1000
0001
0010
0100
1000
,
0001
0100
0001
1000
0010
0100
0001
0010
0001
1000
0100
1000
0010
0100
0001
0010
,
0100
1000
0100
1000
0001
0100
0001
1000
0100
0010
0100
1000
0001
0100
0010
1000
,
0001
0010
0001
1000
0100
0010
0001
0100
0001
1000
0010
1000
0100
0010
0001
0100
,
0010
0100
0001
0010
0100
1000
0010
1000
0100
0010
0001
0100
0001
0010
0100
1000
,
0010
0000
0000
1000
0000
0000
0100
0000
0000
0010
0000
0000
0001
0000
0000
0100
0000
0000
0010
0000
0000
1000
0000
0000
0001
0000
1000
0000
0001
0000
1000
0000
0100
0000
0010
0000
0001
0000
1000
0000
0001
0000
1000
0000
0010
0000
0100
0000
,
0001
0000
0000
0010
0000
0000
0001
0000
0000
0100
0000
0000
0010
0000
0000
1000
0000
0000
0100
0000
0000
1000
0000
0000
0001
0000
0100
0000
0001
0000
0100
0000
0010
0000
1000
0000
0001
0000
0000
0010
0000
0000
0100
0000
0000
1000
0000
0000
,
0010
0000
0010
0100
0000
0100
0001
0000
0001
0100
0010
1000
0100
0010
0001
0100
,
0020
0000
0000
0000
2030
0000
0000
0000
3002
0000
0000
0000
0203
0000
0000
0320
,
0000
1030
1000
0001
0002
0023
0230
0000
,
1300
0000
0000
0000
0100
0000
0000
0000
0010
0000
0000
0000
0001
0000
0000
1000
,
0000
0000
0000
0010
0010
0000
1000
0000
,
0002
0023
0230
2300
,
3002
0000
0000
0203
0000
0000
0320
0000
0230
0000
0000
0000
0302
0000
0000
0000
,
1003
0000
0100
0100
0000
0000
1000
0000
0001
0000
0100
0100
0000
0000
0001
0000
,
1000
0000
0000
0001
0000
0000
1000
0000
0000
0001
0000
0000
1000
0000
0000
0001
0000
0000
0010
0000
0000
0001
0000
0000
0100
0000
0000
0010
0000
0000
1000
0000
0000
0001
0000
0000
1000
0000
0010
0000
0100
0000
0001
0000
0010
0000
0100
0000
,
1000
0001
0100
0010
0100
0001
1000
0100
1000
0010
0100
0001
1000
0100
1000
0010
,
0100
0001
0010
0100
1000
0001
0100
0001
0010
0001
1000
0010
0100
0001
0010
0100
,
1000
0001
0100
0010
1000
0100
1000
0010
1000
0001
0010
0100
1000
0001
0100
0010
,
1000
0001
0010
0001
1000
0010
0100
0001
0010
0001
1000
0010
0100
0001
0010
0100
,
1000
0001
0010
0001
0100
0010
1000
0100
1000
0010
0100
0001
0010
0001
0100
0010
,
1000
0100
1000
0010
0100
0001
0010
0100
0010
0001
0100
0010
1000
0100
0010
0100
,
1000
0000
0000
0001
0000
0000
0100
0000
0000
0010
0000
0000
1000
0000
0000
0100
0000
0000
1000
0000
0000
0001
0000
0000
1000
0000
0001
0000
1000
0000
0001
0000
0100
0000
0010
0000
1000
0000
0001
0000
1000
0000
0001
0000
0010
0000
0100
0000
,
1000
0000
0000
0001
0100
0010
1000
0000
0000
0001
0000
0000
1000
0001
1000
0010
0100
0010
1000
0001
1000
0100
0010
0001
,
1000
0000
0000
0101
1000
0000
1100
0000
0000
0101
1000
0000
1100
0000
0000
0101
,
0000
0000
1100
0000
0001
1100
0000
0000
0101
1000
0010
0100
0001
0000
0010
0000
,
0011
0000
0000
1010
0001
0000
0011
0000
0000
1010
0001
0000
0011
0000
0000
1010
,
0000
0000
0011
0000
0000
1010
0000
0000
0101
0000
0000
0110
0000
0000
2002
0000
,
0000
3003
0000
0000
,
0000
0000
0000
0000
;
#NOTES:
     dance-double:
     :
     Easy:
     7:
     :
00000000
00000000
00000000
00000000
,
00000000
00000000
00000000
00000000
,
00000000
00000000
00000000
00000000
,
00000000
00000000
00000000
00000000
,
00000000
00000000
00000000
00000000
,
00000000
00000000
00000000
00000000
,
00000000
00000000
00000000
00000000
,
00010000
00001000
00010000
00000100
,
00000010
00000001
00000100
00001000
,
00010000
00010000
00001000
01000000
,
00010000
00100000
01000000
11000000
,
10000000
00010000
01000000
00100000
,
00010000
00001000
00010000
00000100
,
00000010
00000001
00001000
00000010
,
00000110
00000100
00002002
00003003
,
00000001
00000000
00000000
00000100
00000000
00000000
00001000
00000000
,
00000000
00010000
00000000
00000000
00001000
00000000
00000000
00000000
,
00010000
00001000
00100000
00001000
,
00100000
00010000
01000000
00000000
,
00010000
10000000
01000000
10000000
,
01000000
00000000
00100000
00000000
00010000
00000000
00000000
00100000
,
00000000
00001000
00010000
00001000
,
00010000
00000010
00001000
00000000
,
00000100
00001000
00000001
00001000
,
00000001
00000000
00000010
00000000
00000100
00000000
00000000
00001000
,
00000000
00000010
00010000
00001000
,
00010000
00000000
00001000
00000000
01000000
00000000
00000000
00010000
,
00000000
00100000
01000000
10000000
,
00010000
00000000
01000000
00000000
00100000
00000000
00000000
10000000
,
00000000
01000000
10000000
01000000
,
00010000
00000000
00001000
00000000
00010000
00000000
00000000
00000100
,
00000000
00000010
00000001
00000100
,
00000010
00001000
00000001
00000000
,
00000001
00000000
00000000
00000100
00000000
00000000
00001000
00000000
,
00000000
00000000
00000000
00000000
,
00010000
00000000
00000000
01000000
00000000
00000000
10000000
00000000
,
00000000
00000000
00000000
00000000
,
10000000
00000000
00000000
01000000
00000000
00000000
00010000
00000000
,
00000000
00001000
00010000
00000100
,
00000000
00001000
00000010
00000100
,
00000000
00000001
00001000
00001001
,
00000001
00000010
00000100
00001000
,
00000010
00010000
00001000
01000000
,
00100000
10000000
00010000
10000000
,
01000000
00100000
00001000
00010000
,
00001000
00001000
00010000
00000010
,
00001000
00000001
00000010
00000100
,
00001000
00000010
00000100
00000001
,
00001001
00000010
00001001
00000000
,
00000001
00000100
00000001
00000100
,
00001000
00010000
00001000
00010000
,
01000000
10000000
01000000
10000000
,
00100000
00010000
00100000
00010000
,
00001000
00010000
00000100
00000010
,
00000001
00001000
00000010
00000100
,
00000110
00000001
00001000
00000100
,
00010000
00001000
00022000
00033000
,
00010000
00000000
00001000
00000000
,
01000000
00000000
00100000
00000000
,
10000000
00000000
00010000
00000000
,
00100000
00000000
01000000
00000000
,
10000000
10000000
10000000
10000000
,
00010000
00010000
00010000
00010000
,
00100000
00100000
00001000
00001000
,
00010000
00001000
00022000
00033000
,
00010000
00000100
00000010
00000001
,
00000100
00000010
00010000
00001000
,
00000100
00001000
00010000
01000000
,
00100000
00010000
01000000
01100000
,
00100000
00100000
00010000
00010000
,
00001000
00001000
00000100
00000100
,
00000020
00000000
00001030
00000001
,
00000110
00001001
00000220
00000330
,
00000001
00000000
00000000
00000100
00000000
00000000
00001000
00000000
,
00000000
00010000
00000000
00000000
00001000
00000000
00001000
00000000
,
01000000
00000000
00000000
00010000
00000000
00000000
00100000
00000000
,
00000000
01000000
00000000
00000000
10000000
00000000
00000000
20020000
,
00000000
30030000
00000000
00000000
,
00000000
00000000
00000000
00000000
;
#NOTES:
     dance-double:
     :
     Medium:
     11:
     :
00000000
00000000
00000000
00000000
,
00000000
00000000
00000000
00000000
,
00000000
00000000
00000000
00000000
,
00000000
00000000
00000000
00000000
,
00000000
00000000
00000000
00000000
,
00000000
00000000
00000000
00000000
00000000
00000000
00000000
00001000
,
00000000
00010000
00001000
00010000
00001000
00010000
00010000
00000000
,
00001000
00000000
00000000
00100000
00000000
00000000
00010000
00000000
01000000
00000000
00000000
00100000
00000000
00000000
10000000
00000000
,
00010000
00000000
00000000
10000000
00000000
00000000
01000000
00000000
00200000
00000000
00000000
00000000
00302000
00000000
00000000
00000000
,
00023000
00000000
00030000
00001000
00020000
00000000
00030000
00000100
,
00000010
00000000
00000000
00000001
00000000
00000000
00000100
00000000
00000010
00000000
00000000
00000000
00001010
00000000
00000000
00000000
,
00000002
00000000
00000003
00000010
00000001
00001000
00000010
00000100
,
00000001
00000000
00000000
00000100
00000000
00000000
00001000
00000000
00010000
00000000
00000000
00001000
00000000
00000000
00100000
00000000
,
00010000
00000000
00000000
01000000
00000000
00000000
00200000
00000000
00000000
00000000
00000000
00000000
00300000
00000000
10000000
00000000
,
00010000
00000000
00100000
00001000
00010000
00000000
00011000
00000000
,
00001000
00000000
00000000
00000100
00000000
00000000
00000001
00000000
00000000
00000100
00000000
00000000
00001000
00000000
00000000
00010000
,
00000000
00000000
01000000
00000000
00000000
10000000
00000000
00000000
01000000
00000000
00000000
00000000
01100000
00000000
00000000
00000000
,
10010000
00000000
00000000
10000000
01000000
00100000
00010000
00200000
,
00000000
00000000
00000000
00000000
00300000
00000000
00001000
00000000
00010000
00000000
00000000
00000100
00000000
00000000
00001000
00000000
,
00000010
00000000
00000100
00000002
00000000
00000000
00000000
00000000
,
00000000
00000000
00000003
00000000
00000010
00000000
00000000
00000000
00000100
00000000
00000000
00010000
00000000
00000000
00012000
00000000
,
00000000
00000000
00000000
00000000
00003000
01000000
00010000
00200000
,
00000000
00000000
00300000
01000000
10000000
01000000
00100000
00010000
,
02000000
00000000
00000000
00000000
,
03000000
00100000
10000000
00100000
00010000
00001000
00010000
00000100
,
00000000
00000000
00000000
00000000
00001100
00000000
00000000
00000000
00001000
00000000
00000100
00000000
00000010
00000000
00000000
00000001
,
00000000
00000000
00000100
00000000
00000010
00000000
00001000
00000000
00000001
00000000
00000000
00000010
00000000
00000000
00000100
00000000
,
00000000
00000000
00001000
00000010
00000100
00001000
00010000
00001000
,
00010000
00000000
00100000
00000000
01000000
00000000
00010000
00000000
10000000
00000000
00000000
01000000
00000000
00000000
00010000
00000000
,
00000000
00001000
00010000
00000100
00000000
00000010
00000001
00000100
,
00000000
00000000
00000010
00000000
00000000
00000000
00001000
00000000
00000001
00000000
00000000
00000010
00000000
00000000
00001000
00000000
,
00000000
00000000
00100000
00001000
00010000
00001000
00100000
00010000
,
01000000
00200000
20300000
30010000
,
10000000
00000000
00000000
01000000
00000000
00000000
00010000
00000000
00000000
00001000
00000000
00000000
00000100
00000000
00000000
00000001
,
00000000
00000000
00000000
00000000
,
00000001
00000000
00000000
00000010
00000000
00000000
00001000
00000000
00000000
00010000
00000000
00000000
00100000
00000000
00000000
10000000
,
00000000
00000000
00000000
00000000
,
00010000
00000000
00000000
01010000
00000000
00000000
00001000
00000000
00000000
00011000
00000000
00000000
00000010
00000000
00000000
00001010
,
00000000
00000000
00000000
00000000
00000000
00000000
00000001
00000000
00000010
00000000
00000100
00000000
00001000
00000100
00000000
00010000
,
00000000
00000000
00000000
00000000
00001000
00000000
00100000
00000000
00010000
00000000
00100000
00000000
00001000
00000000
00000000
00011000
,
00000000
00000000
00010000
01000000
00100000
00010000
10010000
00000000
,
10000000
00100000
00010000
00001000
00010000
00000000
00000100
00000010
,
00000001
00000000
00000100
00000000
00001000
00010000
00100000
00000000
,
00010000
00001000
00100000
01000000
10000000
00000000
10000000
01000000
,
00010000
00000000
00001000
00010000
00001000
00100000
00010000
01000000
,
00200000
00000000
00000000
00000000
00300000
00000000
10000000
00000000
01000000
00000000
00100000
00000000
00010000
00000000
00100000
00001000
,
00000000
00000000
00010000
00000000
00001000
00000000
00010000
00000100
00000000
00000000
00001000
00000000
00000100
00000000
00001000
00000000
,
00000001
00000000
00000000
00000000
00000010
00000000
00000100
00000000
00001000
00000000
00000010
00000000
00010000
00000000
00001000
00010000
,
00000000
00000000
00000000
00001000
00000000
00000000
00010000
00000000
00001000
00000000
00000000
00000000
00011000
00000000
00000000
00000000
,
00010000
00001000
01000000
00100000
10000000
00000000
10000000
01000000
,
00010000
00000000
00001000
00000000
00000010
00001000
00010000
00000000
,
00000100
00001000
00000010
00000100
00000001
00000000
00000001
00000100
,
00001000
00000000
00010000
00001000
00010000
00000010
00001000
00000100
,
00000020
00000000
00000030
00000001
00001000
00001000
00000010
00000010
,
00010000
00001000
00010000
00001000
00100000
01000000
10000000
00010000
,
01000000
00000000
01000000
00100000
00010000
00000000
00011000
00000000
,
00001000
00000000
00000000
00010000
00000000
00000000
00000100
00000000
00000020
00000000
00000000
00000000
00000030
00000000
00000000
00000000
,
00000001
00000000
00000000
00000000
00000010
00000000
00000000
00000000
00000100
00000000
00000000
00000000
00001000
00000000
00000000
00001000
,
00000000
00001000
00000000
00000000
00000010
00000100
00000001
00000000
,
00000100
00000000
00001000
00000000
,
00010000
00000000
00100000
00000000
,
02000000
03020000
00230000
02300000
,
13000000
00000000
00000000
01000000
00000000
00000000
00100000
00000000
00001000
00000000
00000000
00000000
00010000
00000000
00000000
00000000
,
00000100
00001000
00001000
00000000
00000100
00001000
00001000
00000000
,
00000010
00000000
00000000
00010000
00000000
00000000
00001000
00000000
00020000
00000000
00000000
00000000
00030000
00000000
00000000
00000000
,
00001000
00100000
00010000
00000000
10000000
00100000
01000000
00000000
,
00001000
00010000
00001000
00010000
00000100
00000010
00000001
00000000
,
00001000
00000001
00000100
00000000
00000001
00000010
00000100
00000000
,
00010000
00001000
00010000
00001000
01000000
00100000
10000000
00000000
,
01000000
00100000
01000000
00100000
00001000
00010000
00001000
00010000
,
00000010
00000000
00000100
00000000
00000010
00000000
00000100
00000000
00000001
00000000
00000000
00000010
00000000
00000000
00000100
00000000
,
00002000
00000000
00003000
00000010
00010000
00001000
00001000
00100000
,
00010000
00000000
00000000
01000000
00000000
00000000
00100000
00000000
20200000
00000000
00000000
00000000
30300000
00000000
00000000
00000000
,
10000000
00000000
00000000
10000000
00000000
00000000
01000000
00000000
00000000
00010000
00000000
00000000
00001000
00000000
00000000
00000100
,
00000000
00000000
00000001
00000000
00000000
00000100
00000000
00000000
00001000
00000000
00000000
00000000
00011000
00000000
00000000
00000000
,
00010000
00000000
00000000
00100000
00000000
00000000
10000000
00000000
00000000
00100000
00000000
00000000
00010000
00000000
00000000
00001000
,
00000000
00000000
00000010
00000000
00000000
00000001
00000000
00000000
00000010
00000000
00000000
00001000
00000000
00000000
00022000
00000000
,
00000000
00033000
00000000
00000000
,
00000000
00000000
00000000
00000000
;
#NOTES:
     dance-double:
     :
     Hard:
     15:
     :
00000000
00000000
00000000
00000000
,
00000000
00000000
00000000
00000000
,
00000000
00000000
00000000
00000000
,
00000000
00000000
00000000
00000000
,
00000000
00000000
00000000
00000000
00000000
00000000
00000000
00000000
00001000
00000000
00000000
00010000
00000000
00000000
00000200
00000000
,
00000000
00000000
00000000
00000000
00000000
00000000
00000000
00000010
,
00000000
00001300
00000001
00000100
00001000
00010000
00011000
00000000
,
00001000
00000000
00010000
00100000
00000000
01000000
00100000
00000000
10000000
00000000
00010000
10000000
00000000
01000000
00010000
00000000
,
00001000
00000000
00000010
00000001
00000000
00000100
00000010
00000000
00001000
00000000
00000001
00000100
00000000
00001000
00010000
00000000
,
00100000
00000000
01000000
00010000
00000000
10000000
00100000
00000000
01000000
00000000
00010000
10000000
00000000
01000000
00010000
00000000
,
00001000
00000000
00000010
00000001
00000000
00001000
00000010
00000000
00000100
00000000
00000001
00000000
00000010
00000100
00001000
00000000
,
00000020
00000000
00000000
00000000
00001030
00000000
00000001
00000100
00001000
00000000
00000100
00001000
00010000
00000000
00001000
00010000
,
00100000
00000000
00000000
00010000
00000000
00000000
00001000
00100000
00010000
00000000
10000000
00100000
00000000
00100000
01000000
00000000
,
00010000
00000000
10000000
01000000
00000000
00100000
00010000
00000000
01000000
00000000
00100000
00000000
00010000
00000000
00001000
00000000
,
00001010
00000000
00000000
00000000
00000011
00000000
00000010
00000100
00001000
00000000
00000010
00000000
00000110
00000000
00000000
00000000
,
00000101
00000000
00000000
00010100
00000000
00000000
00000101
00000000
00000000
00010100
00000000
00000000
00000101
00000000
00000000
00010100
,
00000000
00000000
01010000
00000000
00000000
00010100
00000000
00000000
01010000
00000000
00000000
00000000
10010000
00000000
00000000
00000000
,
10000000
00100000
10000000
00100000
01000000
00010000
00100000
01000000
,
00100000
01000000
00100000
01000000
00010000
00001000
00000100
00000010
,
00000100
00000000
00000010
00000000
00000100
00000001
00001000
00000000
00000010
00000000
00001000
00000000
00000010
00000000
00001000
00000000
,
00000010
00000000
00001000
00000000
00000020
00000000
00000000
00000000
00010030
00000000
00000000
00011000
00000000
00000000
02001000
00000000
,
00000000
13000000
01000000
00100000
01000000
00100000
00010000
00001000
,
00010000
00000000
00001000
00000000
00010000
00000000
00000100
00000000
00000010
00000000
00000001
00000000
00001000
00000010
00001000
00000010
,
00000100
00000001
00000100
00000001
00000100
00000001
00000100
00000001
,
00000100
00000000
00000001
00000000
00000010
00000000
00001000
00000000
00010000
00000000
01000000
00100000
00010000
00000000
02000000
00000000
,
00000000
00000000
00000000
00000000
03001000
00000000
00010000
00000000
00001000
00000000
00100000
00000000
00010000
00100000
00000000
01000000
,
00000000
00000000
10000000
00000000
00010000
00100000
00010000
00100000
01000000
00000000
00000000
11000000
00000000
00000000
00202000
00000000
,
00000000
00000000
00303000
00000000
00001000
00000000
00010000
00001000
00010000
00000000
00001000
00000000
00000100
00000000
00000010
00000000
,
00001000
00000000
00000100
00000000
00000010
00000000
00001000
00000000
00011000
00000000
00000000
00010100
00000000
00000000
00000011
00000000
,
00000000
00000000
00000010
00000000
00000100
00000000
00002000
00000000
00000000
00000000
00003100
00001000
00000100
00001000
00000200
00000000
,
00000000
00000000
00020300
00000000
00000000
00000000
00031000
00000000
01001000
00000000
00000000
10100000
00000000
00000000
20020000
00000000
,
00000000
00000000
30030000
00000000
00010000
00000000
00100000
01000000
10000000
00000000
00100000
00000000
00010000
00000000
00001000
00000000
,
00010000
00000000
00000000
00010000
00001000
00000000
00000100
00000000
00000001
00000010
00000100
00000000
00001000
00000000
00000000
00000000
,
00000101
00000000
00000000
00010100
00000000
00000000
00000101
00000000
00000000
00010100
00000000
00000000
01010000
00000000
00000000
10010000
,
00000000
00000000
00000000
00000000
,
10100000
00000000
00000000
00101000
00000000
00000000
10100000
00000000
00000000
00101000
00000000
00000000
00001010
00000000
00000000
00101000
,
00000000
00000000
00000000
00000000
,
00010000
00001000
00000000
01000000
00100000
00000000
10000000
01000000
00000000
00010000
00001000
00000000
00000010
00000001
00000000
00000100
,
00000010
00000000
00000000
00000000
00000000
00000000
00000010
00000000
00000100
00000000
00001000
00000000
00010000
00001000
00000000
00100000
,
00000000
00000000
00001000
00000000
01000000
00000000
00100000
10000000
00010000
00000000
10000000
00000000
01000000
00010000
00000000
00001000
,
00000000
00010000
00001000
00001000
00010000
00010000
00011000
00000000
,
00001000
00000000
00000010
00000001
00000000
00000001
00000100
00000000
00001000
00000000
00010000
01000000
00000000
01000000
10000000
00000000
,
00100000
00000000
00010000
00001000
00000000
00001000
00010000
00000000
01000000
00000000
00100000
00001000
00000000
00001000
00000010
00000000
,
00000001
00000000
00000100
00001000
00000000
00001000
00010000
00000000
00001000
00000000
00100000
01000000
00000000
01000000
10000000
00000000
,
00100000
00000000
01000000
00000000
20000000
00000000
32000000
00000000
03200000
00000000
00320000
00000000
00031000
00010000
00001000
00010000
,
00001000
00000000
00000010
00000000
00001000
00000000
00010000
00000000
01000000
00000000
10000000
00000000
00100000
00000000
01000000
00010000
,
00000000
00100000
00001000
00000000
00010000
00000000
00001000
00000100
00000000
00000100
00000001
00000000
00000100
00000000
00000010
00000000
,
00000100
00000000
00000001
00000000
00001000
00000000
00000010
00010000
00001000
00000000
01000000
00000000
00100000
00000000
10000000
00010000
,
00000000
00000000
10000000
01000000
00100000
00000000
00010000
00000000
01000000
00000000
00010000
00000000
10010000
00000000
00000000
00000000
,
10000000
00000000
00100000
00000000
00010000
00000000
00001000
00000010
00000000
00000010
00000001
00000000
00000010
00000000
00000100
00000000
,
00010000
00000000
00001000
00000000
00000100
00000010
00001000
00000000
00000001
00000000
00000100
00001000
00000000
00010000
00100000
00000000
,
10000000
00000000
01000000
00000000
00100000
00000000
00001000
00010000
00000000
00010000
00000100
00000000
00000010
00000000
00000001
00000000
,
00000100
00000010
00000002
00000023
00000230
00002300
00013000
00001000
,
00100000
00000000
00010000
00000000
01000000
00000000
00100000
00000000
10000000
01000000
10000000
00000000
01000000
00010000
01000000
00000000
,
00010000
00001000
00010000
00000000
00001000
00000010
00001000
00000000
00000010
00000001
00000010
00000000
00000100
00000000
00001000
00000000
,
00000001
00000000
00000100
00000000
00001000
00000000
00010000
00000000
00100000
00000000
10000000
01000000
00100000
00000000
00010000
00000000
,
10010000
00000000
00000000
10100000
00000000
00000000
01010000
00000000
20020000
00000000
00000000
00000000
30030000
00000000
00000000
00000000
,
20000000
00000000
00000000
00000000
32000000
00000000
00000000
00000000
03200000
00000000
00000000
00000000
00310000
00000000
00000000
01000000
,
00000000
00001000
00001000
00010000
00010000
00000100
00000020
00000000
,
00000130
00000000
00000000
00000000
00001000
00000000
00000000
00000000
00000001
00000000
00000000
00000000
00000100
00000000
00000000
00000010
,
00000000
00000000
00000000
00001000
00000001
00000000
00000100
00000000
,
00000002
00000023
00000230
00002300
,
00003010
00000000
00000000
00010000
00000000
00000000
00001000
00000000
00020000
00000000
00000000
00000000
00032000
00000000
00000000
00000000
,
01003000
00000000
00010000
00100000
00000000
00000000
00000000
00000000
00001000
00000000
00100000
00010000
00000000
00000000
01000000
00000000
,
00010000
00000000
00000000
00100000
00000000
00000000
01000000
00000000
10000000
00000000
00100000
00000000
01000000
00010000
10000000
01000000
,
00100000
00000000
00001000
00000000
00010000
00000100
00001000
00000000
00000001
00000000
00001000
00000010
00000000
00000100
00000001
00000000
,
00000100
00000000
00001000
00000000
00010000
00001000
01000000
00000000
00001000
00000000
00010000
00100000
00000000
10000000
00100000
00000000
,
01000000
00000000
00010000
00000000
00100000
00010000
10000000
00000000
01000000
00000000
00010000
00001000
00000000
00000010
00000001
00000000
,
00001000
00000000
00000001
00000000
00000100
00000000
00000010
00000000
00010000
00000000
00001000
00010000
00001000
00000000
00100000
00000000
,
00010000
00000000
10000000
01000000
00010000
00000000
01000000
00010000
00001000
00000000
00010000
00001000
00000010
00000000
00001000
00000010
,
00000001
00000000
00000010
00000100
00001000
00000000
00000100
00000000
00001100
00000000
00000000
00001010
00000000
00000000
00010010
00000000
,
00010000
00000000
00001000
00000000
00000100
00000000
00000010
00000001
00000010
00000000
00000100
00000000
00001000
00000000
00010000
00000000
,
01000000
00000000
00000000
11000000
00000000
00000000
00110000
00000000
20020000
00000000
00000000
00000000
30030000
00000000
00000000
00000000
,
10100000
00000000
00000000
00101000
00000000
00000000
10100000
00000000
00000000
00101000
00000000
00000000
10100000
00000000
00000000
00101000
,
00000000
00000000
00001010
00000000
00000000
00101000
00000000
00000000
00001010
00000000
00000000
00000000
00001001
00000000
00000000
00000000
,
00000101
00000000
00000000
00010100
00000000
00000000
00000101
00000000
00000000
00010100
00000000
00000000
00000101
00000000
00000000
00010100
,
00000000
00000000
01010000
00000000
00000000
00010100
00000000
00000000
01010000
00000000
00000000
11000000
00000000
00000000
20020000
00000000
,
00000000
30030000
00000000
00000000
,
00000000
00000000
00000000
00000000
;
#NOTES:
     dance-double:
     :
     Challenge:
     18:
     :
00000000
00000000
00000000
00000000
,
00000000
00000000
00000000
00000000
,
00000000
00000000
00000000
00000000
,
00000000
00000000
00000000
00000000
,
00000000
00000000
00000000
00000000
00000000
00000000
00000000
00000000
00011000
00000000
00000000
00101000
00000000
00000000
00220000
00000000
,
00000000
00000000
00000000
00000000
00000000
00000000
00030000
00002000
,
00300000
00010000
00010000
00010000
00010000
00013000
00011000
00000000
,
00001000
00000000
01000000
00010000
00100000
01000000
10000000
00000000
00010000
00000000
10000000
00100000
01000000
00010000
00100000
00000000
,
00001000
00000000
00000000
00000000
00000000
00000000
01000000
00000000
00000000
00010000
00000000
00000000
00100000
00000000
00000000
00001000
00000000
00000000
00010000
00000000
00001000
00000000
00010000
00000000
00001000
00000000
00000000
00000000
00000000
00000000
00010000
00000000
00000000
00000100
00000000
00000000
00001000
00000000
00000000
00000010
00000000
00000000
00010000
00000000
00000000
00000000
00000000
00000000
,
00000100
00000000
00000000
00000000
00000000
00000000
00001000
00000000
00000000
00000010
00000000
00000000
00000100
00000000
00000000
00000001
00000000
00000000
00001000
00000000
00000100
00000000
00001000
00000000
00000100
00000000
00000000
00000000
00000000
00000000
00001000
00000000
00000000
00000001
00000000
00000000
00000010
00000000
00000000
00000100
00000000
00000000
00000010
00000000
00000001
00000000
00000010
00000000
,
00000001
00000000
00000010
00000100
00001000
00000010
00010000
00000100
00001000
00000000
00000100
00000000
00010000
00001000
00100000
00001000
,
00020000
00000000
00001000
00000000
00031000
00000000
00001000
00100000
00010000
00100000
00001000
01000000
00010000
00100000
00010000
10000000
,
00100000
00000000
00000000
00000000
00000000
00000000
00000000
00000000
00000000
01000000
00000000
00000000
00000000
00000000
00000000
00010000
00000000
00000000
01000000
00000000
00010000
00000000
01000000
00000000
00010000
00000000
00000000
00000000
00000000
00000000
10000000
00000000
00000000
01000000
00000000
00000000
00000000
00000000
00000000
00100000
00000000
00000000
00001000
00000000
00000000
00000000
00000000
00000000
,
00010000
00000000
00000000
00001000
00000000
00000000
01000000
00000000
00000000
00010000
00000000
00000000
00100000
00000000
00000000
00001000
00000000
00000000
00010000
00000000
00000000
00000100
00000000
00000000
00001000
00000000
00000100
00000000
00001000
00000000
00000100
00000000
00000000
00010000
00000000
00000000
00001000
00000000
00010000
00000000
00001000
00000000
00010000
00000000
00000000
00001000
00000000
00000000
,
00100000
00000000
00010000
00100000
01000000
00000000
10000000
00000000
00010000
01000000
00100000
01000000
00010000
00000000
00110000
00000000
,
10000000
01000000
10000000
00010000
00100000
00010000
01000000
00100000
01000000
00001000
00010000
00001000
00100000
00010000
00100000
00001000
,
00010000
00001000
01000000
00100000
01000000
00010000
00100000
00010000
10000000
00000000
10000000
01000000
00010000
00000000
00000000
00000000
,
00011000
00001000
00100000
00001000
00010000
00001000
00000100
00000010
,
00001000
00000000
00000010
00000000
00001000
00000000
00000100
00000000
00000010
00000000
00000001
00000100
00000000
00001000
00010000
00000000
,
00001000
00000000
00010000
00000000
00100000
01000000
00010000
00000000
10000000
00000000
00100000
00000000
00010000
00000000
00100000
00000000
,
10000000
00000000
00100000
00000000
00010000
00000000
00001000
00000000
00010000
00000000
00000000
00000100
00000000
00000000
00000011
00000000
,
00000000
00000010
00000100
00001000
00000010
00010000
00000100
00001000
,
00000010
00000000
00010000
00000000
00001000
00000000
01000000
00000000
00010000
00000000
00100000
00010000
00100000
00010000
10000000
00100000
,
01000000
00010000
00100000
00001000
00010000
00001000
00000010
00000100
,
00010000
00000000
00001000
00000000
00010000
00000000
01000000
00000000
10000000
01000000
00100000
00010000
10000000
00100000
02000000
00000000
,
00000000
00000000
03000000
00000000
01001000
00000000
00001000
00000000
00010000
00000000
01000000
00000000
00100000
00001000
00000000
00010000
,
00000000
00000000
00001000
00000000
00010000
00000100
00001000
00000010
00010000
00000000
00000000
00001100
00000000
00000000
00020020
00000000
,
00000000
00000000
00030030
00000000
00000000
00000000
00000010
00001000
00000001
00000000
00000010
00000000
00000100
00000000
00000010
00000000
,
00000001
00000000
00000100
00000000
00001000
00000000
00010000
00000000
00011000
00000000
00000000
01001000
00000000
00000000
00110000
00000000
,
00000000
00000000
00100000
00000000
00001000
00000000
00020000
00000000
00000000
00000000
01030000
00100000
00010000
10000000
00200000
00000000
,
00000000
00000000
02300000
00000000
00000000
00000000
03001000
00000000
00011000
00000000
00000000
00010100
00000000
00000000
00000110
00000000
,
00000000
00000000
00000100
00000000
00001000
00000000
00000010
00000100
00000001
00000000
00001000
00000100
00000010
00000001
00001000
00000001
,
00000100
00000000
00000000
00000010
00001000
00000100
00010000
00001000
00100000
00010000
01000000
00100000
10000000
00000000
00000000
00000000
,
11000000
00000000
00000000
01010000
00000000
00000000
00011000
00000000
00000000
00001010
00000000
00000000
00000011
00000000
00001000
00001001
,
00000000
00000000
00000000
00000000
,
00000001
00000100
00000000
00001000
00010000
00000000
00100000
10000000
00000000
10000000
01000000
00000000
00100000
00010000
10000000
10010000
,
00000000
00000000
10000000
01000000
00100000
00010000
00100000
00001000
00020000
00000000
00000000
00000000
01030000
00000000
10000000
00000000
,
00100000
01000000
00100000
10000000
01000000
10000000
00010000
00100000
00010000
01000000
00100000
01000000
00001000
00010000
00001000
00100000
,
00000000
00000000
00001000
00000000
00010000
00000000
00001000
00000000
00000010
00000000
00000100
00000000
00001000
00000010
00000000
00000100
,
00000000
00000000
00000000
00000000
00000000
00000000
00000110
00000000
00000000
00000000
00000000
00000000
00000010
00000000
00000000
00000000
00000000
00000000
00000100
00000000
00000001
00000000
00000100
00000000
00000001
00000000
00000000
00000000
00000000
00000000
00001000
00000000
00000100
00000000
00001000
00000000
00000100
00000000
00000000
00010000
00000000
00000000
00000000
00000000
00000000
00011000
00000000
00000000
,
00000000
00001000
00001000
00001000
00010000
00010000
00011000
00000000
,
00001000
00010000
00001000
01000000
00010000
00100000
00001000
01000000
00010000
00100000
01000000
10000000
00010000
01000000
00100000
01000000
,
00010000
10000000
01000000
10000000
00100000
01000000
00010000
00100000
00010000
01000000
00001000
00100000
00010000
00100000
00001000
00010000
,
00000100
00010000
00001000
00010000
00000010
00001000
00000100
00010000
00000100
00001000
00000010
00000100
00000001
00000010
00000100
00001000
,
00000001
00000100
00000010
00000100
00000001
00000010
00000001
00000010
00000100
00001000
00000010
00000100
00000010
00001000
00000001
00000010
,
00000100
00001000
00000010
00010000
00000100
00001000
00000010
00010000
00001000
00010000
00000100
00001000
00000100
00010000
00001000
00100000
,
00010000
00100000
00001000
01000000
00010000
00100000
00001000
01000000
00010000
00100000
01000000
10000000
00100000
01000000
00010000
10000000
,
01000000
00100000
01000000
10000000
00010000
01000000
00100000
01000000
00010000
00100000
00001000
00010000
00000100
00001000
00000010
00000100
,
00000000
00000000
00000000
00000000
00000000
00000000
00000001
00000000
00000100
00000000
00000001
00000000
00000100
00000000
00000000
00000010
00000000
00000000
00001000
00000000
00000000
00000010
00000000
00000000
00010000
00000000
00000000
00001000
00000000
00000000
01000000
00000000
00000000
00100000
00000000
00000000
10000000
00000000
00000000
00000000
00000000
00000000
00010000
00000000
00000000
00000000
00000000
00000000
,
10000000
01000000
00100000
00010000
01000000
00001000
00100000
00010000
01000000
00001000
00010000
00001000
00000100
00000010
00001000
00000100
,
00010000
00000010
00001000
00000001
00000010
00000100
00001000
00000001
00000100
00000010
00001000
00000100
00001000
00000001
00000100
00000010
,
00001000
00000001
00000010
00000100
00001000
00000010
00010000
00000100
00001000
00000010
00010000
00001000
00010000
00100000
01000000
00010000
,
00100000
00001000
01000000
00010000
10000000
01000000
00100000
00010000
10000000
00100000
01000000
00010000
00100000
00010000
10000000
00100000
,
01000000
00010000
00100000
00001000
00010000
00000100
00001000
00000010
00000100
00000001
00000010
00000001
00000100
00000010
00001000
00000100
,
00010000
00000000
00000000
00001000
00000000
00000000
00100000
00000000
00000000
00010000
00000000
00000000
01000000
00000000
00000000
00100000
00000000
00000000
10000000
00000000
00000000
01000000
00000000
00000000
10000000
00000000
00000000
00100000
00000000
00000000
01000000
00000000
00000000
00010000
00000000
00000000
00100000
00000000
00000000
00001000
00000000
00000000
00010000
00000000
00001000
00000000
00010000
00000000
,
00001000
00000000
00000000
01000000
00000000
00000000
00010000
00000000
00000000
00100000
00000000
00000000
00001000
00000000
00000000
01000000
00000000
00000000
00010000
00000000
00000000
00100000
00000000
00000000
00010000
00000000
00000000
01000000
00000000
00000000
00001000
00000000
00010000
00000000
00001000
00000000
00010000
00000000
00000000
00000100
00000000
00000000
00001000
00000000
00000000
00000100
00000000
00000000
,
00000010
00000000
00000001
00000100
00000000
00001000
00010000
00000000
00100000
10000000
00010000
00100000
01000000
10000000
00100000
01000000
,
00020000
00000000
00000000
00000000
00230000
00000000
00000000
00000000
02300000
00000000
00000000
00000000
23000000
00000000
00000000
30200000
,
00000000
00310000
00010000
00001000
00002000
00023000
00030200
00000000
,
00000310
00000000
00000000
00000000
00000100
00000000
00000000
00000000
00001000
00000000
00000000
00000000
00000010
00000000
00000000
00010000
,
00000000
00000000
00000000
00001000
00010000
00000000
00011000
00000000
,
00002000
00023000
00230000
02300000
,
03020000
00000000
00000000
20030000
00000000
00000000
32000000
00000000
03200000
00000000
00000000
00000000
00302000
00000000
00000000
00000000
,
00013000
00000000
00000010
00000100
00000000
00000000
00001000
00000000
00010000
00000000
01000000
00100000
00000000
00000000
00001000
00000000
,
00001000
00000000
00000000
00010000
00000000
00000000
00001000
00000000
00000000
00010000
00000000
00000000
00001000
00000000
00000000
00010000
00000000
00000000
00001000
00000000
00000000
00010000
00000000
00000000
00001000
00000000
00000000
00010000
00000000
00000000
00001000
00000000
00000000
00010000
00000000
00000000
00001000
00000000
00010000
00000000
00001000
00000000
00010000
00000000
00001000
00000000
00010000
00000000
,
00001000
00010000
00100000
01000000
00010000
00100000
00001000
01000000
00100000
10000000
00010000
00100000
01000000
10000000
01000000
00010000
,
00001000
00100000
00010000
01000000
00001000
00010000
00000010
00001000
00000100
00010000
00001000
00000010
00000100
00001000
00000010
00010000
,
00000100
00001000
00000010
00000100
00000001
00000010
00000100
00001000
00000001
00000010
00001000
00010000
00000100
00001000
00000010
00010000
,
00001000
00100000
00010000
01000000
00001000
00010000
00100000
10000000
00010000
00100000
00010000
10000000
00100000
01000000
00010000
10000000
,
01000000
00010000
01000000
00010000
00001000
00000010
00001000
00000010
00000001
00000100
00000001
00000100
00001000
00010000
00001000
00010000
,
00100000
10000000
00100000
10000000
00010000
00100000
01000000
10000000
01000000
00010000
00001000
00000010
00000001
00001000
00000001
00000100
,
00000010
00001000
00000100
00010000
00001000
00010000
00000010
00001000
00000001
00000100
00001000
00010000
00100000
10000000
00010000
01000000
,
00100000
00000000
00000000
10000000
00010000
10000000
00010000
00000000
00000000
01000000
00000000
00000000
00010000
10000000
00010000
10000000
01000000
00100000
00010000
10000000
00010000
10000000
01000000
00100000
,
00010000
10000000
00000000
01000000
00010000
00000000
00001000
00000010
00000000
00000001
00000100
00000000
00001000
00010000
00000000
01000000
,
00100000
00000000
00001000
00010000
00000000
00000010
00000100
00000000
00001000
00010000
01000000
10000000
00100000
00000000
01000000
00000000
,
10100000
00000000
00000000
10000000
01000000
00000000
01010000
00000000
00000000
00001000
00000010
00000000
00000011
00000000
00000000
00001010
,
00000000
00000000
00011000
00000000
00000000
00110000
00000000
00000000
10100000
00000000
00000000
00110000
00000000
00000000
00022000
00000000
,
00000000
00033000
00000000
00000000
,
00000000
00000000
00000000
00000000
;
