
//----- song ID: mibm -----//
#TITLE:Mighty Beat Monsterz;
#ARTIST:nora2r feat. Liqo & DD"ナカタ"Metal;
#ARTISTTRANSLIT:nora2r feat. Liqo & DD "nakata" Metal;
#BANNER:Mighty Beat Monsterz.png;
#BACKGROUND:Mighty Beat Monsterz-bg.png;
#CDTITLE:./CDTitles/DDR WORLD.png;
#MUSIC:Mighty Beat Monsterz.ogg;
#SAMPLESTART:60.873;
#SAMPLELENGTH:15;
#BPMS:0=205;
#BGSTAGE:17;
#NOTES:
     dance-single:
     :
     Beginner:
     3:
     :
0000
0000
0000
0000
,
0000
0000
0000
0000
,
0000
0000
0000
0000
,
0000
0000
0000
0000
,
0000
0000
0000
0000
,
0000
0000
0000
0000
,
0000
0000
0000
0000
,
0000
0000
0000
0000
,
0010
0000
0000
0000
,
0010
0000
0000
0000
,
0010
0000
0000
0000
,
0010
0000
0000
0000
,
1000
0000
0000
0000
,
1000
0000
0000
0000
,
0001
0000
0000
0000
,
0001
0000
0000
0000
,
1000
0000
0000
0000
,
1000
0000
0000
0000
,
0001
0000
0000
0000
,
0001
0000
0000
0000
,
0100
0000
0000
0000
,
0010
0000
0000
0000
,
0100
0000
0000
0000
,
0010
0000
0000
0000
,
1000
0000
0000
0000
,
0001
0000
0000
0000
,
1000
0000
0000
0000
,
0001
0000
0000
0000
,
1000
0000
0000
0000
,
1000
0000
0000
0000
,
0010
0000
0000
0000
,
0010
0000
0000
0000
,
0100
0000
0000
0000
,
0100
0000
0000
0000
,
0001
0000
0000
0000
,
0001
0000
0000
0000
,
1001
0000
0000
0000
,
0000
0000
0000
0000
,
0110
0000
0000
0000
,
0000
0000
0000
0000
,
1001
0000
0000
0000
,
0000
0000
0000
0000
,
0110
0000
0000
0000
,
0000
0000
0000
0000
,
0002
0000
0000
0000
,
0003
0000
0000
0000
,
2000
0000
0000
0000
,
0000
3000
0000
0000
,
0002
0000
0000
0000
,
0003
0000
0000
0000
,
2000
0000
0000
0000
,
3000
0000
0000
0000
,
0001
0000
0000
0000
,
1000
0000
0000
0000
,
0010
0000
0000
0000
,
1000
0000
0000
0000
,
0001
0000
0000
0000
,
0100
0000
0000
0000
,
0001
0000
0000
0000
,
1000
0000
0000
0000
,
0010
0000
0000
0000
,
0100
0000
0000
0000
,
0001
0000
0000
0000
,
0010
0000
0000
0000
,
0100
0000
0000
0000
,
1000
0000
0000
0000
,
0020
0000
0000
0000
,
0030
0000
0000
0000
,
1000
0000
0000
0000
,
0000
0000
0000
0000
,
1000
0000
0000
0000
,
0000
0000
0000
0000
,
0001
0000
0000
0000
,
0001
0000
0000
0000
,
0001
0000
0000
0000
,
0001
0000
0000
0000
,
1001
0000
0000
0000
,
0000
0000
0000
0000
,
0000
0000
0000
0000
,
0000
0000
0000
0000
,
0110
0000
0000
0000
,
0000
0000
0000
0000
,
0000
0000
0000
0000
,
0000
0000
0000
0000
,
1001
0000
0000
0000
,
0010
0000
0000
0000
,
0100
0000
0000
0000
,
0001
0000
0000
0000
,
1000
0000
0000
0000
,
0100
0000
0000
0000
,
0010
0000
0000
0000
,
0001
0000
0000
0000
,
0200
0000
0000
0000
,
0000
0000
0000
0000
0000
0000
0000
0300
,
0000
0000
0000
0000
;
#NOTES:
     dance-single:
     :
     Easy:
     8:
     :
0000
0000
0000
0000
,
0000
0000
0000
0000
,
0000
0000
0000
0000
,
0000
0000
0000
0000
,
0000
0000
0000
0000
,
0000
0000
0000
0000
,
0000
0000
0000
0000
,
0000
0000
0000
0000
,
0001
0001
0000
1000
,
0010
0100
0000
0100
,
0010
1000
0001
0010
,
0100
1000
0010
0110
,
1001
0000
1000
0000
,
0001
0010
0100
0000
,
1000
0000
0001
0000
,
0100
0001
0010
0000
,
0100
1000
0100
1000
,
0001
0100
0001
0100
,
0010
0010
1000
1000
,
0001
0100
0110
0000
,
0001
1000
0010
0100
,
0001
0010
0001
0100
,
0010
1000
0100
1000
,
0010
0100
0001
0010
,
0001
0001
1000
1000
,
0010
0010
0100
0100
,
0001
0000
0000
1000
0000
0000
0001
0000
,
1001
0000
0000
0110
0000
0000
1001
0000
,
1000
0100
0010
0001
,
1000
0010
0100
0000
,
0001
0010
0001
0010
,
0100
1000
0001
0000
,
0100
0010
0100
0001
,
1000
0010
0010
0100
,
0001
0000
1000
0000
0100
0000
0010
0001
,
0000
0100
0010
0000
0000
0000
0000
0000
,
1000
0100
1100
0000
,
0010
0100
0110
0000
,
0001
0010
0011
0000
,
0100
0010
0110
0000
,
1000
0001
0011
0000
,
0010
0100
1100
0000
,
1000
0010
0110
0000
,
0001
1000
1010
0000
,
0020
0000
0000
0030
,
0100
0100
0001
0001
,
2000
0000
0000
3000
,
0010
0100
0001
1001
,
2000
0000
0000
3000
,
0010
0010
0100
0100
,
0001
0010
0100
1000
,
0001
0000
0100
0010
0000
0000
0000
0000
,
1000
0001
0100
0010
,
1000
0010
0100
0001
,
1000
0100
0010
0001
,
0010
0100
1000
0010
,
0100
0001
0100
0001
,
0010
0100
0010
0100
,
1000
0010
1000
0010
,
0100
0001
0010
0000
,
0001
0001
0010
0100
,
1000
1000
0010
0110
,
0001
0001
0100
0010
,
1000
1000
0100
0110
,
0001
0011
1000
1100
,
0001
0010
0100
1000
,
0020
0000
0000
0030
,
0200
0000
0000
0310
,
0100
0000
0001
0000
,
0001
0010
0100
0000
,
1000
0000
0001
0000
,
1000
0100
0010
0000
,
0001
0001
0100
0100
,
0010
0010
1000
1000
,
0100
0100
1000
1000
,
0010
0010
0100
0100
,
0110
0000
0000
1001
0000
0000
0210
0000
,
0000
0000
0000
0000
,
0000
0300
0000
0000
0000
0000
0000
0000
,
0000
0000
0000
0000
,
1001
0000
0000
0110
0000
0000
1002
0000
,
0000
0000
0000
0000
0000
0003
0000
0000
,
0100
0000
0000
0000
,
0000
0000
0000
0000
,
0010
1000
0001
0010
,
0100
1000
0010
0100
,
0001
1000
0100
1000
,
0010
0100
0001
0010
,
0001
0001
0100
0100
,
0010
0010
1000
1000
,
0100
1000
0010
0100
,
1001
0110
1001
0000
,
2002
0000
0000
0000
,
0000
0000
3003
0000
0000
0010
0010
0010
,
0000
0000
0000
0000
;
#NOTES:
     dance-single:
     :
     Medium:
     12:
     :
0000
0000
0000
0000
,
0000
0000
0000
0000
,
0000
0000
0000
0000
,
0000
0000
0000
0000
,
0000
0000
0000
0000
,
0000
0000
0000
0000
,
0000
0000
0000
0000
,
0000
0000
0000
0000
,
0001
1000
0001
0000
0000
0000
0100
0000
,
0000
0000
0001
0010
0001
0000
0010
0000
,
0100
1000
0001
0000
0100
0001
1000
0000
,
0001
0010
0100
1000
0010
0100
0001
0000
,
1000
0100
0010
0001
,
1000
0010
0100
0000
1001
0000
0000
0000
,
0001
0010
0100
1000
,
0001
0100
0010
0000
1001
0000
0000
0000
,
1000
0001
1000
0000
0010
0000
0100
0000
,
0001
1000
0100
1000
,
0001
1000
0001
1000
0010
0100
0010
0100
,
0001
1000
0100
0010
0001
0000
0000
0000
,
0100
0001
1000
0000
0010
1000
0001
0000
,
1000
0100
1000
0100
0010
0001
1000
0000
,
0001
0010
0100
0000
1000
0001
0100
0000
,
0010
1000
0010
1000
0001
0010
0100
0000
,
1000
1100
1000
1100
,
0001
0101
0001
0101
,
0001
1000
0001
0010
0100
1000
0001
0000
,
0101
0000
0000
0110
0000
0000
1010
0000
,
1000
0100
0010
0000
0001
0000
1000
0000
,
0010
0100
0001
1000
,
0100
1000
0010
0000
1000
0000
0001
0000
,
0010
0001
1000
0010
,
0100
0001
1000
0000
0100
0000
1000
0000
,
0010
0000
0100
0001
0100
0001
0010
0000
,
0100
0000
1000
0000
0001
0000
1000
0010
,
0000
0100
1001
0000
0000
0000
0000
0000
,
0001
0100
0100
0000
0110
0000
0000
0000
,
1000
0010
0010
0000
0110
0000
0000
0000
,
0001
0010
0010
0000
0110
0000
0000
0000
,
1000
0100
0100
0000
0110
0000
0000
0000
,
1000
0100
0010
0000
0011
0000
1000
0000
,
0001
0100
0010
0000
1010
0000
1000
0000
,
0001
0010
0100
0000
0011
0000
1000
0000
,
1000
0010
0100
0000
1010
0000
0001
0000
,
2000
0001
0001
0001
,
0100
0100
0001
0001
,
0010
0010
0010
3010
,
0010
0100
0101
1001
,
0002
1000
1000
1000
,
0010
0010
1000
1000
,
0100
0100
0100
0103
,
0001
1000
0001
1000
0000
0000
0000
0000
,
0001
0100
0010
0000
1000
0010
0100
0000
,
0001
0010
0100
0000
0100
0010
0001
0000
,
1000
0001
0100
0000
0010
1000
0001
0000
,
1000
0100
0010
0000
0010
0100
1000
0000
,
0010
1000
0001
0000
0100
0001
0010
0000
,
0100
1000
0010
0000
1000
0001
0010
0000
,
0100
1000
0100
1000
0001
0000
0100
0000
,
0010
0000
1000
0000
0001
0010
0100
0000
,
1000
1100
0001
0011
,
1100
0010
1100
0010
,
0001
0101
1000
1010
,
0101
0010
0101
0010
,
1000
0000
0001
0000
1000
0000
0010
0100
,
0000
0100
0001
0000
1000
0000
0010
0000
,
0200
0000
0000
0300
,
0001
0000
1000
0000
0001
1000
0001
0000
,
0011
0000
0000
0010
0100
0000
1000
0000
,
0010
1000
1100
0001
,
0101
0000
0000
0100
0010
0000
1000
0000
,
0001
0000
0010
0100
1000
0000
0000
0000
,
0001
0010
0001
0000
0100
0010
0100
0000
,
0001
0010
0001
0000
1000
0100
1000
0000
,
0010
0100
0010
0000
1000
0100
1000
0000
,
0001
0010
0100
1000
0100
0010
0001
0000
,
1010
0000
0000
0110
0000
0000
0102
0000
,
0000
0000
0000
0000
,
0000
0003
0000
0000
0000
0000
0000
0000
,
0000
0000
0000
0000
,
0011
0000
0000
0110
0000
0000
2100
0000
,
0000
0000
0000
0000
0000
3000
0000
0000
,
0001
0000
0000
0000
,
0000
0000
0000
0000
,
0001
1000
0100
0000
0010
0001
1000
0000
,
0001
0100
0001
0100
0010
1000
0001
0000
,
1000
0001
0010
0000
0100
1000
0001
0000
,
1000
0010
1000
0010
0100
0001
1000
0000
,
1000
1100
1000
1010
,
0101
0011
0101
0011
,
1000
0100
0000
0010
0001
0000
1000
0000
,
0010
0100
0001
0100
0010
0000
1000
0001
,
0200
0000
0000
0000
,
0000
0000
0000
0000
0000
0010
0010
0310
,
0000
0000
0000
0000
;
#NOTES:
     dance-single:
     :
     Hard:
     15:
     :
0000
0000
0000
0000
,
0000
0000
0000
0000
,
0000
0000
0000
0000
,
0000
0000
0000
0000
,
0000
0000
0000
0000
,
0000
0000
0000
0000
,
0000
0000
0000
0000
,
0000
0000
0000
0000
,
0001
1000
0010
0000
0000
1000
0001
0000
,
0000
1000
0100
0010
0001
0010
0100
1000
,
0001
0001
0100
0000
0010
0000
1000
0001
,
1000
0010
1000
0000
0001
0100
0001
0000
1000
0100
0010
0000
0001
0000
0000
0000
,
1001
0000
1000
0010
0100
0010
1000
0001
,
0010
0001
0100
0001
0011
0000
0000
0000
,
1000
0010
0100
0010
1000
0001
0010
0100
,
1000
0001
0100
0001
0011
0000
0000
0000
,
1100
0001
0100
0000
0010
1000
0001
0000
,
0010
0100
1000
0010
0110
0000
0100
0000
,
0001
0001
1000
1000
0010
0010
0100
0100
,
0001
0000
0001
0000
1000
0000
0100
0000
0110
0000
0000
0000
0010
0100
1000
0000
,
0001
0000
0100
0000
0001
0100
0001
0000
1000
0000
0100
0000
1000
0100
1000
0000
,
0001
0000
0010
0000
0001
0010
0001
0000
1000
0000
0010
0000
0100
0000
0001
0000
,
0010
0000
0100
0000
0010
0100
0010
0000
0001
0000
1000
0000
0001
1000
0001
0000
,
0100
0000
0010
0000
1000
0001
1000
0000
0100
0000
0010
0000
0001
0000
1000
0000
,
0010
0100
0010
0001
0010
0100
0010
1000
,
0010
0100
0010
0001
0010
0100
0010
1000
,
0001
0001
0010
0001
0001
0100
0001
0001
,
0011
0000
0000
1100
0000
0000
1001
0000
,
0001
0100
0001
0010
0100
1000
0010
1000
,
0001
0000
0100
0010
0100
0000
0001
0000
0010
0000
0000
0000
0100
0000
1000
0000
,
0001
0100
0010
1000
0100
1000
0010
0100
,
0000
0000
0010
0100
0010
0000
1000
0000
0001
0000
0000
0000
0010
0000
0000
0000
,
0001
0000
1000
0100
0000
0010
0100
1000
,
0000
0000
0010
0100
0010
0000
1000
0000
0100
0000
1000
0000
0010
0000
0000
0000
,
0100
0001
1000
0100
0010
0001
1000
0001
,
0000
0100
1001
0000
0001
0010
0100
1000
,
0020
0100
0100
0130
0101
0000
0001
0000
,
0020
0001
0001
0031
1001
0000
1000
0010
,
0200
0010
0010
0310
0101
0000
0001
0010
,
0200
1000
1000
1300
1010
0000
0010
0000
,
0200
0001
0001
0301
0011
0000
0010
0100
,
2000
0001
0001
3001
0101
0000
0100
0000
,
0002
0010
0010
0013
0110
0000
0100
1000
,
0020
0100
0100
0130
1010
0000
0002
0000
,
0203
0010
0010
0010
,
0302
1000
1000
1000
,
0023
0100
0100
0100
,
0032
1000
1003
0011
,
2000
0001
0001
0001
,
3020
0100
0100
0100
,
2030
0001
0001
0001
,
3100
0010
0001
1001
0000
0000
0000
0000
,
1000
0000
0100
0000
1000
0100
1000
0000
0001
0000
0100
0000
0001
0100
0001
0000
,
1000
0000
0010
0000
1000
0010
1000
0000
0001
0000
0010
0000
0100
0000
1000
0000
,
0010
0000
1000
0000
0010
1000
0010
0000
0100
0000
0001
0000
0100
0001
0100
0000
,
0001
0000
0010
0000
0001
0010
0001
0000
1000
0000
0010
0000
0100
0000
0001
0000
,
1000
0010
0110
0100
0001
1000
1100
0100
,
0010
0001
1001
1000
0010
0100
0101
0001
,
1000
0000
0001
0000
0100
0010
0100
0000
0001
0000
1000
0000
0010
0100
0010
0000
,
1000
0001
0010
0100
1000
0001
0100
0000
,
0001
0001
1000
1000
0010
0010
0100
0100
,
0001
0001
0010
0010
0100
0100
1000
1000
,
0010
0010
1000
1000
0100
0100
1000
1000
,
0001
0001
0100
0100
0010
0010
1000
1000
,
0001
0010
0011
0000
1000
0010
1010
0100
,
0000
0001
0011
0000
0010
0100
1000
0001
,
0200
0000
0000
0300
,
0001
0000
0000
0000
1000
0000
0000
0000
0001
0000
0000
0000
1000
0000
0000
0000
0100
0000
0000
0000
0010
0000
0000
0000
0001
0000
0000
0000
0000
0000
1000
0000
0000
0001
0000
0000
1000
0000
0000
0000
0000
0000
0000
0000
0000
0000
0000
0000
,
1001
0000
0000
1000
0001
0000
0100
0100
,
0000
0001
1000
0010
0100
0000
0001
0000
,
0011
0000
0000
0010
0100
0000
1000
1000
,
0000
0000
0001
0000
1000
0000
0001
1000
0001
0000
0010
0000
0100
0000
1000
0000
,
0001
0100
0010
0100
0001
1000
0100
1000
,
0010
0000
0100
0000
0001
0000
1000
0100
0010
0000
0001
0000
1000
0000
0001
0000
,
0100
0010
1000
0001
0010
0001
0100
0010
,
1000
0000
0100
0000
1000
0000
0010
0000
0100
0001
1000
0000
0001
0010
0100
0000
,
0010
0001
0001
0100
0001
0001
2001
0000
,
0000
0000
0000
0000
,
0000
3000
0000
0000
0000
0000
0000
0000
,
0000
0000
0000
0000
,
0010
1000
1000
0100
1000
1000
1002
0000
,
0000
0000
0000
0000
0000
0000
0000
0000
0000
0000
0003
0000
0000
0000
1000
0100
,
0010
0000
0000
0000
,
0000
0000
0000
0000
,
0001
0000
1000
0000
0010
0100
0010
0000
1000
0000
0001
0000
0010
0100
0010
0000
,
0001
1000
0010
0100
0001
0010
0001
1000
,
0010
0000
0100
0000
0001
1000
0100
0000
1000
0000
0010
0000
0100
0001
1000
0000
,
0100
0010
0100
1000
0010
0100
0001
0010
,
0001
0001
0100
0100
0010
0010
1000
1000
,
0100
0100
0010
0010
0001
0001
1000
1000
,
0010
1000
1000
0100
1000
1000
0010
0100
,
0001
1000
0100
0000
0010
0001
1000
0000
0010
0000
0000
0000
0100
0010
0100
0010
,
0200
0000
0000
0000
,
0000
0000
0000
0000
0000
0010
0010
0310
,
0000
0000
0000
0000
;
#NOTES:
     dance-double:
     :
     Easy:
     8:
     :
00000000
00000000
00000000
00000000
,
00000000
00000000
00000000
00000000
,
00000000
00000000
00000000
00000000
,
00000000
00000000
00000000
00000000
,
00000000
00000000
00000000
00000000
,
00000000
00000000
00000000
00000000
,
00000000
00000000
00000000
00000000
,
00000000
00000000
00000000
00000000
,
00001000
00010000
00000000
00001000
,
00100000
00010000
00000000
01000000
,
00100000
10000000
01000000
00100000
,
00010000
10000000
00100000
01100000
,
10010000
00000000
10000000
00000000
,
01000000
00100000
00001000
00000000
,
00010000
00000000
00000100
00000000
,
00001000
00000010
00000100
00000000
,
00000001
00001000
00000000
00000100
,
00000000
00010000
00000000
00001000
,
00010000
00010000
00001000
00001000
,
01000000
00010000
00110000
00000000
,
00100000
01000000
10000000
00100000
,
01000000
00001000
00010000
00000100
,
00000010
00000001
00001000
00000010
,
00010000
00001000
01000000
00010000
,
10000000
10000000
01000000
01000000
,
00100000
00100000
00001000
00001000
,
00010000
00000000
00000000
00001000
00000000
00000000
00010000
00000000
,
00011000
00000000
00000000
00011000
00000000
00000000
00011000
00000000
,
00010000
00000100
00001000
00000100
,
00001000
00000001
00000100
00000000
,
00000001
00000010
00000001
00000010
,
00000100
00001000
00000010
00000000
,
00010000
00001000
00010000
00001000
,
00100000
00010000
01000000
00100000
,
10000000
00000000
01000000
00000000
00100000
00000000
00010000
00100000
,
00000000
00001000
00010000
00000000
00000000
00000000
00000000
00000000
,
00010000
00001000
00011000
00000000
,
00000100
00000010
00000110
00000000
,
00000001
00000010
00000011
00000000
,
00001000
00000100
00001100
00000000
,
00010000
00001000
00011000
00000000
,
00100000
01000000
01100000
00000000
,
10000000
01000000
11000000
00000000
,
00010000
00100000
00110000
00000000
,
00002000
00000000
00000000
00003000
,
00010000
00010000
00000100
00000100
,
00001000
00000000
00000010
00000000
,
00010000
00001000
00011000
00000000
,
00002000
00000000
00000000
00003000
,
01000000
01000000
00010000
00010000
,
00100000
00100000
00010000
10000000
,
00010000
00000000
01000000
00100000
00000000
00000000
00000000
00000000
,
10000000
01000000
00100000
00010000
,
01000000
00001000
00010000
00000000
,
00001000
00000010
00000001
00000100
,
00000010
00010000
00001000
00000000
,
00010000
00100000
00010000
00100000
,
10000000
01000000
10000000
01000000
,
00010000
00001000
00010000
00001000
,
00000010
00000001
00001000
00000000
,
00000001
00000100
00000010
00010000
,
00001000
00100000
01000000
10000000
,
00010000
10000000
00100000
01000000
,
00001000
00010000
00000100
00000010
,
00000001
00000011
00001000
00001100
,
00010000
00001000
00010000
00001000
,
00020000
00000000
00000000
00030000
,
00002000
00000000
00000000
00003100
,
00000010
00000000
00001000
00000000
,
00000001
00000010
00000100
00000000
,
00010000
00000000
00001000
00000000
,
01000000
00010000
10000000
00000000
,
10000000
10000000
01000000
01000000
,
00100000
00100000
00001000
00001000
,
00010000
00010000
00000100
00000100
,
00001000
00001000
00000010
00010000
,
00011000
00000000
00000000
00011000
00000000
00000000
00021000
00000000
,
00000000
00000000
00000000
00000000
,
00000000
00030000
00000000
00000000
00000000
00000000
00000000
00000000
,
00000000
00000000
00000000
00000000
,
00011000
00000000
00000000
00011000
00000000
00000000
00012000
00000000
,
00000000
00000000
00000000
00000000
00000000
00003000
00000000
00000000
,
00010000
00000000
00000000
00000000
,
00000000
00000000
00000000
00000000
,
00001000
00010000
00001000
00010000
,
00100000
10000000
00100000
10000000
,
01000000
00010000
01000000
00010000
,
00001000
00000010
00001000
00000010
,
00000001
00000001
00000100
00000100
,
00001000
00001000
00010000
00001000
,
01000000
00010000
00100000
00001000
,
00010000
00000100
00001000
00000010
,
00012000
00000000
00000000
00000000
,
00000000
00000000
00003000
00000000
00000000
00010000
00010000
00010000
,
00000000
00000000
00000000
00000000
;
#NOTES:
     dance-double:
     :
     Medium:
     12:
     :
00000000
00000000
00000000
00000000
,
00000000
00000000
00000000
00000000
,
00000000
00000000
00000000
00000000
,
00000000
00000000
00000000
00000000
,
00000000
00000000
00000000
00000000
,
00000000
00000000
00000000
00000000
,
00000000
00000000
00000000
00000000
,
00000000
00000000
00000000
00000000
,
00001000
00010000
00001000
00000000
00000000
00000000
00001000
00000000
,
00000000
00000000
00100000
00010000
00100000
00000000
01000000
00000000
,
10000000
00010000
01000000
00000000
00000000
00000000
00100000
00000000
,
01000000
00010000
00100000
01000000
10000000
00100000
01000000
00000000
,
00010000
10000000
00100000
00010000
,
00001000
00010000
00001000
00000000
00011000
00000000
00000000
00000000
,
00001000
00000010
00000001
00001000
,
00000010
00000100
00000010
00000000
00001001
00000000
00000000
00000000
,
00000001
00000010
00000100
00000000
00001000
00000000
00000010
00000000
,
00010000
00001000
01000000
00010000
,
10000000
01000000
10000000
01000000
00100000
00010000
00100000
00010000
,
10000000
00100000
10000000
00100000
01000000
00000000
00000000
00000000
,
00010000
10000000
01000000
00000000
00100000
00010000
01000000
00000000
,
00001000
00010000
00000100
00000010
00000001
00000000
00001000
00000000
,
00000001
00000100
00000010
00000000
00010000
00001000
01000000
00000000
,
00100000
10000000
00010000
00100000
01000000
00000000
10000000
00000000
,
00010000
01000000
00010000
00110000
,
00001000
00010000
00001000
00011000
,
00010000
00000100
00000010
00000000
00000100
00001000
00000001
00000000
,
00000011
00000000
00000000
00000110
00000000
00000000
00001100
00000000
,
00000100
00000010
00000001
00000000
00000100
00000000
00001000
00000000
,
00010000
00001000
01000000
00010000
,
00100000
01000000
10000000
00000000
00100000
00000000
00010000
00000000
,
00001000
00010000
01000000
10000000
,
01000000
00100000
00001000
00000000
00010000
00000000
00001000
00000000
,
00000100
00000000
00000001
00000010
00000001
00000010
00000100
00000000
,
00001000
00000000
00000010
00000000
00010000
00000000
00001000
01000000
,
00000000
00100000
10010000
00000000
00000000
00000000
00000000
00000000
,
00010000
00010000
00100000
00000000
01100000
00000000
00000000
00000000
,
10000000
00100000
00100000
00000000
01100000
00000000
00000000
00000000
,
00001000
00010000
00010000
00000000
00010100
00000000
00000000
00000000
,
00000100
00001000
00001000
00000000
00001001
00000000
00000000
00000000
,
00000001
00000100
00000010
00000000
00001010
00000000
00000000
00000000
,
00000010
00010000
00001000
00000000
00011000
00000000
00000000
00000000
,
00010000
00100000
01000000
00000000
10010000
00000000
00000000
00000000
,
10000000
01000000
00010000
00000000
00011000
00000000
00000000
00000000
,
00002000
00010000
00010000
00013000
,
00001000
00000100
00000001
00000010
,
00000200
00001000
00001000
00001300
,
00000100
00010000
00011000
01001000
,
02000000
00100000
00100000
03100000
,
01000000
00100000
00010000
00001000
,
00020000
00001000
00001000
00031000
,
00001000
00010000
00001000
00010000
00000000
00000000
00000000
00000000
,
00010000
00000100
00001000
00000000
00000100
00000010
00000001
00000000
,
00000001
00000100
00001000
00000000
00010000
00001000
00100000
00000000
,
00010000
01000000
00100000
00000000
10000000
01000000
00010000
00000000
,
00001000
00010000
00000100
00000000
00000010
00000001
00001000
00000000
,
00000001
00000010
00000100
00000000
00010000
00001000
01000000
00000000
,
00100000
10000000
01000000
00000000
00100000
00001000
00010000
00000000
,
00000010
00000100
00000001
00000000
00001000
00000100
00000010
00000000
,
00000001
00000000
00001000
00000000
00000001
00000010
00000100
00000000
,
00001000
00001100
00010000
00011000
,
00100000
00110000
00001000
00011000
,
00000010
00001010
00010000
00011000
,
01000000
01010000
00001000
00011000
,
00010000
00000000
00000100
00000000
00001000
00000000
00000001
00000100
,
00000000
00000100
00000010
00000000
00001000
00000000
00000100
00000000
,
00020000
00000000
00000000
00030000
,
00001000
00000000
00010000
00000000
00001000
00010000
00001000
00000000
,
00011000
00000000
00000000
00010000
00001000
00000000
01000000
00000000
,
00010000
00100000
01000000
10000000
,
10100000
00000000
00000000
00100000
01000000
00000000
00010000
00000000
,
00100000
00001000
00011000
00000000
,
00010000
00001000
00010000
00000000
00000010
00001000
00000010
00000000
,
00000100
00000001
00000100
00000000
00000010
00001000
00000010
00000000
,
00010000
00001000
00010000
00000000
00100000
01000000
00100000
00000000
,
10000000
00010000
10000000
00000000
01000000
00100000
01000000
00000000
,
11000000
00000000
00000000
01100000
00000000
00000000
00120000
00000000
,
00000000
00000000
00000000
00000000
,
00000000
00030000
00000000
00000000
00000000
00000000
00000000
00000000
,
00000000
00000000
00000000
00000000
,
00101000
00000000
00000000
00011000
00000000
00000000
00010200
00000000
,
00000000
00000000
00000000
00000000
00000000
00000300
00000000
00000000
,
00000010
00000000
00000000
00000000
,
00000000
00000000
00000000
00000000
,
00000001
00000010
00000100
00000000
00001000
00000010
00010000
00000000
,
00001000
01000000
00100000
00000000
10000000
00010000
00100000
00000000
,
00001000
00010000
00000100
00000000
00000010
00000001
00000100
00000000
,
00000010
00010000
00001000
00000000
00100000
01000000
10000000
00000000
,
01000000
11000000
00010000
00110000
,
00001000
00011000
00000010
00001010
,
00000001
00000010
00000000
00000100
00001000
00000000
00000010
00000000
,
00010000
00001000
00010000
00001000
00010000
00000000
01000000
10000000
,
00200000
00000000
00000000
00000000
,
00000000
00000000
00000000
00000000
00000000
01000000
01000000
01300000
,
00000000
00000000
00000000
00000000
;
#NOTES:
     dance-double:
     :
     Hard:
     15:
     :
00000000
00000000
00000000
00000000
,
00000000
00000000
00000000
00000000
,
00000000
00000000
00000000
00000000
,
00000000
00000000
00000000
00000000
,
00000000
00000000
00000000
00000000
,
00000000
00000000
00000000
00000000
,
00000000
00000000
00000000
00000000
,
00000000
00000000
00000000
00000000
,
00001000
00010000
00000100
00000000
00000000
00001000
00000010
00000000
,
00000000
00001000
00000100
00001000
00000100
00000010
00000001
00000001
,
00001000
00000010
00000100
00000000
00000010
00000000
00001000
00000000
,
00000001
00000010
00000001
00000000
00000010
00000000
00000100
00000000
00001000
00000100
00001000
00000000
00000010
00000000
00000000
00000000
,
00010000
00000000
00001000
00010000
00001000
01000000
00010000
00100000
,
01000000
10000000
00010000
01000000
01100000
00000000
00000000
00000000
,
00100000
10000000
00010000
01000000
00001000
00010000
00000100
00000010
,
00000001
00001000
00000001
00000100
00000110
00000000
00000000
00000000
,
00001010
00000001
00000100
00000000
00000001
00000010
00000100
00000000
,
00001000
00000100
00001000
00000010
00010010
00000000
00010000
00000000
,
00001000
00001000
00100000
00100000
00010000
00010000
01000000
01000000
,
00010000
00000000
00100000
00000000
01000000
00000000
10000000
00000000
10010000
00000000
00000000
00000000
10000000
01000000
00100000
00000000
,
00010000
00000000
10000000
00000000
00100000
01000000
00100000
00000000
10000000
00000000
01000000
00000000
00100000
00000000
00010000
00000000
,
01000000
00000000
00001000
00000000
00010000
00001000
00010000
00000000
00000100
00000000
00001000
00000000
00000001
00000000
00000100
00000000
,
00000010
00000000
00001000
00000000
00000001
00000010
00000001
00000000
00000010
00000000
00000100
00000000
00010000
00000000
00001000
00000000
,
01000000
00000000
00010000
00000000
00100000
00010000
00100000
00000000
00001000
00000000
00010000
00000000
00001000
00010000
00001000
00000000
,
00100000
00010000
00100000
01000000
00100000
10000000
00100000
01000000
,
00100000
00010000
00100000
00001000
00100000
00010000
00100000
01000000
,
10000000
00100000
00100000
10000000
01000000
01000000
10000000
00100000
,
01100000
00000000
00000000
01001000
00000000
00000000
00011000
00000000
,
00010000
00000100
00000010
00000001
00001000
00000010
00000100
00000001
,
00000010
00000000
00000001
00001000
00000001
00000000
00000100
00000000
00000010
00000000
00000000
00000000
00010000
00000000
00001000
00000000
,
01000000
00100000
10000000
01000000
00100000
01000000
10000000
10000000
,
00000000
00000000
00100000
01000000
00100000
00000000
10000000
00000000
01000000
00000000
00000000
00000000
00010000
00000000
00000000
00000000
,
00001000
00000000
00010000
00001000
00010000
00000000
00000100
00000000
00000000
00000000
00000010
00000000
00000001
00000000
00000010
00000000
,
00000000
00000000
00000100
00001000
00000100
00000000
00010000
00000000
00001000
00000000
01000000
00000000
00100000
00000000
00000000
00000000
,
10000000
00100000
01000000
00001000
00010000
00000100
00000010
00000011
,
00000000
00000100
00001001
00000000
00000001
00000100
00001000
00010000
,
00001000
00100000
00001000
00100000
00101000
00000000
01100000
00000000
,
01000000
10000000
01000000
10000000
10100000
00000000
00100000
00000000
,
01000000
00010000
01000000
00010000
00110000
00000000
00001000
00000000
,
00010000
00001000
00010000
00001000
00011000
00000000
00010010
00000000
,
00000010
00000100
00000010
00000100
00000101
00000000
00001001
00000000
,
00001000
00000100
00001000
00000100
00010100
00000000
00010000
00000000
,
00001000
00010000
00001000
00010000
00101000
00000000
00100000
00000000
,
00010000
01000000
00010000
01000000
00110000
00000000
21000000
00000000
,
30200000
01000000
01000000
01000000
,
20300000
00010000
00010000
00010000
,
32000000
00100000
00100000
00100000
,
03010000
00001000
00010000
00012000
,
00203000
00010000
00010000
00010000
,
00302000
00010000
00010000
00010000
,
02003000
00100000
00100000
00100000
,
03010000
00100000
00001000
00011000
00000000
00000000
00000000
00000000
,
00010000
00000000
00000100
00000000
00001000
00000100
00001000
00000000
00000100
00000000
00000010
00000000
00000001
00000010
00000001
00000000
,
00001000
00000010
00010000
00001000
01000000
00100000
10000000
01000000
,
00100000
00000000
00010000
00000000
00100000
00010000
00100000
00000000
01000000
00000000
10000000
00000000
01000000
10000000
01000000
00000000
,
10000000
00100000
01000000
00001000
00010000
00000100
00000010
00000001
,
00001000
00000010
00000100
00000010
00010000
00001000
00100000
01000000
,
00100000
00001000
00010000
00001000
01000000
00100000
01000000
00001000
,
00010000
00000100
00000010
00000100
00010000
00001000
00010000
00000010
,
00000100
00000000
00000010
00000000
00001000
00000000
00000001
00000000
00000010
00000000
00000100
00000000
00001000
00000100
00001000
00000000
,
00000010
00000010
00010000
00010000
00001000
00001000
01000000
01000000
,
00010000
00010000
10000000
10000000
01000000
01000000
00100000
00100000
,
00001000
00001000
00010000
00010000
00000010
00000010
00000100
00000100
,
00000001
00000001
00001000
00001000
00000010
00000010
00010000
00010000
,
00001000
00100000
00110000
00000000
00010000
10000000
00100000
01100000
,
00000000
01000000
01010000
00000000
00001000
00010000
00000100
00000010
,
00000002
00000000
00000000
00000003
,
00001000
00000000
00000000
00000000
00000001
00000000
00000000
00000000
00001000
00000000
00000000
00000000
00000001
00000000
00000000
00000000
00000010
00000000
00000000
00000000
00000100
00000000
00000000
00000000
00001000
00000000
00000000
00000000
00000000
00000000
00000001
00000000
00000000
00001000
00000000
00000000
00000001
00000000
00000000
00000000
00000000
00000000
00000000
00000000
00000000
00000000
00000000
00000000
,
00001001
00000000
00000000
00000001
00000100
00000000
00000010
00000010
,
00000000
00010000
00001000
00010000
00001000
00000000
01000000
00000000
,
01100000
00000000
00000000
00100000
10000000
00000000
00010000
00010000
,
00000000
00000000
10000000
00000000
01000000
00000000
00100000
00010000
00100000
00000000
00001000
00000000
00010000
00000000
00001000
00000000
,
00000010
00000001
00000100
00000010
00010000
00001000
00100000
01000000
,
10000000
00100000
01000000
00001000
00010000
00000100
00000010
00000001
,
00000010
00000100
00010000
00001000
01000000
00100000
10000000
01000000
,
00100000
00000000
00001000
00000000
00010000
00000000
00000100
00000000
00001000
00000100
00001000
00000000
00000001
00000010
00000001
00000000
,
00001000
00000010
00000010
00000100
00000001
00000001
00002001
00000000
,
00000000
00000000
00000000
00000000
,
00000000
00003000
00000000
00000000
00000000
00000000
00000000
00000000
,
00000000
00000000
00000000
00000000
,
00001000
00000010
00010000
00001000
00010000
00100000
02100000
00000000
,
00000000
00000000
00000000
00000000
00000000
00000000
00000000
00000000
00000000
00000000
03000000
00000000
00000000
00000000
00100000
10000000
,
00010000
00000000
00000000
00000000
,
00000000
00000000
00000000
00000000
,
10000000
00000000
01000000
00000000
10000000
01000000
10000000
00000000
01000000
00000000
00100000
00000000
00010000
00100000
00010000
00000000
,
00100000
00000000
00001000
00000000
00010000
00001000
00010000
00000000
00000100
00000000
00001000
00000000
00000010
00000000
00000100
00000000
,
00000001
00000000
00000010
00000000
00000001
00000010
00000001
00000000
00000010
00000000
00000100
00000000
00001000
00000100
00001000
00000000
,
00000100
00000000
00010000
00000000
00001000
00010000
00001000
00000000
00100000
00000000
00010000
00000000
01000000
00000000
00100000
00000000
,
10000000
10000000
01000000
01000000
00100000
00100000
00001000
00001000
,
00010000
00010000
00000010
00000010
00000100
00000100
00000001
00000001
,
00001000
00000010
00000010
00001000
00000100
00000100
00001000
00000010
,
00010000
00001000
00100000
00000000
00001000
00010000
00000010
00000000
00010000
00000000
00000000
00000000
00001000
00010000
00001000
00010000
,
00002000
00000000
00000000
00000000
,
00000000
00000000
00000000
00000000
00000000
00010000
00010000
00013000
,
00000000
00000000
00000000
00000000
;
