
//----- song ID: mtor -----//
#TITLE:メテオラ-meteor-;
#ARTIST:森羅万象;
#TITLETRANSLIT:Meteora -meteor-;
#ARTISTTRANSLIT:ShinRa-Bansho;
#BANNER:Meteora -meteor-.png;
#BACKGROUND:Meteora -meteor--bg.png;
#CDTITLE:./CDTitles/DDR WORLD.png;
#MUSIC:Meteora -meteor-.ogg;
#SAMPLESTART:51.228;
#SAMPLELENGTH:15;
#BPMS:0=192;
#BGSTAGE:5;
#NOTES:
     dance-single:
     :
     Beginner:
     2:
     :
0000
0000
0000
0000
,
0000
0000
0000
0000
,
0000
0000
0000
0000
,
0000
0000
0000
0000
,
0000
0000
0000
0000
,
0000
0000
0000
0000
,
0000
0000
0000
0000
,
0001
0000
0000
0000
,
0001
0000
0000
0000
,
0010
0000
0000
0000
,
0000
0000
0000
0000
,
0010
0000
0000
0000
,
0010
0000
0000
0000
,
1000
0000
0000
0000
,
0000
0000
0000
0000
,
1001
0000
0000
0000
,
0000
0000
0000
0000
,
1000
0000
0000
0000
,
1000
0000
0000
0000
,
0010
0000
0000
0000
,
0000
0000
0000
0000
,
0010
0000
0000
0000
,
0010
0000
0000
0000
,
0001
0000
0000
0000
,
0000
0000
0000
0000
,
0001
0000
0000
0000
,
0100
0000
0000
0000
,
0001
0000
0000
0000
,
0000
0000
0000
0000
,
0001
0000
0000
0000
,
0010
0000
0000
0000
,
2000
0000
0000
0000
,
3000
0000
0000
0000
,
0020
0000
0000
0000
,
0030
0000
0000
0000
,
0020
0000
0000
0000
,
0030
0000
0000
0000
,
0001
0000
0001
0000
,
0001
0000
0000
0000
,
1001
0000
0000
0000
,
0000
0000
0000
0000
,
0001
0000
0000
0000
,
0100
0000
0000
0000
,
0001
0000
0000
0000
,
0000
0000
0000
0000
,
0010
0000
0000
0000
,
0010
0000
0000
0000
,
0010
0000
0000
0000
,
0000
0000
0000
0000
,
1000
0000
0000
0000
,
0100
0000
0000
0000
,
1000
0000
0000
0000
,
0000
0000
0000
0000
,
0010
0000
0000
0000
,
0010
0000
0000
0000
,
0010
0000
0000
0000
,
0000
0000
0000
0000
,
0002
0000
0000
0000
,
0003
0000
0000
0000
,
0001
0000
0000
0000
,
0010
0000
0000
0000
,
0020
0000
0000
0000
,
0030
0000
0000
0000
,
0010
0000
0000
0000
,
1000
0000
0000
0000
,
1000
0000
0000
0000
,
0000
0000
0000
0000
,
1000
0000
0000
0000
,
0000
0000
0000
0000
,
0001
0000
0000
0000
,
0000
0000
0000
0000
,
0001
0000
0000
0000
,
0000
0000
0000
0000
,
0000
0000
0000
0000
,
0000
0000
0000
0000
,
0000
0000
0000
0000
,
1001
0000
0000
0000
,
0000
0000
0000
0000
,
0010
0000
0000
0000
,
0100
0000
0000
0000
,
0010
0000
0000
0000
,
0000
0000
0000
0000
,
0001
0000
0000
0000
,
0001
0000
0000
0000
,
0001
0000
0000
0000
,
0000
0000
0000
0000
,
0001
0000
0000
0000
,
0010
0000
0000
0000
,
1000
0000
0000
0000
,
0000
0000
0000
0000
,
1000
0000
0000
0000
,
0100
0000
0000
0000
,
1000
0000
0000
0000
,
0000
0000
0000
1001
,
0000
0000
0000
0000
;
#NOTES:
     dance-single:
     :
     Easy:
     7:
     :
0000
0000
0000
0000
,
0000
0000
0000
0000
,
0000
0000
0000
0000
,
0000
0000
0000
0000
,
0000
0000
0000
0000
,
0000
0000
0000
0000
,
0000
0000
0000
0000
,
0001
1000
0001
0000
,
0010
0000
0100
0000
,
1000
0001
1000
0000
,
0010
0000
0100
0000
,
0001
0100
0010
0000
,
0100
0010
1000
0000
,
0001
0010
0100
0000
,
0010
0100
1000
0000
,
0002
0000
0000
0003
,
0020
0000
0000
0030
,
0200
0000
0000
0300
,
2000
0000
0000
3000
,
1000
0010
1000
0000
,
0001
0100
0001
0000
,
1000
0100
1000
0000
,
0100
0010
0001
0000
,
1000
0010
1000
0001
,
1000
0010
1000
0000
,
0001
0010
0001
1000
,
0001
0010
0001
0000
,
1000
0100
1000
0001
,
1000
0100
1000
0000
,
0001
0100
0001
1000
,
0001
0100
0001
0000
,
2000
0000
0000
3000
,
1000
0100
0010
0000
,
0020
0000
0000
0030
,
0010
0001
1000
0000
,
0002
0000
0000
0003
,
0001
0100
0010
0000
,
1000
0100
0001
0000
,
0001
0100
1000
0000
,
0002
0000
1003
0000
,
2000
0001
3001
0000
,
1000
0010
0100
0001
,
1000
0010
0100
0000
,
0001
0010
0100
1000
,
0001
0010
0100
0000
,
1000
1000
0100
0000
,
1000
1000
0010
0000
,
1000
0000
0110
0000
,
0001
1000
0001
0000
,
0001
0100
0010
0000
,
0010
0100
0001
0000
,
1000
0100
0010
0100
,
1000
0010
0100
0000
,
0001
0001
0100
0000
,
0100
0100
0010
0000
,
0110
0000
1001
0000
,
0001
1000
1001
0000
,
2000
0000
0000
3000
,
0002
0000
0000
0003
,
0200
0000
0000
0300
,
0020
0000
0000
0030
,
1000
0010
1000
0000
,
1000
0100
0010
0000
,
0001
0010
0001
0000
,
0001
0100
0010
0000
,
1000
1000
0001
0001
,
1000
0001
1000
0000
,
0010
0010
0100
0100
,
0010
0100
0010
0000
,
1000
0100
0010
0000
,
0001
0100
0010
0000
,
1000
0010
0100
0000
,
0001
0010
0100
1000
,
0000
0000
0000
0000
,
0000
0000
0000
0000
,
0000
0000
0000
0000
,
1001
0000
0000
0000
,
0110
0000
0000
0000
,
1001
0000
0110
0000
,
1001
0000
0000
0000
,
0001
0001
0100
0000
,
0001
0001
0010
0000
,
0001
0100
0010
1000
,
0010
0100
0001
0000
,
1000
0100
0010
0000
,
0001
1000
0100
0000
,
1000
0010
1000
0001
,
1000
0100
1000
0000
,
0001
0100
0001
0100
,
0010
1000
0010
0000
,
1000
0100
0010
0001
,
0100
0010
1000
0000
,
0020
0000
0000
0000
,
0000
0000
0030
1001
,
0000
0000
0000
0000
;
#NOTES:
     dance-single:
     :
     Medium:
     12:
     :
0000
0000
0000
0000
,
0000
0000
0000
0000
,
0000
0000
0000
0000
,
0000
0000
0000
0000
,
0000
0000
0000
0000
,
0000
0000
0000
0000
,
0000
0000
0000
0000
,
0001
0000
0100
0000
0001
0000
0000
0000
0010
0000
0000
0010
0000
0000
0010
0000
,
0000
0100
1000
0000
0100
0010
0001
0000
,
1000
0000
0010
0000
1000
0000
0000
0000
0100
0000
0000
0100
0000
0000
0100
0000
,
0000
0010
0001
0000
1000
0100
0010
0000
,
0001
0010
0100
0000
1000
0010
0100
0000
,
0001
0000
0000
0010
0000
0000
1000
0000
0000
0000
1000
0000
0010
0000
0001
0000
,
0000
0000
1000
0000
0100
0000
0000
1000
0000
0000
0100
0000
0000
1000
0000
0000
,
0000
0100
0000
0000
0010
0000
0000
0001
0000
0000
0010
0000
0000
0001
0000
0000
,
1000
0000
0000
0010
0000
0000
1000
0000
0001
0000
0000
0100
0000
0000
0001
0000
,
1000
0000
0000
0100
0000
0000
0010
0000
0100
0000
0000
0000
0000
0000
0100
0000
,
1000
0000
0000
0001
0000
0000
1000
0000
0010
0000
0000
0100
0000
0000
0010
0000
,
1000
0000
0000
0100
0000
0000
0010
0000
0001
0000
0000
0000
0000
0000
1000
0000
,
0001
0000
0000
0001
0000
0000
0010
0000
0100
0000
0000
0100
0000
0000
1000
0000
,
0001
0000
0000
0100
0000
0000
1000
0000
0100
0000
0000
0000
0000
0000
0001
0000
,
1000
0000
0000
0010
0000
0000
0100
0000
0001
0000
0000
0000
0001
0000
1000
0000
,
0000
0100
0010
0100
0020
0000
0030
0000
,
0001
0000
0000
1000
0000
0000
0010
0000
0000
0000
0110
0000
0000
0000
1000
0000
,
0010
0000
0000
0100
0000
0000
0001
0000
0000
0000
1000
0000
0100
0000
0001
0000
,
0000
0001
0100
1000
0001
0000
0100
0010
,
0000
0010
1000
0010
0200
0000
0300
0000
,
0001
0000
0000
0010
0000
0000
1000
0000
0000
0000
1000
0000
0010
0000
0001
0000
,
1000
0000
0000
0100
0000
0000
0010
0000
0000
0000
0001
0000
1000
0000
0001
0000
,
0000
0001
0100
0010
1000
0000
0100
0020
,
0000
0000
0000
0030
,
0001
0000
1000
0010
0000
1000
0000
1000
,
0000
0001
0000
0001
0000
0010
0000
0010
,
0000
0100
0000
0100
0000
1000
0000
1000
,
0000
0010
1000
0001
0000
1000
0000
1000
,
0000
0100
0000
0100
0000
0010
0000
0010
,
0000
0001
0000
0001
0000
1000
0000
1000
,
0010
0000
0100
0010
0000
0100
0010
0000
,
0100
0010
0000
0100
0010
0000
1000
0002
,
1000
0000
0100
0000
1003
0000
1000
0001
,
0000
1001
0000
0000
0000
0000
0000
0000
,
0011
0000
0110
0000
1100
0000
1000
0001
,
0000
0101
0000
0100
0000
0010
1000
0000
,
2000
0000
3020
0000
0032
0000
0013
1000
,
0000
1000
0002
0000
0100
0000
0103
0000
,
0001
0100
0000
1000
0100
0000
0001
0100
,
0000
1000
0100
0000
0001
1000
0001
0000
,
1000
0000
1100
0000
0100
0000
0010
0001
,
0000
0001
1000
0001
0200
0000
0300
0000
,
0001
0100
0010
0000
1000
0000
0100
0010
,
0000
0001
1000
0001
0000
0001
0100
0000
,
0010
1000
0100
0000
0010
0001
0100
0000
,
0020
0000
2030
0000
3001
0100
0001
0000
,
2000
0000
3100
0001
0100
0000
1000
0000
,
0002
0000
0103
1000
0100
0000
0001
0000
,
1000
0000
0110
0000
0001
0000
1000
0010
,
0000
0001
0010
1000
0002
0000
0003
0000
,
2000
0000
3100
0000
,
0002
0100
0103
0000
,
2000
0000
3010
0000
,
0002
0010
0013
0000
,
1000
0100
0010
0010
,
0001
0100
0010
0010
,
1000
0100
1000
0000
0001
0100
0001
0000
,
0010
0100
0110
1001
,
1000
0100
1000
0000
0100
0010
0100
0000
,
0010
0001
0010
0000
0001
1000
0001
0000
,
0001
0100
0001
0000
0100
0010
0100
0000
,
0010
1000
0010
0000
1000
0001
1000
0000
,
0001
0100
0010
0000
0100
0010
1000
0000
,
1000
0100
0010
0000
0100
0010
0001
0000
,
2000
3200
0302
0203
,
2300
3020
0032
0023
,
0030
0000
0000
0000
,
0000
0000
0000
0000
,
0000
0000
0000
0000
,
1001
0000
0000
0000
0000
0000
0000
0110
,
0000
0000
0000
0001
0000
1000
0001
0000
,
0002
0000
0203
0000
2300
0000
3100
0001
,
0000
0001
2000
0000
0000
0000
3000
0000
,
1000
0010
0000
0001
0010
0000
1000
0010
,
0000
0001
0010
0000
1000
0001
1000
0000
,
0001
0000
0011
0000
0010
0000
0100
1000
,
0000
1000
0001
1000
0020
0000
0030
0000
,
1000
0010
0100
0000
0001
0000
0010
0100
,
0000
1000
0001
1000
0000
1000
0010
0000
,
0100
0001
0010
0000
0100
1000
0010
0000
,
0200
0000
0302
0000
1003
0010
1000
0000
,
0002
0000
0013
1000
0010
0000
0001
0000
,
2000
0000
3010
0001
0010
0000
1000
0000
,
0001
0000
0110
0000
1000
0000
0001
0100
,
0000
1000
0100
0001
2000
0000
3000
0000
,
0001
0000
0010
0000
1000
0000
1000
0010
,
0000
0001
0100
0000
1000
0000
0110
0000
,
0000
0000
0000
0000
;
#NOTES:
     dance-single:
     :
     Hard:
     16:
     :
0000
0000
0000
0000
,
0000
0000
0000
0000
,
0000
0000
0000
0000
,
0000
0000
0000
0000
,
0000
0000
0000
0000
,
0000
0000
0000
0000
,
0000
0000
0000
0000
,
0001
0000
0100
0000
0010
0000
1000
0000
0100
0000
0010
0001
0000
0001
1000
0000
,
0001
0000
0100
1000
0100
0000
0001
0000
1000
0000
0010
0000
0001
0000
0010
0000
,
1000
0000
0100
0000
0010
0000
0001
0000
0100
0000
0010
1000
0000
1000
0001
0000
,
1000
0000
0100
0000
0001
0100
1000
0000
0001
0000
0010
0000
0011
0000
0000
0000
,
0001
0000
0100
0000
0010
1000
0000
0010
0000
0000
1000
0000
0100
0000
0010
0000
,
0001
0000
1000
0010
0000
1000
0100
0000
0000
0000
0100
0000
0100
0000
1000
0000
,
0000
0000
0001
0000
0100
0010
0000
0010
1000
0000
1000
0001
0000
0001
0100
0000
,
0000
0001
0100
0000
1000
0001
0000
0010
1000
0000
0100
0001
0000
1000
0010
0000
,
0001
0000
0000
0011
0000
0000
0000
0000
,
1000
0000
0000
1010
0000
0000
0000
0000
,
0001
0000
0000
0101
0000
0000
0000
0000
,
1000
0000
0000
0000
0000
0000
1100
0000
0000
0000
0100
1000
0000
0000
0100
1000
,
0001
0000
0000
0110
0000
0000
0000
0000
,
1000
0000
0000
0110
0000
0000
0000
0000
,
0010
0000
0000
0000
0000
0000
1001
0000
0000
0000
0000
0000
1000
0100
0020
0000
,
0000
0000
0031
0100
0010
0000
1000
0100
0010
0000
0110
0000
0000
0000
0110
0000
,
0001
0000
0100
0010
0000
1000
0010
0000
0100
0000
0001
0010
0100
0000
1000
0000
,
0010
0000
0100
1000
0000
0100
0001
0000
0000
0000
1000
0000
0100
0000
0001
0000
,
0000
1000
0010
0001
1000
0100
0010
0001
,
0000
0000
0001
0000
1000
0000
0001
0000
2000
0000
0000
0010
0000
0000
3000
0000
,
1000
0010
0000
1000
0010
0000
0100
0001
0000
0000
1000
0001
1000
0000
0010
0000
,
1000
0100
0000
0100
0010
0000
0001
0000
0000
0000
0100
0000
0010
0000
1010
0000
,
0000
1000
0010
0010
0100
0100
0001
0001
,
1000
0000
0100
0000
0010
0000
0001
0000
1000
0000
0100
0000
0010
0000
0000
0001
0000
0000
0100
0000
0000
0010
0000
0000
,
0000
0010
1000
0100
0000
0001
0100
1000
,
0000
0001
0010
1000
0000
1000
0010
0001
,
0000
1000
0100
0001
0000
0001
0100
1000
,
0000
0001
0100
0010
0000
0010
1000
1100
,
0000
0100
0010
0011
0000
0010
0001
0101
,
0000
0100
0010
0110
0000
0100
1000
0100
,
0001
0010
0010
1000
0010
0010
0001
0010
,
0010
1000
0010
0010
0001
1000
0100
0020
,
0001
0000
0100
0000
1000
0000
0031
1000
,
0000
2002
0000
3003
0000
0000
0000
0000
,
0001
0000
0010
0100
1000
0000
0010
0100
0001
0000
0010
0100
1000
0000
0010
0100
,
0001
0000
0100
0000
1000
0000
0100
0000
0001
0000
1000
0100
0010
0000
0001
0000
,
0101
0000
1010
0000
1100
0000
0011
0001
,
0000
1002
0000
0100
0000
0010
0013
0001
,
1000
0000
0010
0100
0010
0000
0001
0000
0010
0100
0010
0000
1000
0000
0010
0100
,
0010
0000
0001
0010
1000
0000
0010
1000
0001
0000
1000
0100
0010
0000
0000
0000
,
0001
0000
1000
0100
0010
0000
0001
0100
0010
0000
1000
0100
0010
0000
0002
0000
,
0000
1000
1000
1000
1003
0000
1001
0000
,
1000
0000
0010
0100
0001
0000
0010
0100
1000
0000
0001
1000
0100
1000
0100
0000
,
0000
0000
0100
0010
0100
0010
0001
0000
0000
0000
0001
0100
0010
1000
0001
0000
,
1000
0000
0010
1000
0010
0000
0100
0001
0100
0000
0001
1000
0001
0000
0100
0000
,
0000
0010
0200
0000
1300
0100
0001
1000
,
0200
0000
0301
0100
1000
0010
0001
1000
,
0000
0000
1000
0000
0100
0000
0010
0000
1000
0100
1000
0100
0010
0001
0010
0001
,
0010
0001
0101
0000
1010
1000
1100
0100
,
0000
0000
0010
0001
0100
0000
0010
1000
0100
0000
0000
0000
0110
0000
0000
0000
,
0000
0001
0010
0100
1000
0010
0000
0110
,
0000
0100
1000
0100
0010
0100
0000
0110
,
0000
0000
0010
0000
0001
0000
0010
0000
1000
0000
0010
1000
0000
0100
1000
0000
,
0100
0000
0000
0000
0000
0000
0010
0000
0000
0001
0000
0000
0000
0000
0000
0010
0000
0000
0001
0000
0000
0000
0000
0000
0100
0000
0000
0000
0000
0000
0000
0000
0010
0000
0000
0000
1000
0000
0000
0000
0010
0000
0000
0000
1000
0000
0000
0000
,
0010
0000
0100
0000
0001
0000
0100
0000
0010
0000
0000
1010
0000
0000
1001
0000
,
0000
0000
1000
0100
0010
0000
0001
0000
0011
0000
0000
1001
0000
0000
1000
0000
,
0000
0001
0010
1000
0010
0001
0000
1001
,
2000
3020
0230
0302
,
1003
0000
0100
0000
1000
0000
0100
0000
0010
0000
0001
0000
0010
0000
0001
0010
,
0001
0100
0001
0100
0010
1000
0010
1000
,
0100
0000
0010
0000
0100
0000
0010
0001
1000
0000
0001
0000
1000
0000
0010
0000
,
0100
1000
0100
0001
0100
1000
0100
0001
,
1000
0000
0100
0010
0001
0000
1000
0000
0010
0000
0100
0000
0001
0000
0100
0000
,
0010
0000
1000
0000
0100
0000
0010
0000
0001
0100
0000
0001
0010
0000
0001
0100
,
0002
0023
2030
3200
,
0302
0023
2030
3200
,
0300
0000
0000
0000
,
0000
0000
0000
0000
,
0000
0000
0000
0000
,
1001
0000
0000
0000
0000
0000
0000
0110
,
0000
0000
0001
1000
0100
0000
0010
0000
0001
0100
0001
0100
0010
0000
1000
0000
,
1001
0000
0000
0000
0000
0000
0000
0110
,
1000
0000
0110
0000
0001
0000
0110
0000
1000
0001
1000
0001
0000
0000
0000
0000
,
0001
0000
0010
0100
0010
0000
1000
0000
0010
0100
0010
0000
0001
0000
0010
0100
,
0010
0000
1000
0010
0001
0000
0010
0001
1000
0000
0001
0100
0010
0000
0000
0000
,
1000
0000
0001
0100
0010
0000
1000
0100
0010
0000
0001
0100
0010
0000
2000
0000
,
0000
0001
0001
0001
3001
0000
1001
0000
,
0001
0000
0100
1000
0100
0000
1000
0001
1000
0000
0001
0010
0001
0000
0010
0000
,
0000
0000
0010
1000
0010
0000
1010
0000
0000
0000
1000
0000
0001
0100
0010
1000
,
0001
0000
0100
0001
0100
0000
0010
1000
0010
0000
1000
0001
1000
0000
0010
0000
,
0000
0100
0020
0000
0031
0010
1000
0001
,
0020
0000
1030
0010
0001
0100
1000
0001
,
0000
0000
0001
0000
0010
0100
0010
0100
0001
1000
0001
1000
0100
0010
0100
0000
,
1100
0000
1000
0010
1000
0000
0001
0000
0101
0000
0001
0010
0001
0010
0100
0000
,
0000
0000
0100
1000
0010
0000
0100
0001
0010
0000
0000
0000
0110
0000
0000
0000
,
0002
0000
2003
0000
3002
0000
1003
0100
,
0000
0000
0001
0100
1000
0000
0010
0000
0001
0000
0000
0000
1001
0000
0000
0000
,
0000
0000
0000
0000
;
#NOTES:
     dance-double:
     :
     Easy:
     7:
     :
00000000
00000000
00000000
00000000
,
00000000
00000000
00000000
00000000
,
00000000
00000000
00000000
00000000
,
00000000
00000000
00000000
00000000
,
00000000
00000000
00000000
00000000
,
00000000
00000000
00000000
00000000
,
00000000
00000000
00000000
00000000
,
00001000
00000000
00010000
00000000
,
00001000
00100000
00010000
00000000
,
00100000
00000000
00010000
00000000
,
01000000
00100000
01000000
00000000
,
00010000
00000000
10000000
00000000
,
01000000
00100000
00010000
00000000
,
00100000
00000000
00001000
00000000
,
00010000
00001000
00010000
00000000
,
00020000
00000000
00000000
00030000
,
00002000
00000000
00000000
00003000
,
00000020
00000000
00000000
00000030
,
00000002
00000000
00000000
00000003
,
00000001
00000000
00000100
00000000
,
00000010
00001000
00000010
00000000
,
00001000
00000000
00000100
00000000
,
00010000
00001000
00010000
00000000
,
00001000
00010000
00001000
00000000
,
01000000
00010000
01000000
00000000
,
00010000
00100000
01000000
10000000
,
00010000
00000000
10000000
00000000
,
10000000
01000000
10000000
00000000
,
01000000
00100000
00010000
00000000
,
00100000
01000000
00100000
00010000
,
00100000
00001000
00010000
00000000
,
00002000
00000000
00000000
00003000
,
00001000
00000000
00010000
00000000
,
00000200
00000000
00000000
00000300
,
00000100
00000000
00001000
00000000
,
00000020
00000000
00000000
00000030
,
00000010
00000000
00000100
00000000
,
00000001
00000100
00000001
00000000
,
00001000
00000100
00001000
00000000
,
00000100
00000000
00010000
00000000
,
00011000
00000000
00000000
00000000
,
00001000
00010000
00001000
00000000
,
00010000
00000000
00100000
00000000
,
10000000
00100000
10000000
00000000
,
00010000
00000000
01000000
00000000
,
00010000
00010000
00100000
00000000
,
00010000
00010000
01000000
00000000
,
00010000
00100000
00001000
00010000
,
00001000
00000000
00011000
00000000
,
00010000
00000100
00010000
00000000
,
00000100
00001000
00000100
00000000
,
00001000
00000000
00000010
00000000
,
00000100
00000001
00000100
00000000
,
00000001
00000001
00000100
00000000
,
00000001
00000001
00000010
00000000
,
00000001
00000000
00000100
00000000
,
00001000
00010000
00001000
00000000
,
00020000
00000000
00000000
00030000
,
00002000
00000000
00000000
00003000
,
02000000
00000000
00000000
03000000
,
00020000
00000000
00000000
00030000
,
10000000
01000000
00100000
00000000
,
00010000
00100000
00001000
00000000
,
00010000
00000000
00011000
00000000
,
00001000
00010000
00001000
00000000
,
00010000
00010000
00000100
00000100
,
00001000
00000000
00000010
00000000
,
00000100
00000100
00000001
00000001
,
00001000
00000000
00000100
00000000
,
00010000
00001000
01000000
00000000
,
00010000
00100000
01000000
00000000
,
10000000
10000000
01000000
00000000
,
00100000
00001000
00010000
00001000
,
00000000
00000000
00000000
00000000
,
00000000
00000000
00000000
00000000
,
00000000
00000000
00000000
00000000
,
00011000
00000000
00010000
00000000
,
00001000
00000000
00000010
00000000
,
00000001
00000100
00000001
00001000
,
00000020
00000000
00000000
00000030
,
00001000
00001000
00000100
00000000
,
00001000
00001000
00000010
00000000
,
00001000
00000100
00010000
00001000
,
00010000
00000000
00011000
00000000
,
00001000
00100000
00001000
00000000
,
00100000
00010000
00100000
00000000
,
00010000
00000000
01000000
00000000
,
00100000
10000000
00100000
00000000
,
10000000
10000000
00100000
00000000
,
10000000
10000000
01000000
00000000
,
10000000
00000000
00100000
00000000
,
00010000
00001000
00010000
00000000
,
00002000
00000000
00000000
00000000
,
00000000
00000000
00003000
00011000
,
00000000
00000000
00000000
00000000
;
#NOTES:
     dance-double:
     :
     Medium:
     12:
     :
00000000
00000000
00000000
00000000
,
00000000
00000000
00000000
00000000
,
00000000
00000000
00000000
00000000
,
00000000
00000000
00000000
00000000
,
00000000
00000000
00000000
00000000
,
00000000
00000000
00000000
00000000
,
00000000
00000000
00000000
00000000
,
00001000
00000000
00010000
00000000
00001000
00000000
00000000
00000000
00010000
00000000
00000000
00001000
00000000
00000000
00100000
00000000
,
00000000
00100000
00010000
00000000
10000000
01000000
00100000
00000000
,
00010000
00000000
10000000
00000000
00010000
00000000
00000000
00000000
01000000
00000000
00000000
00100000
00000000
00000000
10000000
00000000
,
00000000
10000000
00100000
00000000
01000000
00010000
00100000
00000000
,
00010000
00100000
00001000
00010000
00000100
00001000
00000100
00000000
,
00001000
00000000
00000000
00000010
00000000
00000000
00010000
00000000
00000000
00000000
00010000
00000000
00001000
00000000
01000000
00000000
,
00000000
00000000
00010000
00000000
00100000
00000000
00000000
01000000
00000000
00000000
00100000
00000000
00000000
00001000
00000000
00000000
,
00000000
00010000
00000000
00000000
00000100
00000000
00000000
00001000
00000000
00000000
00000100
00000000
00000000
00000010
00000000
00000000
,
00000001
00000000
00000010
00000001
00000000
00000011
00000000
00000000
,
00000001
00000000
00000100
00000010
00000000
00000110
00000000
00000000
,
00000010
00000000
00000100
00001000
00000000
00011000
00000000
00000000
,
00010000
00000000
00000000
00000000
00001000
00000000
01000000
00000000
00000000
00000000
00010000
00000000
00000000
00100000
00000000
00000000
,
00010000
00000000
01000000
00100000
00000000
01100000
00000000
00000000
,
01000000
00000000
00100000
10000000
00000000
10010000
00000000
00000000
,
10000000
00000000
01000000
00100000
00010000
00000000
00100000
00001000
,
00000000
00001000
00010000
00001000
00020000
00000000
00030000
00000000
,
00001000
00000000
00000000
00010000
00000000
00000000
00000010
00000000
00000000
00000000
00000010
00000000
00001000
00000000
00000000
00000000
,
00000001
00000000
00000000
00000100
00000000
00000000
00000010
00000000
00000000
00000000
00000010
00000000
00001000
00000000
00000100
00000000
,
00000000
00000100
00010000
00000000
00001000
00000000
00010000
00100000
,
00000000
00100000
00010000
00100000
02000000
00000000
03000000
00000000
,
00010000
00000000
00000000
00100000
00000000
00000000
10000000
00000000
00000000
00000000
10000000
00000000
00100000
00000000
00000000
00000000
,
00100000
00000000
00000000
00010000
00000000
00000000
01000000
00000000
00000000
00000000
01000000
00000000
00010000
00000000
00100000
00000000
,
00000000
00100000
00001000
00010000
00001000
00010000
00000100
00002000
,
00000000
00000000
00000000
00003000
,
00000001
00000000
00000100
00000010
00000000
00001000
00000000
00001000
,
00000000
00000100
00000000
00000100
00000000
00010000
00000000
00010000
,
00000000
00001000
00000000
00001000
00000000
00100000
00000000
00100000
,
00000000
00010000
01000000
00100000
00000000
10000000
00000000
10000000
,
00000000
01000000
00000000
01000000
00000000
00100000
00000000
00100000
,
00000000
00001000
00000000
00001000
00000000
00010000
00000000
00010000
,
00001000
00000000
00010000
00001000
00000000
00010000
00001000
00000000
,
00010000
00001000
00000000
00010000
00001000
00000000
00010000
00002000
,
00010000
00000000
01000000
00000000
00100000
00000000
00013000
00010000
,
00000000
00011000
00000000
00000000
00000000
00000000
00000000
00000000
,
00011000
00000000
00010100
00000000
00001100
00000000
00001000
00000001
,
00000000
00000011
00000000
00000010
00000000
00000100
00000001
00000000
,
00000002
00000000
00000203
00000000
00002300
00000000
00003100
00010000
,
00000000
00010000
00002000
00000000
00010000
00000000
00013000
00000000
,
00001000
00010000
00000000
00100000
00010000
00000000
00001000
00010000
,
00000000
00100000
00010000
00000000
00001000
00000000
00011000
00000000
,
00001000
00000000
00010000
00000000
01000000
00000000
10000000
00010000
,
00000000
00010000
01000000
00100000
02000000
00000000
03000000
00000000
,
00010000
00000000
01000000
00000000
10000000
00000000
00010000
00100000
,
00000000
10000000
00010000
10000000
00000000
01000000
00100000
00000000
,
00001000
00010000
00001000
00000000
00010000
00000100
00001000
00000100
,
00000000
00000010
00000002
00000000
00001000
00000000
00001003
00000000
,
00000002
00000000
00000103
00000000
00000010
00001000
00000000
00000010
,
00000000
00010000
00000000
00001000
00000000
00010000
00010000
00000000
,
00001000
00010000
00001000
00000000
00010000
00000000
01000000
00100000
,
00000000
00010000
10000000
00010000
20000000
00000000
30000000
00000000
,
20000000
00000000
31000000
00000000
,
02000000
00010000
03010000
00000000
,
00002000
00000000
00013000
00000000
,
00002000
00000010
00003010
00000000
,
00000001
00001000
00000001
00000100
,
00000010
00000010
00010000
00010000
,
00001000
00010000
00001000
00000000
01000000
00010000
01000000
00000000
,
00010000
00100000
01100000
10010000
,
10000000
00000000
01000000
00000000
00100000
00010000
00100000
00000000
,
00001000
00010000
00000100
00001000
,
00000010
00000000
00000100
00000000
00000001
00001000
00000001
00000000
,
00000010
00001000
00010000
01000000
,
00100000
00010000
00100000
00000000
00010000
01000000
00100000
00000000
,
10000000
00100000
10000000
00000000
01000000
00100000
00010000
00000000
,
20000000
32000000
03020000
00032000
,
00003020
00000032
00002003
00003200
,
00000300
00000000
00000000
00000000
,
00000000
00000000
00000000
00000000
,
00000000
00000000
00000000
00000000
,
00011000
00000000
00000000
00000000
00000000
00000000
00001000
01000000
,
00000000
00010000
00000000
10000000
00000000
00010000
00100000
00000000
,
20000000
00000000
30200000
00000000
00320000
00000000
00130000
00001000
,
00000000
00001000
00020000
00000000
00001000
00000000
00031000
00000000
,
00010000
00001000
00000000
00000100
00001000
00000000
00010000
00001000
,
00000000
00000100
00001000
00000000
00010000
00000000
00011000
00000000
,
00010000
00000000
00001000
00000000
00000010
00000000
00000001
00001000
,
00000000
00001000
00000010
00000100
00000020
00000000
00000030
00000000
,
00001000
00000000
00000010
00000000
00000001
00000000
00001000
00000100
,
00000000
00000001
00001000
00000001
00000000
00000010
00000100
00000000
,
00010000
00001000
00010000
00000000
00001000
00100000
00010000
00100000
,
00000000
01000000
20000000
00000000
00010000
00000000
30010000
00000000
,
20000000
00000000
30100000
00000000
01000000
00010000
00000000
01000000
,
00000000
00001000
00000000
00010000
00000000
00001000
00001000
00000000
,
00010000
00001000
00010000
00000000
00001000
00000000
00000010
00000100
,
00000000
00001000
00000001
00001000
00000002
00000000
00000003
00000000
,
00000001
00000000
00000100
00000000
00001000
00000000
00010000
00100000
,
00000000
00100000
01000000
00100000
01000000
00000000
01100000
00000000
,
00000000
00000000
00000000
00000000
;
#NOTES:
     dance-double:
     :
     Hard:
     16:
     :
00000000
00000000
00000000
00000000
,
00000000
00000000
00000000
00000000
,
00000000
00000000
00000000
00000000
,
00000000
00000000
00000000
00000000
,
00000000
00000000
00000000
00000000
,
00000000
00000000
00000000
00000000
,
00000000
00000000
00000000
00000000
,
00001000
00000000
00010000
00000000
00001000
00000000
00010000
00000000
00100000
00000000
01000000
00100000
00000000
00100000
10000000
00000000
,
00010000
00000000
01000000
10000000
01000000
00000000
00010000
00000000
00100000
00000000
00001000
00000000
00010000
00000000
00000010
00000000
,
00001000
00000000
00000100
00000000
00000010
00000000
00000001
00000000
00000100
00000000
00000010
00001000
00000000
00001000
00000001
00000000
,
00000010
00000000
00000100
00000000
00000001
00000100
00001000
00000000
00000010
00000000
00000100
00000000
00001000
00000000
00010000
00000000
,
00100000
00000000
10000000
00000000
00010000
01000000
00000000
00010000
00000000
00000000
10000000
00000000
01000000
00000000
00100000
00000000
,
00010000
00000000
00100000
00001000
00000000
00100000
00001000
00000000
00000000
00000000
00001000
00000000
00001000
00000000
00010000
00000000
,
00000000
00000000
00001000
00000000
00010000
00000100
00000000
00000100
00000010
00000000
00000010
00000001
00000000
00000001
00001000
00000000
,
00000000
00000001
00000100
00000000
00000100
00001000
00000000
00010000
00100000
00000000
00100000
10000000
00000000
00010000
01000000
00000000
,
00100000
00000000
00000000
10100000
00000000
00000000
00000000
00000000
,
10000000
00000000
00000000
11000000
00000000
00000000
00000000
00000000
,
01000000
00000000
00000000
01010000
00000000
00000000
00000000
00000000
,
00010000
00000000
00000000
00000000
00000000
00000000
00011000
00000000
00000000
00000000
00001000
00010000
00000000
00000000
00001000
00010000
,
00000010
00000000
00000000
00001010
00000000
00000000
00000000
00000000
,
00001000
00000000
00000000
00001001
00000000
00000000
00000000
00000000
,
00000001
00000000
00000000
00000000
00000000
00000000
00000101
00000000
00000000
00000000
00000000
00000000
00000001
00000100
00000020
00000000
,
00000000
00000000
00001030
00000001
00001000
00000000
00000100
00010000
00000100
00000000
00010000
00000000
00001000
00000000
00010000
00000000
,
01000000
00000000
00100000
00010000
00000000
00100000
00010000
00000000
10000000
00000000
00100000
01000000
00100000
00000000
10000000
00000000
,
00010000
00000000
00100000
00001000
00000000
00100000
00001000
00000000
00010000
00000000
00001000
00000000
00000010
00000000
00000001
00000000
,
00000000
00000001
00000100
00001000
00000100
00001000
00010000
00001000
,
00000000
00000000
00001000
00000000
00010000
00000000
00100000
00000000
20000000
00000000
00000000
00100000
00000000
00000000
30000000
00000000
,
10000000
00100000
00000000
01000000
00100000
00000000
01000000
00010000
00000000
00000000
10000000
00010000
10000000
00000000
01000000
00000000
,
00100000
00001000
00000000
00001000
00010000
00000000
00001000
00000000
00000000
00000000
00010000
00000000
00001000
00000000
00000010
00000000
,
00000000
00000010
00000001
00001000
00000010
00000100
00000010
00001000
,
00000001
00000000
00000100
00000000
00000001
00000000
00001000
00000000
00000100
00000000
00001000
00000000
00000100
00000000
00000000
00010000
00000000
00000000
00001000
00000000
00000000
00010000
00000000
00000000
,
00000000
00010000
01000000
10000000
00000000
00100000
10000000
01000000
,
00000000
01000000
00100000
00010000
00000000
00100000
00001000
00010000
,
00000000
00000100
00010000
00001000
00000000
00010000
00001000
00000100
,
00000000
00000100
00000001
00001000
00000000
00000001
00000010
00000011
,
00000000
00000001
00000100
00001000
00000000
00010000
00001000
00011000
,
00000000
00010000
00001000
00010000
00000000
00010000
00100000
01000000
,
00001000
00010000
00010000
01000000
00010000
00010000
00000100
00001000
,
00001000
00010000
00001000
00001000
00000100
00000010
00001000
00020000
,
01000000
00000000
00001000
00000000
00100000
00000000
00031000
00010000
,
00000000
00022000
00000000
00033000
00000000
00000000
00000000
00000000
,
00001000
00000000
00010000
01000000
00100000
00000000
00010000
01000000
00100000
00000000
00010000
00100000
01000000
00000000
00010000
10000000
,
01000000
00000000
00010000
00000000
00001000
00000000
00100000
00000000
01000000
00000000
00010000
01000000
10000000
00000000
00010000
00000000
,
00110000
00000000
11000000
00000000
00110000
00000000
10000000
00100000
,
00010000
00001000
00001000
00000100
00000100
00000001
00000001
00000000
,
00000001
00000000
00000100
00000010
00000100
00000000
00001000
00000000
00010000
00001000
00010000
00000000
00100000
00000000
01000000
00100000
,
01000000
00000000
10000000
01000000
00010000
00000000
10000000
01000000
00100000
00000000
01000000
00100000
00010000
00000000
00000000
00000000
,
10000000
00000000
01000000
00100000
00010000
00000000
00100000
00001000
00010000
00000000
00001000
00010000
00000100
00000000
00002000
00000000
,
00000000
00000001
00000001
00000001
00003001
00000000
00001001
00000000
,
00000001
00000000
00000100
00000000
00001000
00000000
00010000
00000000
00100000
10000000
01000000
00000000
00010000
00000000
00001000
00000000
,
00000010
00000000
00000001
00000000
00000100
00000000
00001000
00000000
00010000
00001000
00010000
00001000
00010000
00000000
00001000
00000000
,
01001000
00000000
01000000
00000000
01010000
00000000
00010000
00000000
00110000
00000000
00100000
01000000
10000000
00000000
00010000
00000000
,
00000000
00010000
02000000
00000000
13000000
01000000
00010000
10000000
,
01000000
00000000
00000000
00000000
01000000
00000000
00010000
00000000
00001000
00000000
00000010
00000001
00000010
00000000
00000001
00000000
,
00000000
00000000
00000001
00000100
00000010
00000000
00001000
00000100
00000010
00000000
00000100
00010000
00001000
00000000
00010000
00000000
,
00011000
00001000
01000000
00010000
00110000
00100000
01000000
11000000
,
00000000
00000000
10000000
01000000
00100000
00000000
00001000
00010000
00001000
00000000
00000000
00000000
00011000
00000000
00000000
00000000
,
00000000
00010000
00001000
00000010
00000001
00001000
00000000
00001001
,
00000000
00000001
00000100
00000010
00000100
00001000
00000000
00011000
,
00000000
00000000
00010000
00000000
00001000
00000000
00010000
00000000
01000000
00000000
00100000
00010000
00000000
00100000
00010000
00000000
,
10000000
00000000
00000000
00000000
00000000
00000000
00100000
00000000
00000000
01000000
00000000
00000000
00000000
00000000
00000000
00100000
00000000
00000000
01000000
00000000
00000000
00000000
00000000
00000000
10000000
00000000
00000000
00000000
00000000
00000000
00000000
00000000
01000000
00000000
00000000
00000000
00100000
00000000
00000000
00000000
01000000
00000000
00000000
00000000
00010000
00000000
00000000
00000000
,
01000000
00000000
00001000
00000000
00010000
00000000
00001000
00000000
00010000
00000000
00000000
00011000
00000000
00000000
00010000
00000000
,
00001000
00000000
00000010
00000100
00000010
00000000
00000001
00000000
00001000
00000000
00000000
00001001
00000000
00000000
00000001
00000000
,
00000000
00000001
00000010
00000100
00000010
00001000
00000000
00001000
,
00020000
02030000
23000000
30020000
,
10030000
01000000
00100000
00010000
00001000
00000100
00000010
00000001
,
00000011
00001100
00001010
00000101
,
00000001
00000100
00000010
00001000
00010000
01000000
00100000
10000000
,
10100000
01010000
00110000
11000000
,
10000000
01000000
00010000
01000000
10000000
00100000
01000000
00010000
,
00100000
00000000
00001000
00000000
00010000
00000000
00001000
00000000
00000010
00000001
00000000
00000100
00000001
00000000
00000010
00000001
,
00000020
00002030
00023000
02030000
,
03200000
00302000
00023000
00230000
,
00300000
00000000
00000000
00000000
,
00000000
00000000
00000000
00000000
,
00000000
00000000
00000000
00000000
,
00011000
00000000
00000000
00000000
00000000
00000000
00000000
00000110
,
00000000
00000000
00000001
00001000
00000001
00000000
00000100
00000000
00000010
00001000
00000010
00000000
00010000
00001000
00010000
00000000
,
00011000
00000000
00000000
00000000
00000000
00000000
00000000
00010000
,
00001000
00000000
00000010
00000000
00001000
00000000
00010000
00000000
00100000
00000000
10000000
00010000
00000000
00000000
00000000
00000000
,
10000000
00000000
00100000
01000000
00100000
00000000
00010000
00000000
00001000
00010000
00001000
00000000
00000100
00000000
00000010
00000100
,
00000010
00000000
00000001
00000010
00001000
00000000
00000001
00000010
00000100
00000000
00000010
00000100
00001000
00000000
00000000
00000000
,
00000001
00000000
00000010
00000100
00001000
00000000
00000100
00010000
00001000
00000000
00010000
00001000
00100000
00000000
00020000
00000000
,
00000000
10000000
10000000
10000000
10030000
00000000
10010000
00000000
,
10000000
00000000
00100000
00000000
00010000
00000000
00001000
00000000
00000100
00000001
00000010
00000000
00001000
00000000
00010000
00000000
,
01000000
00000000
10000000
00000000
00100000
00000000
00010000
00000000
00001000
00010000
00001000
00010000
00001000
00000000
00010000
00000000
,
00010010
00000000
00000010
00000000
00001010
00000000
00001000
00000000
00001100
00000000
00000100
00000010
00000001
00000000
00001000
00000000
,
00000000
00001000
00000020
00000000
00000031
00000010
00001000
00000001
,
00000010
00000000
00000000
00000000
00000010
00000000
00001000
00000000
00010000
00000000
01000000
10000000
01000000
00000000
10000000
00000000
,
00000000
00000000
10000000
00100000
01000000
00000000
00010000
00100000
01000000
00000000
00100000
00001000
00010000
00000000
00001000
00000000
,
00011000
00010000
00000010
00001000
00001100
00000100
00000010
00000011
,
00000000
00000000
00000001
00000010
00000100
00000000
00010000
00001000
00010000
00000000
00000000
00000000
00011000
00000000
00000000
00000000
,
00002000
00000000
00023000
00000000
00230000
00000000
00310000
00001000
,
00000000
00000000
00001000
00000010
00000001
00000000
00000100
00000000
00001000
00000000
00000000
00000000
00011000
00000000
00000000
00000000
,
00000000
00000000
00000000
00000000
;
