
//----- song ID: mete -----//
#TITLE:Meteor;
#ARTIST:BEMANI Sound Team "MAX MAXIMIZER";
#BANNER:Meteor.png;
#BACKGROUND:Meteor-bg.png;
#CDTITLE:./CDTitles/DDR WORLD.png;
#MUSIC:Meteor.ogg;
#SAMPLESTART:25.028;
#SAMPLELENGTH:15;
#BPMS:0=220,8=110,16=220,37=55,41=220,137=110,153=220,217=55,221=110,223=440,247=110,249=440,273=110,275=440,299=110,301=440,325=220,373=440,405=110;
#NOTES:
     dance-single:
     :
     Beginner:
     5:
     :
0000
0000
0000
0000
,
0000
0000
0000
0000
,
0000
0000
0000
0000
,
0000
0000
0000
0000
,
0002
0000
0000
0000
,
0000
0000
0000
0003
,
2000
0000
0000
0000
,
0000
0000
0000
0000
,
0000
0000
0000
0000
,
0000
3000
0000
0000
,
0000
0001
0000
0000
,
0000
0001
0000
0000
,
0000
1000
0000
0000
,
0000
1000
0000
0000
,
0000
0010
0000
0000
,
0000
0100
0000
0000
,
0000
0001
0000
0000
,
0000
1000
0000
0000
,
0000
0010
0000
1000
,
0000
0010
0000
0000
,
0000
1000
0000
0001
,
0000
1000
0000
0000
,
0000
0001
0000
0010
,
0000
0001
0000
0000
,
0000
0010
0000
0100
,
0000
0010
0000
0000
,
0000
0100
0000
1000
,
0000
0100
0000
0000
,
0000
1000
0000
0001
,
0000
1000
0000
0000
,
0000
0001
0000
0010
,
0000
0001
0000
0000
,
0000
0010
0000
0001
,
0000
1000
0000
0001
,
0000
1001
0000
0000
,
0000
0001
0000
0000
,
0000
1000
0000
0000
,
0000
0010
0000
0000
,
0000
1000
0000
0000
,
0000
1000
0000
0000
,
0000
0001
0000
0000
,
0000
0001
0000
0000
,
0000
0100
0000
0010
,
0000
0100
0000
0010
,
0000
0100
0000
0010
,
0000
0100
0000
0000
,
0000
0110
0000
0000
,
0000
0000
0000
0000
,
0000
1001
0000
0000
,
0000
0000
0000
0000
,
0000
1000
0000
0000
,
0000
1000
0000
0000
,
0000
0010
0000
0100
,
0000
0010
0000
1000
,
0000
0001
0000
0000
,
0000
1000
0000
0001
,
0000
0000
0000
0000
,
0000
0000
0000
0100
,
0000
0000
0000
0000
,
0000
0000
0000
0010
,
0000
0000
0000
0000
,
0000
0000
0000
0100
,
0000
0010
0000
0000
,
0000
0000
0000
0000
,
0000
1000
0000
0000
,
0000
0000
0000
0000
,
0000
0001
0000
0000
,
0000
0000
0000
0000
,
0000
1000
0000
0001
,
0000
0000
0000
0000
,
0000
0000
0000
0010
,
0000
0000
0000
0000
,
0000
0000
0000
0100
,
0000
0000
0000
0000
,
0000
0000
0000
0010
,
0000
0001
0000
0000
,
0000
0000
0000
0000
,
0000
1000
0000
0000
,
0000
0000
0000
0000
,
0000
0001
0000
0000
,
0000
0000
0000
0000
,
0000
1000
0000
0000
,
0000
1000
0000
0000
,
0000
0010
0000
0000
,
0000
0010
0000
0000
,
0000
0100
0000
0000
,
0000
0100
0000
0000
,
0000
0001
0000
0000
,
0000
0001
0000
0000
,
0000
1000
0000
0000
,
0000
0100
0000
0000
,
0000
1000
0000
0000
,
0000
0100
0000
0000
,
0000
0010
0000
0000
,
0000
0000
0000
0000
,
0000
0001
0000
0000
,
0000
0000
0000
0000
,
0000
0010
0000
0000
,
0000
0000
0000
0000
,
0000
0001
0000
0000
,
0000
0000
0000
0000
,
0000
2000
0000
0000
,
0000
0000
0000
0000
,
0000
3000
0000
0000
,
0000
0000
0000
0000
;
#NOTES:
     dance-single:
     :
     Easy:
     10:
     :
0000
0000
0000
0000
,
0000
0000
0000
0000
,
0000
0000
0000
0000
,
0000
0000
0000
0000
,
0002
0000
0000
0000
,
2003
0000
0000
0000
,
3020
0000
0000
0000
,
0000
0000
0000
0000
,
0000
0000
0000
0000
,
0000
0130
0110
1001
,
0000
1001
0000
0000
0000
0000
0000
0000
2000
0000
3000
0000
0000
0000
0000
0000
0100
0000
0000
0000
0000
0000
0000
0000
1000
0000
0000
0000
0000
0000
0000
0000
,
0100
1000
0001
0010
,
0100
0010
0001
0010
,
0001
1000
0010
0100
,
0001
0000
1000
0000
1000
0000
0000
1100
,
0000
0000
0001
0000
0001
0000
0000
0101
,
0000
0000
0100
0000
0100
0000
0000
0110
,
0000
0010
0010
1000
,
0001
0100
0001
0010
,
0100
0010
0001
1000
,
0010
1000
0100
1000
,
0001
0000
0010
0000
0000
0100
0000
0000
,
0010
0001
1000
0010
,
0100
0001
0010
0100
,
1000
0010
0100
0010
,
1000
0000
0001
0000
0000
0100
0000
0000
,
0001
1000
0010
0100
,
0001
1000
0100
0010
,
0001
0100
0010
0100
,
0001
0000
1000
0000
0000
0010
0000
0000
,
1000
0001
0100
0010
,
1000
0100
0010
0001
,
1000
0001
0010
0100
,
1000
0001
1000
1001
,
0000
0000
0000
0000
0002
0003
0000
0000
0100
0000
0000
0000
0010
0000
0000
0000
,
0000
1000
0100
0010
,
0000
0001
1000
0100
,
0000
1000
0001
0100
,
0010
0110
0110
1010
,
0000
1001
1001
0101
,
0000
0011
0011
1010
,
0000
1100
1100
0101
,
0000
1000
0010
1000
,
0010
0100
0001
0100
,
0001
0010
0100
0010
,
0100
1000
0000
0001
,
0000
0000
0100
0000
0000
1001
0000
0000
,
0000
0000
0010
0000
0000
1001
0000
0000
,
0000
0000
0100
0000
0000
1001
0000
0000
,
0000
0000
0010
0000
0000
1001
0000
0000
,
0000
0000
0001
0000
0100
0000
0001
0100
,
0001
0000
1000
0000
0100
0000
1000
0100
,
1000
0010
0100
0010
,
0100
0000
0010
1000
0010
0000
0100
0001
,
0100
0001
0000
0000
,
0000
0000
0000
0000
2002
3003
0000
0000
0000
0000
0000
0000
2000
3000
0000
0000
,
0000
0001
0000
1000
,
0000
0001
0000
1000
,
0000
0001
0000
1000
,
0000
0001
0000
1000
,
0000
0010
0100
0010
,
0000
0000
0000
0000
0000
0000
0000
0000
0000
0000
0000
0000
0220
0330
0000
0000
,
0000
0000
0000
0000
0002
0003
0000
0000
0000
0000
0000
0000
1000
0000
0000
0000
,
0000
0001
0000
1000
,
0000
0001
0000
0001
,
0000
0010
0000
0010
,
0000
0100
0000
0100
,
0000
1000
0000
0000
,
0000
0000
0000
0000
2002
3003
0000
0000
0000
0000
0000
0000
2000
3000
0000
0000
,
0000
0001
0000
1000
,
0000
0001
0000
1000
,
0000
0001
0000
1000
,
0000
0001
0000
1000
,
0000
0100
0010
0100
,
0000
0000
0000
0000
0000
0000
0000
0000
0000
0000
0000
0000
0220
0330
0000
0000
,
0000
0000
0000
0000
2000
3000
0000
0000
0000
0000
0000
0000
0001
0000
0000
0000
,
0000
1000
0000
0001
,
0000
1000
0000
0010
,
0000
0010
0000
0100
,
0000
0100
0000
0001
,
0000
1000
0000
0000
,
0000
0000
0000
0000
0002
0003
0000
0000
0010
0000
0000
0000
0200
0000
0000
0000
,
0000
0310
0001
2000
,
0000
3010
0100
0020
,
0000
1030
0001
1001
,
0000
1000
0100
0020
,
0000
0130
1000
0002
,
0000
0023
0000
0230
,
0000
2300
0000
3020
,
0000
0000
0000
1030
0000
0000
0000
0000
0000
0001
0000
0100
,
0000
0001
0000
0100
0000
0000
0000
0000
0000
0010
0000
1000
,
0000
0010
0000
1000
0000
0000
0000
0000
0000
0001
0000
0010
,
0000
0001
0000
0010
0000
0000
0000
0000
0000
0100
0000
1000
,
0000
0000
0000
0000
0100
0000
0000
0000
0000
0000
0000
0000
2000
0000
0000
3000
0000
0000
0000
0000
0000
0000
0000
0000
0000
0000
0000
0000
0000
0000
0000
0000
0000
0000
0000
0000
0000
0000
0000
0000
0000
0000
0000
0000
0000
0000
0000
0000
,
0000
0000
0000
0010
0000
0000
0000
0100
0000
0000
0000
0010
,
0000
0100
0000
0000
,
0000
0000
0000
0001
0000
0000
0000
1000
0000
0000
0000
0001
,
0000
0000
0000
1000
0000
0000
0000
0000
0000
0000
0000
0001
,
0000
0000
0000
0010
0000
0000
0000
0000
0000
0000
0000
0100
,
0000
0000
0000
1000
0000
0000
0000
0000
0000
0000
0000
0001
,
0000
0000
0000
0100
0000
0000
0000
0010
0000
0000
0000
1000
,
0000
0002
0000
0000
,
0000
0000
0000
0000
,
0000
0003
0000
0000
,
0000
0000
0000
0000
;
#NOTES:
     dance-single:
     :
     Medium:
     13:
     :
0000
0000
0000
0000
,
0000
0000
0000
0000
,
0000
0000
0000
0000
,
0000
0000
0000
0000
,
2000
3000
0000
0000
0010
0000
0000
0000
0100
0000
0000
0000
0001
0000
0000
0000
,
0010
0100
1000
0001
,
0100
0010
1000
0001
,
0010
0100
1000
0100
,
0010
0001
1000
0010
,
0100
0001
1001
0110
,
0000
0000
0000
0110
0000
0000
0000
0000
0000
0000
0000
0000
0000
0000
0000
0000
0000
0000
0000
0000
0000
0000
0000
0000
0002
0000
0000
0000
0000
0000
0003
0000
0000
0000
0000
0000
0000
0000
0000
0000
0100
0000
0000
0000
0000
0000
0000
0000
0010
0000
0000
0000
0000
0000
0000
0000
0000
0000
0000
0000
0000
0000
0000
0000
0000
0000
0000
0000
0000
0000
0000
0000
1000
0000
0000
0000
0000
0000
0000
0000
0000
0000
0000
0000
0000
0000
0000
0000
0100
0000
0000
0000
0000
0000
0000
0000
,
0010
0000
0000
0001
0000
1000
0010
0000
0010
0100
0000
0100
,
0001
0000
0000
1000
0000
0100
0010
0000
0000
0001
0000
0100
,
0010
0000
0000
1000
0000
0001
0010
0000
0010
0100
0000
0100
,
1000
0000
0001
0000
0101
0000
0000
0100
,
0000
0001
0010
0000
0110
0000
0000
0100
,
0000
1000
0010
0000
0110
0000
0000
0100
,
0000
0001
1000
0000
1001
0000
1000
0010
,
0100
0001
0100
0000
0010
0000
1000
0100
,
0000
0010
0100
0000
1000
0010
0000
0001
,
0010
0000
1000
0000
0100
0000
0010
0001
,
0000
1000
0001
0000
1000
0010
0000
1000
,
0100
0000
0010
0000
0001
0000
0010
0100
,
0000
0010
0001
0000
1000
0100
0000
0001
,
0100
0000
1000
0000
0010
0000
0100
0010
,
0000
1000
0100
0000
1000
0010
0000
0100
,
0001
0000
0010
0000
0001
0000
0100
0010
,
0000
0100
1000
0000
0100
0010
0000
0100
,
0001
0000
1000
0000
0100
0000
0010
0001
,
0000
1000
0010
0000
0001
0010
0000
1000
,
0100
0000
1000
0000
0001
0000
0010
0100
,
0000
0010
1000
0000
0010
0100
0000
0010
,
0001
0000
0100
0000
0010
0000
1000
0001
,
0000
0010
0100
0000
1100
0000
1000
0010
,
0100
0000
0000
0000
0002
0003
0000
0000
1000
0000
0000
0000
0010
0000
0100
0000
,
0010
0000
1000
0100
0001
0000
0001
0100
,
1000
0000
0001
0000
1000
0000
0010
0100
,
0010
0000
0100
0001
0100
0001
0010
0100
,
1000
0000
0000
0000
0002
0003
0000
0000
0001
0000
0000
0000
1001
0000
0000
0000
,
1001
0100
0100
0110
,
0110
0010
0010
1010
,
0011
0001
0001
0101
,
1100
0000
1000
0100
1000
0000
0001
0100
,
0001
0000
0100
0010
0100
0000
0010
1000
,
0010
0000
1000
0100
1000
0100
0010
0001
,
0010
0000
0000
0001
0000
0000
1000
0000
0000
0000
0010
0000
0000
0000
1000
0000
0000
0000
0001
0000
0000
0000
0100
0000
,
0000
0000
0001
0000
0000
0000
1000
0000
0000
0000
0000
0000
0000
0000
0000
1001
0000
0000
0000
0000
0000
0000
0000
0000
,
0000
0000
0010
0000
0000
0110
0000
0000
,
0000
0000
0001
0000
0000
0011
0000
0000
,
0000
0000
0000
0000
0000
0000
1000
0000
0000
0000
0000
0000
0000
0000
0000
1100
0000
0000
0001
0000
0000
0000
1000
0000
,
0000
0000
0001
0000
0000
0000
0100
0000
0000
0010
0000
0000
0100
0000
0000
0010
0000
0000
1000
0000
0000
0001
0000
0000
,
1000
0000
0001
0010
0001
0010
0100
1000
,
0100
0000
1000
1000
0001
0001
1000
1000
,
0001
0001
0100
0010
0100
0010
0100
0010
,
0100
0010
0100
0000
0000
0000
0000
0000
,
0000
0000
0000
0000
0220
0330
0000
0000
0000
0000
0000
0000
0002
0003
0000
0000
,
1000
0001
1000
0001
,
1000
0001
1000
0001
,
1000
0001
1000
0001
,
1000
0001
1000
0001
,
1000
0001
1000
0001
,
0000
0000
0000
0000
0000
0000
0000
0000
0000
0000
0000
0000
2002
3003
0000
0000
,
0000
0000
0000
0000
0200
0300
0000
0000
0010
0000
0000
0000
0100
0000
0000
0000
,
0010
0100
0010
0100
,
0010
0100
0000
0010
,
0100
0010
0000
1000
,
0001
1000
0000
0010
,
0100
0000
0000
0010
0000
0000
0000
1000
0000
0000
0000
0001
,
0000
0000
0000
0000
2002
3003
0000
0000
0000
0000
0000
0000
2000
3000
0000
0000
,
0001
1000
0001
1000
,
0001
1000
0001
1000
,
0001
1000
0001
1000
,
0001
1000
0001
1000
,
0001
1000
0001
1000
,
0000
0000
0000
0000
0000
0000
0000
0000
0000
0000
0000
0000
2002
3003
0000
0000
,
0000
0000
0000
0000
0020
0030
0000
0000
0100
0000
0000
0000
0010
0000
0000
0000
,
0100
0010
0100
0010
,
0100
0010
0000
0100
,
0010
0100
0000
0001
,
1000
0001
0000
1000
,
0001
0100
0010
0100
,
0010
0000
0000
0000
2000
3000
0000
0000
0001
0000
0000
0000
0010
0000
0001
0000
,
0010
0000
0001
0000
0100
0000
0010
1000
,
0010
0000
1000
0000
0100
0000
0010
0100
,
0010
0000
0000
0001
0000
0000
0100
0000
0000
0010
0000
0100
,
0000
0000
0010
0000
0000
0000
1000
0000
0000
0000
0000
0000
0100
0000
0000
0000
0000
0000
0010
0000
0000
0001
0000
0000
,
0010
0000
0001
0000
0100
0000
0010
1000
,
0010
0000
0000
1000
0000
0100
0000
1000
0000
0001
0000
0100
,
0000
0001
0000
0010
0000
0010
0000
0010
0000
0100
0000
0100
,
0000
0100
0000
1000
0000
0010
0000
1000
0000
0001
0000
0010
,
0000
1000
0000
0010
0000
0001
0000
0010
0000
0001
0000
0100
,
0000
1000
0000
0100
0000
0010
0000
0100
0000
0010
0000
1000
,
0000
0100
0000
0010
0000
0100
0000
0010
0000
0001
0000
0100
,
0000
0000
0000
0000
0010
0000
0000
0000
0000
0000
0000
0000
2000
0000
0000
3000
0000
0000
0000
0000
0000
0000
0000
0000
0000
0000
0000
0000
0100
0000
0000
0000
0000
0000
0000
0000
0000
0000
0000
0000
0000
0000
0000
0000
0010
0000
0000
0000
,
0000
0000
0000
0001
0000
0000
0000
1000
0000
0000
0000
0001
,
0000
0000
0000
0100
0000
0000
0000
0010
0000
0000
0000
1000
,
0000
0000
0000
0001
0000
0000
0000
0010
0000
0000
0000
0001
,
0000
0000
0000
1000
0000
0000
0000
0010
0000
0000
0000
1000
,
0000
0000
0000
0001
0000
0000
0000
0100
0000
0000
0000
0001
,
0000
0000
0000
0010
0000
0000
0000
0100
0000
0000
0000
1000
,
0000
0000
0000
0010
0000
0000
0000
0100
0000
0000
0000
0001
,
0000
2000
0000
0000
,
0000
0000
0000
0000
,
0000
3000
0000
0000
,
0000
0000
0000
0000
;
#NOTES:
     dance-single:
     :
     Hard:
     16:
     :
0000
0000
0000
0000
,
0000
0000
0000
0000
,
0000
0000
0000
0000
,
0000
0000
0000
0000
,
2000
0000
0000
3000
0000
0000
0000
0000
0001
0000
0000
0000
0000
0000
0000
0000
1000
0000
0000
0000
0000
0000
0000
0000
0001
0000
0000
0000
0000
0000
0000
0000
0100
0000
0000
0000
0000
0000
0000
0000
0010
0000
0000
0000
0000
0000
0000
0000
,
0100
0010
1000
0001
0010
0100
,
0001
1000
0010
0001
1000
0010
,
0001
1000
0001
0010
0100
1000
,
0100
0001
0010
0100
1000
0100
,
0010
0001
0010
0001
0000
0000
1001
0000
0000
0110
0000
0000
,
0000
0000
0000
0110
0000
0000
0000
0000
0000
0000
0000
0000
0000
0000
0000
0000
0000
0000
0000
0000
0000
0000
0000
0000
0002
0000
0000
0000
0000
0000
0003
0000
0000
0000
0000
0000
0000
0000
0000
0000
0001
0000
0000
0000
0000
0000
0000
0000
0100
0000
0000
0000
0000
0000
0000
0000
0000
0000
0000
0000
0000
0000
0000
0000
0100
0000
0000
0000
0000
0000
0000
0000
0010
0000
0000
0000
0000
0000
0000
0000
0000
0000
0000
0000
0000
0000
0000
0000
0010
0000
0000
0000
0000
0000
0000
0000
,
1000
0010
0100
0001
0000
0001
0010
0000
0010
0100
0000
0100
,
1000
0100
0010
0001
0000
0001
1000
0000
1000
0010
0000
0010
,
0100
0001
0100
0010
0000
0010
1000
0000
1000
0100
0000
0100
,
0010
0000
0001
0000
0010
0000
0001
0000
0000
0100
0000
0000
0001
0000
0000
0100
0000
0000
0000
0000
0000
0010
0000
0000
,
0000
1000
0100
0010
0100
0010
0000
0001
,
0000
1000
0010
0100
0010
0100
0000
0001
,
0000
0000
0010
0000
0100
0000
1000
0000
0100
0000
1000
0000
0001
0010
0001
0000
,
1000
0100
1000
0000
0001
0000
0010
0000
0001
0000
0100
0000
0010
0000
1000
0000
,
0001
0100
0010
0010
1000
0100
0010
0001
,
1000
0001
1000
1000
0010
0100
0001
0001
,
1000
0010
1010
0000
0101
0100
0000
0001
,
0011
0000
1000
0010
1000
0100
0010
0001
,
1000
0100
0010
0010
0001
0100
0010
1000
,
0001
1000
0001
0001
0100
0010
1000
1000
,
0001
0010
0011
0000
1100
0000
1000
1000
,
0010
0010
0100
0001
0010
0001
1000
0010
,
0100
0001
1000
1000
0001
0100
1000
0100
,
0010
0100
0001
0001
1000
0100
0010
0010
,
0100
1000
1100
0000
0011
0001
0000
1000
,
1010
0000
0001
0100
0001
0010
0100
0010
,
0001
1000
0010
0010
1000
0100
0010
0100
,
0001
0100
1000
1000
0010
0100
0001
0001
,
0010
0100
0110
0000
1001
0000
1000
0100
,
0010
0000
0001
0000
0200
0300
0000
0000
0001
0000
1000
0001
0100
0000
0100
0000
,
0010
0000
0000
0000
1000
0000
0100
0000
0010
0000
0001
1000
0100
0000
0100
0000
,
1000
0000
1001
0000
0001
0000
0010
0000
0100
0000
1000
0010
0100
0000
0100
0000
,
0001
0000
1000
0100
1000
0100
0010
0001
,
0011
0000
0011
0000
2002
3003
0000
0000
1001
0000
0000
0000
1100
0000
0000
0000
,
1000
0010
0110
0000
0110
0000
1010
0000
,
0001
0010
0110
0000
0110
0000
1100
0000
,
0001
0100
0101
0000
1010
0000
1100
0000
,
0101
0000
1000
0010
1000
0010
1000
0100
,
0010
0001
0010
0100
0010
0100
1000
0001
,
0010
0000
0100
0000
1000
0100
1000
0000
0010
0000
0100
0000
0001
0010
0001
0000
,
0100
0000
0000
0010
0000
0000
1010
0000
0000
0000
0001
0000
0000
0000
1000
0000
0000
0000
1100
0000
0000
0000
0001
0000
,
0000
0000
0010
0000
0000
0000
0110
0000
0000
0000
0000
0000
0000
0000
0000
1001
0000
0000
0000
0000
0000
0000
0000
0000
,
0000
0000
0110
0000
0000
1001
0000
0000
,
0000
0000
0011
0000
0000
0101
0000
0000
,
0000
0000
0000
0000
0000
0000
1010
0000
0000
0000
0000
0000
0000
0000
0000
1100
0000
0000
1000
0000
0000
0000
0001
0000
,
0000
0000
0000
0000
1000
0000
0000
0000
0000
0000
0000
0000
0001
0000
0000
0100
0000
0000
0001
0000
0000
0000
0000
0000
0100
0000
0000
0000
0000
0000
0010
0000
0000
1000
0000
0000
0010
0000
0000
0000
0000
0000
1000
0000
0000
0000
0000
0000
,
0001
0000
0010
0000
0100
1000
0100
0000
1000
0000
0010
0100
0010
0000
0100
0000
,
0001
1000
0001
0001
0010
0010
0100
0100
,
1000
0000
1000
0000
0010
0000
0010
0000
0010
0000
0010
0000
0100
0010
0100
0010
,
0100
0010
0100
0010
0100
0000
0000
0000
0000
0000
0000
0000
0000
0000
0000
0000
,
0000
0000
0000
0000
2002
3003
0000
0000
0000
0000
0000
0000
0002
0003
0000
0000
,
0100
0001
0100
0001
,
0100
0000
0001
0000
0100
0000
0001
0100
,
0001
0100
0001
0000
0000
0000
0100
0001
,
0100
0001
0100
0000
0000
0000
0010
1000
,
0010
1000
0010
0100
0001
0100
0001
0000
,
0000
0000
0000
0000
0000
0000
0000
0000
0000
0000
0000
0000
2002
3003
0000
0000
,
0000
0000
0000
0000
2000
3000
0000
0000
0100
0000
0000
0000
1000
0000
0000
0000
,
0100
1000
0100
1000
,
0100
0000
1000
0000
0000
0000
0001
1000
,
0001
1000
0001
0000
0000
0000
0100
0010
,
0100
0010
0100
0000
0000
0000
0001
0010
,
0100
0000
0000
1000
0000
0000
0001
0000
0000
0000
0000
0000
0000
0000
1000
0000
0000
0000
0000
0000
0000
0000
0001
0000
,
0000
0000
0000
0000
2002
3003
0000
0000
0000
0000
0000
0000
2000
3000
0000
0000
,
0100
1000
0100
1000
,
0100
0000
1000
0000
0100
0000
1000
0100
,
1000
0100
1000
0000
0000
0000
0100
1000
,
0100
1000
0100
0000
0000
0000
0010
0001
,
0010
0001
0010
0100
1000
0100
1000
0000
,
0000
0000
0000
0000
0000
0000
0000
0000
0000
0000
0000
0000
2002
3003
0000
0000
,
0000
0000
0000
0000
0002
0003
0000
0000
0100
0000
0000
0000
0001
0000
0000
0000
,
0100
0001
0100
0001
,
0100
0000
0001
0000
0000
0000
1000
0001
,
1000
0001
1000
0000
0000
0000
0100
0010
,
0100
0010
0100
0000
0000
0000
1000
0001
,
1000
0001
1000
0000
0010
0000
0100
0000
,
0010
0000
0000
0000
2000
3000
0100
0000
1000
0000
0100
0000
0010
0000
0001
0000
,
0010
0000
0001
0100
0001
0100
0010
1000
,
0010
0000
1000
0100
0010
0001
1000
0100
,
0010
0000
0000
0000
0000
0000
0001
0000
0000
0100
0000
0000
0010
0000
0000
1000
0000
0000
0001
0000
0000
0000
1000
0000
,
0000
0000
0001
0000
0000
0000
1000
0000
0000
0100
0000
0000
0001
0000
0000
0100
0000
0000
1000
0000
0000
0010
0000
0000
,
0100
0000
0001
0010
1000
0010
0001
0100
,
0010
0000
0000
1001
0000
0010
0000
0010
0000
1001
0000
0100
,
0000
0100
0000
1100
0000
0001
0000
0001
0000
0011
0000
1000
,
0000
1000
0000
1010
0000
0001
0000
0001
0000
0100
0000
0010
,
1000
0100
0000
1100
0000
0001
0000
0001
0000
1000
0000
0100
,
0010
0001
0000
0011
0000
1000
0000
1000
0000
0100
0000
0010
,
0001
0100
0000
0101
0000
1000
0000
1000
0000
0001
0000
0100
,
0010
0000
0000
0000
1000
0000
0000
0000
0000
0000
0000
0000
0002
0000
0000
0003
0000
0000
0000
0000
0100
0000
0000
0000
0000
0000
0000
0000
0001
0000
0000
0000
0000
0000
0000
0000
1000
0000
0000
0000
0000
0000
0000
0000
0010
0000
0000
0000
,
0000
0100
0000
0001
0000
0010
0000
0001
0000
1000
0000
0100
,
0000
0010
0000
0001
0000
0000
0000
0100
0000
0000
0000
1000
,
0000
0000
0000
0001
0000
0000
0000
0010
0000
0000
0000
1000
,
0000
0000
0000
0100
0000
0010
0000
0100
0000
1000
0000
0001
,
0000
1000
0000
0010
0000
0100
0000
0001
0000
1000
0000
0100
,
0000
0010
0000
0001
0000
0100
0000
0001
0000
1000
0000
0001
,
0000
0010
0000
0100
0000
0010
0000
0001
0000
1000
0000
0010
,
0000
0100
0000
0002
0000
0000
0000
0000
0000
0000
0000
0000
,
0000
0000
0000
0000
,
0000
0003
0000
0000
,
0000
0000
0000
0000
;
#NOTES:
     dance-single:
     :
     Challenge:
     18:
     :
0000
0000
0000
0000
,
0000
0000
0000
0000
,
0000
0000
0000
0000
,
0000
0000
0000
0000
,
1000
0100
1000
0100
1000
0100
0010
0001
0010
0001
0010
0001
,
0010
0100
0010
0100
0010
0100
1000
0001
1000
0001
1000
0001
,
0010
0001
0010
0100
1000
0100
1000
0001
1000
0010
0100
0010
,
0100
0001
0100
0001
0010
0001
1000
0100
0010
0100
1000
0001
,
0010
0100
1000
0001
1000
0010
0100
0010
1000
0100
0010
0001
,
0100
0010
0100
0010
0000
0000
0010
0000
0000
1001
0000
0000
,
0000
0000
0000
1001
0000
0000
0000
0000
0000
0000
0000
0000
0000
0000
0000
0000
0000
0000
0000
0000
0000
0000
0000
0000
0001
0000
0000
0000
0000
0000
0000
0000
0100
0000
0000
0000
0000
0000
0000
0000
0001
0000
0000
0000
0000
0000
0000
0000
1000
0000
0000
0000
0000
0000
0000
0000
0010
0000
0000
0000
0000
0000
0000
0000
1000
0000
0000
0000
0000
0000
0000
0000
0001
0000
0000
0000
0000
0000
0000
0000
0100
0000
0000
0000
0000
0000
0000
0000
0001
0000
0000
0000
0000
0000
0000
0000
,
1000
0010
1000
0001
0010
0001
1000
0100
1000
0001
0010
0001
,
1000
0100
1000
0001
0010
0100
1000
0100
0010
0100
1000
0001
,
0100
0010
1000
0001
0100
0010
0100
0001
1000
0100
0010
0100
,
1000
0000
0000
0000
0001
0000
0000
0000
0100
0000
0000
0000
0010
0000
0000
0100
0000
0000
0010
0000
0000
0000
0000
0000
0100
0000
0000
0000
0000
0000
0100
0000
0000
0000
0000
0000
0000
0000
0000
0000
0000
0000
0101
0000
0000
0000
0000
0000
,
0000
0000
1010
0000
1000
0010
1000
0000
0010
0000
0010
0000
0000
0000
0110
0000
,
0000
0000
1001
0000
0001
1000
0001
0000
1000
0000
1000
0000
0000
0000
1100
0000
,
0000
0000
0011
0000
0010
0001
0010
0000
0001
0000
0001
0000
1000
0100
0010
0001
,
1000
0100
0010
0000
0001
0100
0010
0000
1000
0000
0010
0000
1000
0000
0001
0000
,
0100
0000
0010
0000
1000
0100
1000
0000
0001
0000
0010
0000
0001
0000
0100
0000
,
0010
0000
1000
0000
0100
0010
0100
0000
0010
0000
0001
0000
0100
0000
0001
0000
,
1000
0000
0100
0000
1000
0100
1000
0000
0100
0010
0100
0000
0010
0001
0010
0000
,
0001
1000
0001
0000
1000
0010
0100
0000
0001
0000
0100
0000
0001
0000
1000
0000
,
0010
0000
0100
0000
0001
0010
0001
0000
1000
0000
0100
0000
1000
0000
0010
0000
,
0100
0000
0001
0000
0010
0100
0010
0000
0100
0000
1000
0000
0010
0000
1000
0000
,
0001
0000
0010
0000
0001
0010
0001
0000
0010
0000
0100
0000
1000
0000
1000
0000
,
0001
0000
0001
0000
0100
0010
1000
0000
0001
0000
0100
0000
0001
0000
1000
0000
,
0100
0000
0010
0000
0001
0100
0001
0000
1000
0000
0010
0000
0100
0000
0001
0000
,
1000
0000
0100
0000
1000
0010
1000
0000
0001
0000
0100
0000
0001
0000
1000
0000
,
0010
0000
0100
0000
0001
0100
0001
0000
0100
0010
0100
0000
0010
1000
0010
0000
,
1000
0001
1000
0000
0100
0010
0001
0000
1000
0000
0100
0000
1000
0000
0001
0000
,
0100
0000
0010
0000
1000
0100
1000
0000
0001
0000
0010
0000
0100
0000
1000
0000
,
0001
0000
0100
0000
0001
0010
0001
0000
1000
0000
0100
0000
1000
0000
0001
0000
,
0010
0000
0100
0000
1000
0100
1000
0000
0100
0010
0100
0000
0010
0001
0010
0001
,
1000
0010
0100
0001
1000
0000
0000
0000
0001
0000
0100
0010
1000
0000
0001
0000
,
1001
0000
0000
0000
0011
0000
1100
0000
1000
0000
0010
0100
0001
0000
0100
0000
,
0010
1000
1010
0000
0110
0000
0100
0000
0001
0000
1000
0010
0001
0000
0010
0000
,
1010
0000
0000
0000
1001
0000
0001
0000
0100
0000
1000
0100
0001
0000
1000
0000
,
0001
0010
0100
1000
0001
0000
0000
0000
1100
0000
0000
0000
0101
0000
0000
0000
,
1000
0010
1000
0010
1000
0000
0000
0000
0011
0000
0000
0000
1010
0000
0000
0000
,
1000
0100
0010
0000
0011
0000
1100
0000
,
0001
0100
0001
0100
0001
0000
0000
0000
1000
0000
0010
0000
1000
0000
0100
0000
,
0010
0000
0001
0000
1000
0000
0100
0000
1000
0000
0100
0000
1000
0100
1000
0000
,
0100
0010
0100
0000
0010
0000
0001
0000
0010
0000
0001
0000
0100
0000
0010
0000
,
0100
0010
0100
0000
0010
1000
0001
0000
1000
0100
0010
0000
0001
1000
0100
0000
,
1000
0000
0000
0010
0000
0000
0100
0000
0000
0000
0000
0000
0001
0000
0000
0000
0000
0000
0000
0000
0101
0000
0000
0000
0000
0000
0000
0000
0110
0000
0000
0000
0000
0000
0000
0000
1000
0000
0000
0000
0000
0000
0000
0000
1001
0000
0000
0000
,
0000
0000
0000
0000
0011
0000
0000
0000
0000
0000
0000
0000
1000
0000
0000
0000
0000
0000
0000
0000
0000
0000
0000
0000
0000
0000
0000
0000
0000
0000
1000
0000
0000
0000
0000
0000
0001
0000
0000
0010
0000
0000
0001
0000
0000
0010
0000
0000
,
0100
0010
0100
0000
1000
0000
0000
0000
0000
0000
1000
0000
0000
0000
0000
0000
,
0000
0000
0000
0000
0001
0000
0000
0000
0000
0000
0001
0000
1000
0100
1000
0100
,
0010
0000
0000
0100
0000
0000
0010
0000
0000
0000
0000
0000
0001
0000
0000
0000
0000
0000
0000
0000
0000
0000
0000
0000
0000
0000
0000
0000
0000
0000
0001
0000
0000
0000
0000
0000
0100
0000
0000
0000
0000
0000
0000
0000
0100
0000
0000
0000
,
0000
0000
0000
0000
0100
0000
0000
0000
0000
0000
0000
0000
0010
0000
0000
1000
0000
0000
0010
0000
0000
0000
0000
0000
0100
0000
0000
0000
0000
0000
0001
0000
0000
0100
0000
0000
0001
0000
0000
0000
0000
0000
1000
0000
0000
0000
0000
0000
,
0100
0010
0100
0000
1000
0010
1000
0000
0001
0000
0010
0001
0010
0000
0100
0000
,
1000
0001
1000
0000
0001
0010
0001
0000
0010
0100
0010
0000
0100
1000
0100
0000
,
0010
0001
0010
0000
0001
0100
0001
0100
0001
0100
0001
0100
0010
1000
0010
1000
,
0001
0100
0010
1000
0010
0000
0000
0000
0000
0000
0000
0000
0000
0000
0000
0000
,
0000
0000
1001
0000
0000
0000
1000
0100
,
1000
0100
1000
0100
1000
0100
0010
0001
,
0010
0001
0010
0001
0010
0001
1000
0010
,
1000
0010
1000
0010
1000
0010
0100
0001
,
0100
0001
0100
0001
0100
0001
0010
0100
,
0010
0100
1000
0001
1000
0001
1000
0000
,
0000
0000
0000
1001
,
0000
0000
0001
0100
0001
0100
0001
0100
,
0001
0100
0010
1000
0010
1000
0010
1000
,
0010
1000
0010
0000
0000
0000
1000
0100
,
1000
0100
0010
0000
0000
0000
0001
0100
,
0001
0100
0010
0000
0000
0000
1000
0100
,
0010
0000
0000
0001
0000
0000
1000
0000
0000
0000
0000
0000
0000
0000
0010
0000
0000
0000
0000
0000
0000
0000
0100
0000
,
0000
0000
0110
0000
0000
0000
1000
0010
,
1000
0010
0100
0001
0100
0001
1000
0001
,
1000
0001
0010
0001
0010
0001
1000
0100
,
1000
0100
0010
0001
0010
0001
0010
0100
,
0010
0100
1000
0001
1000
0001
0100
0010
,
0100
0010
1000
0001
0010
0100
1000
0000
,
0000
0000
0000
1001
,
0000
0000
0001
0010
0100
1000
0010
0100
,
0001
0010
0100
1000
0010
0100
0001
1000
,
0010
0100
0001
0000
0000
0000
1000
0010
,
0100
0001
1000
0000
0000
0000
0001
0010
,
0100
1000
0001
0000
0000
0000
1000
0010
,
0100
0000
0000
0001
0000
0000
1000
0000
0000
0000
0010
0000
0000
0000
0001
0000
0000
0000
1000
0000
0000
0000
0100
0000
,
0000
0000
0000
0000
0001
0000
0000
0000
0000
0000
0000
0000
1000
0000
0000
0100
0000
0000
0010
0000
0000
0000
0000
0000
0100
0000
0000
0000
0000
0000
1000
0000
0000
0000
0000
0000
0010
0000
0000
0100
0000
0000
0001
0000
0000
0000
0000
0000
,
0100
0000
0010
0000
1000
0001
0100
0000
0001
0000
0010
0000
0001
1000
0100
0000
,
0010
0000
0001
0000
1000
0010
1000
0000
0001
0000
0010
0000
0001
0100
0001
0000
,
1000
0000
0000
0000
0000
0000
0010
0000
0000
0000
0000
0000
0100
0000
0000
0010
0000
0000
1000
0000
0000
0000
0000
0000
0001
0000
0000
0000
0000
0000
0010
0000
0000
0000
0000
0000
0011
0000
0000
0000
0000
0000
0000
0000
1010
0000
0000
0000
,
0000
0000
0000
0000
1001
0000
0000
0000
0000
0000
0000
0000
0001
0000
0000
0100
0000
0000
0010
0000
0000
0000
0000
0000
1000
0000
0000
0000
0000
0000
0100
0000
0000
0000
0000
0000
1000
0000
0000
0100
0000
0000
0010
0000
0000
0000
0000
0000
,
0001
0000
0100
0000
0010
1000
0100
0000
1000
0000
0001
0000
0100
0001
0010
0000
,
0001
0000
0000
1000
0000
0000
1010
0000
0000
0000
0100
0000
0000
0000
0101
0000
0000
0000
1001
0000
0000
0000
0100
0000
,
0000
1100
0000
1001
0000
0100
0000
0110
0000
0001
0010
0001
,
0100
0010
0100
0110
0000
1000
0000
1100
0000
1001
0000
0001
,
0100
0010
0000
1010
0000
0001
0000
0011
0000
1000
0010
0100
,
0010
1000
0000
1100
0000
0001
0000
0101
0000
1000
0100
0001
,
0100
1000
0000
0001
0010
1000
0010
0001
0000
1000
0010
0001
,
0010
1000
0000
0001
0000
0010
0000
0100
0000
1000
0000
0010
,
0000
0100
0000
0010
0000
1000
0000
0100
0000
0010
0000
0001
,
0000
0100
0000
0010
0000
1000
0000
0001
0000
0010
0000
0100
,
0000
1000
0000
0010
0000
0100
0000
0010
0000
1000
0000
0001
,
0000
0100
0000
0001
0000
0010
0000
1000
0000
0010
0000
0001
,
0000
0100
0000
1000
0000
0100
0000
0010
0000
0001
0000
1000
,
0000
0100
0000
0001
0000
1000
0000
0010
0000
0001
0000
0010
,
0000
0100
0000
0001
0000
0010
0000
0100
0000
1000
0001
1000
,
0001
1000
0001
2000
0000
0000
0000
0000
0000
0000
0000
0000
,
0000
0000
0000
0000
,
0000
3000
0000
0000
,
0000
0000
0000
0000
;
#NOTES:
     dance-double:
     :
     Easy:
     10:
     :
00000000
00000000
00000000
00000000
,
00000000
00000000
00000000
00000000
,
00000000
00000000
00000000
00000000
,
00000000
00000000
00000000
00000000
,
00000002
00000000
00000000
00000000
,
00002003
00000000
00000000
00000000
,
00003200
00000000
00000000
00000000
,
00000000
00000000
00000000
00000000
,
00000000
00000000
00000000
00000000
,
00000000
00010300
00011000
00011000
,
00000000
00011000
00000000
00000000
00000000
00000000
00000000
00000000
00002000
00000000
00003000
00000000
00000000
00000000
00000000
00000000
00100000
00000000
00000000
00000000
00000000
00000000
00000000
00000000
00010000
00000000
00000000
00000000
00000000
00000000
00000000
00000000
,
00100000
00010000
10000000
01000000
,
00100000
00010000
00100000
00001000
,
00010000
00000010
00001000
00000010
,
00000100
00000000
00000001
00000000
00000001
00000000
00000000
00001001
,
00000000
00000000
00001000
00000000
00001000
00000000
00000000
00001100
,
00000000
00000000
00000100
00000000
00000100
00000000
00000000
00010100
,
00000000
00010000
00010000
00001000
,
00000000
00010000
00001000
01000000
,
00010000
10000000
00010000
01000000
,
00010000
10000000
01000000
00100000
,
00010000
00000000
10000000
00000000
00000000
01000000
00000000
00000000
,
00010000
00001000
00010000
00000010
,
00001000
00000001
00001000
00000100
,
00001000
00000001
00000010
00000100
,
00001000
00000000
00000001
00000000
00000000
00000010
00000000
00000000
,
00001000
00010000
00001000
00100000
,
00010000
10000000
00010000
00100000
,
00010000
10000000
00100000
01000000
,
00010000
00000000
10000000
00000000
00000000
00100000
00000000
00000000
,
00010000
00001000
00010000
00000100
,
00001000
00000001
00001000
00000010
,
00001000
00000001
00000100
00000010
,
00001000
00000001
00000010
00000110
,
00000000
00000000
00000000
00000000
00000002
00000003
00000000
00000000
00000100
00000000
00000000
00000000
00001000
00000000
00000000
00000000
,
00000000
00010000
00100000
10000000
,
00000000
10000000
01000000
00010000
,
00000000
00001000
00000010
00000001
,
00001000
00000000
00000000
00000000
00002200
00003300
00000000
00000000
00001100
00000000
00000000
00000000
00010100
00000000
00000000
00000000
,
00000000
00011000
00011000
01001000
,
00000000
01010000
01010000
01100000
,
00000000
10100000
10100000
10010000
,
00000000
10000000
01000000
10000000
,
01000000
00100000
00010000
00100000
,
00001000
00010000
00000100
00010000
,
00001000
01000000
00000000
00010000
,
00000000
00000000
10000000
00000000
00000000
11000000
00000000
00000000
,
00000000
00000000
00010000
00000000
00000000
01010000
00000000
00000000
,
00000000
00000000
01000000
00000000
00000000
01001000
00000000
00000000
,
00000000
00000000
00001000
00000000
00000000
00011000
00000000
00000000
,
00000000
00010000
00000010
00001000
,
00000100
00000010
00000001
00000100
,
00000001
00001000
00000100
00001000
,
00000100
00000000
00010000
00001000
00010000
00000000
00001000
00100000
,
00001000
00000000
00000000
00000000
00200000
00300000
00000000
00000000
00000000
00000000
00000000
00000000
00000000
00000000
00000000
00000000
,
00000000
00000000
00000000
00000000
20020000
30030000
00000000
00000000
00000000
00000000
00000000
00000000
02000000
03000000
00000000
00000000
,
00000000
00100000
00000000
01000000
,
00000000
00100000
00000000
01000000
,
00000000
00100000
00000000
01000000
,
00000000
00100000
00000000
01000000
,
00000000
00100000
00000000
01000000
,
00000000
00000000
00000000
00000000
00000000
00000000
00000000
00000000
00000000
00000000
00000000
00000000
00022000
00033000
00000000
00000000
,
00000000
00000000
00000000
00000000
00020000
00030000
00000000
00000000
00000000
00000000
00000000
00000000
00001000
00000000
00000000
00000000
,
00000000
00010000
00000000
00001000
,
00000000
00010000
00000000
00010000
,
00000000
00000100
00000000
00000100
,
00000000
00001000
00000000
00001000
,
00000000
00000001
00000000
00000000
,
00000000
00000000
00000000
00000000
00002002
00003003
00000000
00000000
00000000
00000000
00000000
00000000
00000020
00000030
00000000
00000000
,
00000000
00000100
00000000
00000010
,
00000000
00000100
00000000
00000010
,
00000000
00000100
00000000
00000010
,
00000000
00000100
00000000
00000010
,
00000000
00000100
00000000
00000010
,
00000000
00000000
00000000
00000000
00000000
00000000
00000000
00000000
00000000
00000000
00000000
00000000
00022000
00033000
00000000
00000000
,
00000000
00000000
00000000
00000000
00002000
00003000
00000000
00000000
00000000
00000000
00000000
00000000
00010000
00000000
00000000
00000000
,
00000000
00001000
00000000
00010000
,
00000000
00001000
00000000
01000000
,
00000000
01000000
00000000
00010000
,
00000000
00010000
00000000
10000000
,
00000000
00010000
00000000
00000000
,
00000000
00000000
00000000
00000000
20000000
30000000
00000000
00000000
01000000
00000000
00000000
00000000
00020000
00000000
00000000
00000000
,
00000000
00031000
00000100
00000002
,
00000000
00000013
00000100
00002000
,
00000000
00013000
00100000
01000000
,
00000000
10000000
00100000
02000000
,
00000000
03001000
00010000
00000020
,
00000000
00002030
00000000
00023000
,
00000000
00230000
00000000
02300000
,
00000000
00000000
00000000
13000000
00000000
00000000
00000000
00000000
00000000
00010000
00000000
01000000
,
00000000
00010000
00000000
01000000
00000000
00000000
00000000
00000000
00000000
00001000
00000000
00010000
,
00000000
00001000
00000000
00010000
00000000
00000000
00000000
00000000
00000000
00000100
00000000
00000010
,
00000000
00000100
00000000
00000010
00000000
00000000
00000000
00000000
00000000
00000001
00000000
00001000
,
00000000
00000000
00000000
00000000
00000001
00000000
00000000
00000000
00000000
00000000
00000000
00000000
00002000
00000000
00000000
00003000
00000000
00000000
00000000
00000000
00000000
00000000
00000000
00000000
00000000
00000000
00000000
00000000
00000000
00000000
00000000
00000000
00000000
00000000
00000000
00000000
00000000
00000000
00000000
00000000
00000000
00000000
00000000
00000000
00000000
00000000
00000000
00000000
,
00000000
00000000
00000000
00000100
00000000
00000000
00000000
00010000
00000000
00000000
00000000
00000100
,
00000000
00010000
00000000
00000000
,
00000000
00000000
00000000
00001000
00000000
00000000
00000000
01000000
00000000
00000000
00000000
00001000
,
00000000
00000000
00000000
01000000
00000000
00000000
00000000
00000000
00000000
00000000
00000000
00010000
,
00000000
00000000
00000000
10000000
00000000
00000000
00000000
00000000
00000000
00000000
00000000
00100000
,
00000000
00000000
00000000
00010000
00000000
00000000
00000000
00000000
00000000
00000000
00000000
00001000
,
00000000
00000000
00000000
00000100
00000000
00000000
00000000
00000000
00000000
00000000
00000000
00000001
,
00000000
00002000
00000000
00000000
,
00000000
00000000
00000000
00000000
,
00000000
00003000
00000000
00000000
,
00000000
00000000
00000000
00000000
;
#NOTES:
     dance-double:
     :
     Medium:
     13:
     :
00000000
00000000
00000000
00000000
,
00000000
00000000
00000000
00000000
,
00000000
00000000
00000000
00000000
,
00000000
00000000
00000000
00000000
,
20000000
00000000
00000000
00000000
,
32000000
00000000
03020000
00000000
,
00032000
00000000
00000000
00000000
,
00000000
00000000
00000000
00000000
,
00000000
00000000
00000000
00000000
,
00000000
00013000
00011000
00000110
,
00000000
00000000
00000000
00001001
00000000
00000000
00000000
00000000
00000000
00000000
00000000
00000000
00000000
00000000
00000000
00000000
00000000
00000000
00000000
00000000
00000000
00000000
00000000
00000000
00000002
00000000
00000000
00000000
00000000
00000000
00000003
00000000
00000000
00000000
00000000
00000000
00000000
00000000
00000000
00000000
00000010
00000000
00000000
00000000
00000000
00000000
00000000
00000000
00000100
00000000
00000000
00000000
00000000
00000000
00000000
00000000
00000000
00000000
00000000
00000000
00000000
00000000
00000000
00000000
00000000
00000000
00000000
00000000
00000000
00000000
00000000
00000000
00001000
00000000
00000000
00000000
00000000
00000000
00000000
00000000
00000000
00000000
00000000
00000000
00000000
00000000
00000000
00000000
00000100
00000000
00000000
00000000
00000000
00000000
00000000
00000000
,
00001000
00000000
00000000
00000100
00000000
00010000
00001000
00000000
00001000
00100000
00000000
00100000
,
00010000
00000000
00000000
10000000
00000000
01000000
00100000
00000000
00000000
00010000
00000000
01000000
,
00010000
00000000
00000000
01000000
00000000
00001000
00010000
00000000
00010000
00000010
00000000
00000010
,
00001000
00000000
00000001
00000000
00000101
00000000
00000000
00000100
,
00000000
00001000
00010000
00000000
00011000
00000000
00000000
00001000
,
00000000
00010000
01000000
00000000
01100000
00000000
00000000
00100000
,
00000000
00010000
10000000
00000000
10010000
00000000
10000000
01000000
,
00100000
00010000
00100000
00000000
00010000
00000000
10000000
00100000
,
00000000
00010000
00001000
00000000
00000010
00001000
00000000
00010000
,
00001000
00000000
00000100
00000000
00000001
00000000
00000100
00001000
,
00000000
00010000
00100000
00000000
10000000
00100000
00000000
01000000
,
00010000
00000000
10000000
00000000
01000000
00000000
00010000
00001000
,
00000000
00000100
00000001
00000000
00000100
00001000
00000000
00010000
,
00001000
00000000
00010000
00000000
00100000
00000000
10000000
00010000
,
00000000
10000000
01000000
00000000
00100000
00010000
00000000
00001000
,
00000100
00000000
00000010
00000000
00000001
00000000
00000100
00001000
,
00000000
00010000
01000000
00000000
00010000
00001000
00000000
00010000
,
00100000
00000000
10000000
00000000
00100000
00000000
00010000
00001000
,
00000000
00000100
00000001
00000000
00000100
00001000
00000000
00000100
,
00000010
00000000
00001000
00000000
00000001
00000000
00000100
00001000
,
00000000
00010000
00100000
00000000
10000000
00100000
00000000
00010000
,
00001000
00000000
00010000
00000000
00001000
00000000
00000100
00000001
,
00000000
00001000
00000001
00000000
00000100
00000000
00000010
00001000
,
00000100
00000000
00000000
00000000
00020000
00030000
00000000
00000000
00001000
00000000
00000000
00000000
01000000
00000000
00010000
00000000
,
01000000
00000000
00010000
00100000
10000000
00000000
00100000
00010000
,
00001000
00000000
00000100
00000000
00001000
00000000
00000010
00000100
,
00000010
00000000
00001000
00000100
00001000
00000100
00010000
00001000
,
00100000
00000000
00010000
00000000
20000000
30000000
00000000
00000000
10000000
00000000
00000000
00000000
11000000
00000000
00000000
00000000
,
11000000
00010000
00010000
01010000
,
01010000
00001000
00001000
00011000
,
00011000
00000100
00000100
00000110
,
00000110
00000000
00000001
00000100
00000001
00000000
00001000
00000100
,
00001000
00000000
00000100
00010000
00000100
00000000
00010000
00001000
,
00010000
00000000
00001000
00100000
00001000
00100000
00010000
00100000
,
00010000
00000000
00000000
00100000
00000000
00000000
00010000
00000000
00000000
00000000
10000000
00000000
00000000
00000000
01000000
00000000
00000000
00000000
10000000
00000000
00000000
00000000
00010000
00000000
,
00000000
00000000
00100000
00000000
00000000
00000000
00001000
00000000
00000000
00000000
00000000
00000000
00000000
00000000
00000000
00011000
00000000
00000000
00000000
00000000
00000000
00000000
00000000
00000000
,
00000000
00000000
00010000
00000000
00000000
00010010
00000000
00000000
,
00000000
00000000
00000010
00000000
00000000
00001010
00000000
00000000
,
00000000
00000000
00001000
00000000
00000000
00001001
00000000
00000000
,
00000000
00000000
00000001
00000100
00000001
00000100
00000010
00001000
,
00000010
00000000
00010000
00001000
00010000
00001000
01000000
00010000
,
01000000
00000000
00001000
00001000
00010000
00010000
00001000
00001000
,
00010000
00010000
00000100
00001000
00000100
00001000
00000001
00001000
,
00000001
00000000
00001000
00000000
00000002
00000003
00000000
00000000
00000000
00000000
00000000
00000000
00000000
00000000
00000000
00000000
,
00000000
00000000
00000000
00000000
00002002
00003003
00000000
00000000
00000000
00000000
00000000
00000000
00002000
00003000
00000000
00000000
,
00000001
00001000
00000001
00001000
,
00000001
00001000
00000001
00001000
,
00000100
00001000
00000100
00001000
,
00000100
00001000
00000100
00010000
,
00001000
00010000
00001000
00010000
,
00000000
00000000
00000000
00000000
00000000
00000000
00000000
00000000
00000000
00000000
00000000
00000000
00022000
00033000
00000000
00000000
,
00000000
00000000
00000000
00000000
00020000
00030000
00000000
00000000
00001000
00000000
00000000
00000000
00010000
00000000
00000000
00000000
,
00001000
00010000
00001000
00010000
,
00001000
00010000
00000000
00001000
,
00100000
00001000
00000000
00100000
,
00010000
00100000
00000000
01000000
,
10000000
00000000
00000000
01000000
00000000
00000000
00000000
10000000
00000000
00000000
00000000
00010000
,
00000000
00000000
00000000
00000000
20020000
30030000
00000000
00000000
00000000
00000000
00000000
00000000
00020000
00030000
00000000
00000000
,
10000000
00010000
10000000
00010000
,
10000000
00010000
10000000
00010000
,
00100000
00010000
00100000
00010000
,
00100000
00010000
00100000
00001000
,
00010000
00001000
00010000
00001000
,
00000000
00000000
00000000
00000000
00000000
00000000
00000000
00000000
00000000
00000000
00000000
00000000
00022000
00033000
00000000
00000000
,
00000000
00000000
00000000
00000000
00002000
00003000
00000000
00000000
00010000
00000000
00000000
00000000
00001000
00000000
00000000
00000000
,
00010000
00001000
00010000
00001000
,
00010000
00001000
00000000
00010000
,
00000100
00010000
00000000
00000100
,
00001000
00000100
00000000
00000010
,
00000001
00000000
00000000
00000010
00000000
00000000
00000000
00000001
00000000
00000000
00000000
00001000
,
00000000
00000000
00000000
00000000
00000002
00000003
00000000
00000000
00000100
00000000
00000000
00000000
00000010
00000000
00001000
00000000
,
00000010
00000000
00001000
00000000
00000100
00000000
00010000
00001000
,
00010000
00000000
00001000
00000000
00100000
00000000
00010000
10000000
,
00010000
00000000
00000000
01000000
00000000
00000000
00100000
00000000
00000000
10000000
00000000
00010000
,
00000000
00000000
10000000
00000000
00000000
00000000
01000000
00000000
00000000
00000000
00000000
00000000
00100000
00000000
00000000
00000000
00000000
00000000
00001000
00000000
00000000
00010000
00000000
00000000
,
00001000
00000000
00010000
00000000
00000100
00000000
00000010
00000100
,
00000010
00000000
00000000
00000001
00000000
00000100
00000000
00000001
00000000
00001000
00000000
00000100
,
00000000
00001000
00000000
00000100
00000000
00010000
00000000
00000100
00000000
00010000
00000000
00001000
,
00000000
00010000
00000000
00001000
00000000
01000000
00000000
00010000
00000000
10000000
00000000
01000000
,
00000000
00010000
00000000
00001000
00000000
00010000
00000000
00000100
00000000
00001000
00000000
00000100
,
00000000
00000001
00000000
00000100
00000000
00000010
00000000
00000100
00000000
00000010
00000000
00000001
,
00000000
00000100
00000000
00000001
00000000
00000010
00000000
00001000
00000000
00010000
00000000
01000000
,
00000000
00000000
00000000
00000000
10000000
00000000
00000000
00000000
00000000
00000000
00000000
00000000
02000000
00000000
00000000
03000000
00000000
00000000
00000000
00000000
00000000
00000000
00000000
00000000
00000000
00000000
00000000
00000000
00100000
00000000
00000000
00000000
00000000
00000000
00000000
00000000
00000000
00000000
00000000
00000000
00000000
00000000
00000000
00000000
00010000
00000000
00000000
00000000
,
00000000
00000000
00000000
10000000
00000000
00000000
00000000
00100000
00000000
00000000
00000000
00010000
,
00000000
00000000
00000000
00001000
00000000
00000000
00000000
00010000
00000000
00000000
00000000
00001000
,
00000000
00000000
00000000
00000100
00000000
00000000
00000000
00000001
00000000
00000000
00000000
00001000
,
00000000
00000000
00000000
00000001
00000000
00000000
00000000
00000100
00000000
00000000
00000000
00001000
,
00000000
00000000
00000000
00000100
00000000
00000000
00000000
00001000
00000000
00000000
00000000
00010000
,
00000000
00000000
00000000
00001000
00000000
00000000
00000000
00010000
00000000
00000000
00000000
00100000
,
00000000
00000000
00000000
10000000
00000000
00000000
00000000
00010000
00000000
00000000
00000000
00100000
,
00000000
00002000
00000000
00000000
,
00000000
00000000
00000000
00000000
,
00000000
00003000
00000000
00000000
,
00000000
00000000
00000000
00000000
;
#NOTES:
     dance-double:
     :
     Hard:
     16:
     :
00000000
00000000
00000000
00000000
,
00000000
00000000
00000000
00000000
,
00000000
00000000
00000000
00000000
,
00000000
00000000
00000000
00000000
,
20000000
00000000
00000000
00000000
,
32000000
00000000
03020000
00000000
,
00031000
00000000
00000000
00010000
00000000
00001000
00000000
00010000
00000000
00000010
00000000
00001000
,
00000000
00000010
00000000
00000100
00000000
00000001
00000000
00000100
00000000
00000010
00000000
00001000
,
00000000
00000010
00000000
00010000
00000000
00001000
00000000
00100000
00000000
00010000
00000000
10000000
,
00000000
01000000
00000000
00100000
00000000
00000000
01100000
00000000
00000000
01100000
00000000
00000000
,
00000000
00000000
00000000
10010000
00000000
00000000
00000000
00000000
00000000
00000000
00000000
00000000
00000000
00000000
00000000
00000000
00000000
00000000
00000000
00000000
00000000
00000000
00000000
00000000
20000000
00000000
00000000
00000000
00000000
00000000
30000000
00000000
00000000
00000000
00000000
00000000
00000000
00000000
00000000
00000000
01000000
00000000
00000000
00000000
00000000
00000000
00000000
00000000
00100000
00000000
00000000
00000000
00000000
00000000
00000000
00000000
00000000
00000000
00000000
00000000
00000000
00000000
00000000
00000000
00000000
00000000
00000000
00000000
00000000
00000000
00000000
00000000
00010000
00000000
00000000
00000000
00000000
00000000
00000000
00000000
00000000
00000000
00000000
00000000
00000000
00000000
00000000
00000000
00100000
00000000
00000000
00000000
00000000
00000000
00000000
00000000
,
00001000
00000000
00000000
00010000
00000000
00000100
00001000
00000000
00001000
00000001
00000000
00000001
,
00000010
00000000
00000000
00000001
00000000
00000010
00000100
00000000
00000000
00001000
00000000
00000100
,
00010000
00000000
00000000
00001000
00000000
01000000
00010000
00000000
00010000
00100000
00000000
00100000
,
01000000
00000000
10000000
01000000
10000000
01000000
00000000
00010000
,
00000000
00001000
00010000
00000100
00010000
00000100
00000000
00010000
,
00000000
00001000
00000010
00000001
00000010
00000001
00000000
00001000
,
00000000
00000001
00001000
00000010
00001000
00000010
00010000
00001000
,
00100000
00010000
10000000
00100000
01000000
00010000
01000000
00001000
,
00010000
00000010
00001000
00001000
00000001
00000010
00000100
00001000
,
00000001
00001000
00000100
00000100
00010000
00001000
01000000
01000000
,
00010000
10000000
00100000
00000000
00010000
00001000
00000000
00000100
,
00000001
00000000
00001000
00000010
00001000
00000100
00010000
00001000
,
01000000
00010000
10000000
10000000
00100000
01000000
00010000
00100000
,
00010000
00100000
00001000
00001000
00010000
00000010
00001000
00001000
,
00000001
00000010
00000100
00000000
00000110
00000000
00000001
00000100
,
00000010
00001000
00000001
00000100
00000010
00001000
00000010
00010000
,
00001000
01000000
00010000
00010000
10000000
01000000
00100000
00010000
,
10000000
00010000
00100000
00100000
00001000
00010000
00000010
00000010
,
00001000
00000001
00000100
00000000
00001000
00010000
00000000
00100000
,
10000000
00000000
00010000
01000000
00010000
00100000
00001000
00010000
,
00000010
00001000
00000001
00000001
00000100
00000010
00001000
00000100
,
00001000
00000100
00010000
00010000
00001000
01000000
00010000
00010000
,
10000000
01000000
00100000
00000000
01100000
00000000
10000000
01000000
,
00010000
00000000
00001000
00000000
00000020
00000030
00000000
00000000
00000001
00000000
00001000
00000000
00000100
00000000
00000100
00000000
,
00010000
00000000
00001000
00010000
01000000
10000000
00010000
00010000
,
01000000
00000000
00001000
00010000
00001000
00000100
00000001
00000100
,
00001000
00000000
00010000
00001000
00100000
00010000
10000000
01000000
,
00100000
00000000
00010000
00000000
00220000
00330000
00000000
00000000
00110000
00000000
00000000
00000000
00101000
00000000
00000000
00000000
,
00001000
00010000
00011000
00000000
00011000
00000000
00010100
00000000
,
00000100
00001000
00001100
00000000
00001100
00000000
00001001
00000000
,
00000001
00000010
00000011
00000000
00001100
00000000
00010100
00000000
,
00011000
00000000
00001000
01000000
00001000
01000000
00010000
01000000
,
00010000
01000000
00100000
10000000
00100000
10000000
01000000
10000000
,
01000000
00000000
10000000
00000000
01000000
00100000
01000000
00000000
00010000
00000000
00001000
00000000
00000010
00000100
00000010
00000000
,
00000001
00000000
00000000
00001000
00000000
00000000
00001100
00000000
00000000
00000000
00000100
00000000
00000000
00000000
00010000
00000000
00000000
00000000
00011000
00000000
00000000
00000000
00001000
00000000
,
00000000
00000000
00100000
00000000
00000000
00000000
00110000
00000000
00000000
00000000
00000000
00000000
00000000
00000000
00000000
10010000
00000000
00000000
00000000
00000000
00000000
00000000
00000000
00000000
,
00000000
00000000
01010000
00000000
00000000
00011000
00000000
00000000
,
00000000
00000000
00010100
00000000
00000000
00001100
00000000
00000000
,
00000000
00000000
00000000
00000000
00000000
00000000
00001001
00000000
00000000
00000000
00000000
00000000
00000000
00000000
00000000
00000101
00000000
00000000
00000001
00000000
00000000
00000000
00001000
00000000
,
00000000
00000000
00000000
00000000
00000001
00000000
00000000
00000000
00000000
00000000
00000000
00000000
00001000
00000000
00000000
00000100
00000000
00000000
00001000
00000000
00000000
00000000
00000000
00000000
00000100
00000000
00000000
00000000
00000000
00000000
00010000
00000000
00000000
00000000
00000000
00000000
00001000
00000000
00000000
00000000
00000000
00000000
00010000
00000000
00000000
00000000
00000000
00000000
,
00100000
00000000
10000000
00000000
00010000
00100000
00010000
00000000
00100000
00000000
00001000
00000000
00010000
00000000
00001000
00000000
,
00000100
00000001
00000010
00000010
00000100
00000100
00001000
00001000
,
00010000
00000000
00010000
00000000
00100000
00000000
01000000
00000000
00100000
00000000
01000000
00000000
10000000
00010000
10000000
00010000
,
10000000
00010000
10000000
00010000
20000000
30000000
00000000
00000000
00000000
00000000
00000000
00000000
00000000
00000000
00000000
00000000
,
00000000
00000000
00000000
00000000
20020000
30030000
00000000
00000000
00000000
00000000
00000000
00000000
20000000
30000000
00000000
00000000
,
01000000
00100000
00010000
10000000
,
01000000
00000000
00100000
00000000
00010000
00000000
00100000
00001000
,
00100000
00001000
00100000
00000000
00000000
00000000
00001000
00010000
,
00001000
00010000
00001000
00000000
00000000
00000000
00010000
00000100
,
00010000
00000100
00001000
00000100
00001000
00000100
00001000
00000000
,
00000000
00000000
00000000
00000000
00000000
00000000
00000000
00000000
00000000
00000000
00000000
00000000
00002002
00003003
00000000
00000000
,
00000000
00000000
00000000
00000000
00000002
00000003
00000000
00000000
00000010
00000000
00000000
00000000
00000100
00000000
00000000
00000000
,
00001000
00000001
00000010
00000100
,
00001000
00000000
00000100
00000000
00000000
00000000
00010000
00000100
,
00010000
00000100
00010000
00000000
00000000
00000000
00001000
00010000
,
00001000
00010000
00001000
00000000
00000000
00000000
00100000
00001000
,
00100000
00000000
00000000
00001000
00000000
00000000
00100000
00000000
00000000
00000000
00000000
00000000
00000000
00000000
00010000
00000000
00000000
00000000
00000000
00000000
00000000
00000000
10000000
00000000
,
00000000
00000000
00000000
00000000
20020000
30030000
00000000
00000000
00000000
00000000
00000000
00000000
20000000
30000000
00000000
00000000
,
01000000
00010000
00001000
00000010
,
00000001
00000000
00001000
00000000
00000100
00000000
00010000
00001000
,
00010000
00001000
00010000
00000000
00000000
00000000
00001000
01000000
,
00001000
01000000
00001000
00000000
00000000
00000000
00010000
00001000
,
00010000
00001000
00010000
00000100
00010000
00000100
00001000
00000000
,
00000000
00000000
00000000
00000000
00000000
00000000
00000000
00000000
00000000
00000000
00000000
00000000
00002002
00003003
00000000
00000000
,
00000000
00000000
00000000
00000000
00000002
00000003
00000000
00000000
00000010
00000000
00000000
00000000
00001000
00000000
00000000
00000000
,
00010000
01000000
10000000
00010000
,
00100000
00000000
00001000
00010000
00001000
00010000
00001000
00000000
,
00000000
00000000
00010000
00000010
00010000
00000010
00010000
00000000
,
00000000
00000000
00001000
00010000
00001000
00010000
00001000
00100000
,
00001000
00100000
00020000
00000000
00000000
00000000
00000000
00000000
,
00000000
00000000
00000000
00000000
20030000
30000000
00100000
00000000
10000000
00000000
00100000
00000000
01000000
00000000
00010000
00000000
,
01000000
00000000
00001000
00010000
00001000
00010000
00000010
00001000
,
00000010
00000000
00001000
00000100
00000010
00000001
00001000
00000100
,
00010000
00000000
00000000
00000000
00000000
00000000
00001000
00000000
00000000
00100000
00000000
00000000
00010000
00000000
00000000
10000000
00000000
00000000
01000000
00000000
00000000
00000000
00010000
00000000
,
00000000
00000000
00001000
00000000
00000000
00000000
00000010
00000000
00000000
00000001
00000000
00000000
00000010
00000000
00000000
00001000
00000000
00000000
00010000
00000000
00000000
00001000
00000000
00000000
,
00010000
00000000
00001000
00010000
00100000
10000000
00100000
10000000
,
01000000
00000000
00000000
10000000
00000000
00100000
00000000
00100000
00000000
00010000
00000000
00001000
,
00000000
00001000
00000000
00000100
00000000
00000001
00000000
00000001
00000000
00000010
00000000
00000100
,
00000000
00000100
00000000
00000010
00000000
00000001
00000000
00000001
00000000
00000100
00000000
00001000
,
00010000
00001000
00000000
00100000
00000000
00010000
00000000
00010000
00000000
10000000
00000000
01000000
,
00100000
01000000
00000000
10000000
00000000
00100000
00000000
00100000
00000000
00010000
00000000
00001000
,
00010000
00001000
00000000
00000010
00000000
00000100
00000000
00000100
00000000
00001000
00000000
00000001
,
00000010
00000000
00000000
00000000
00000100
00000000
00000000
00000000
00000000
00000000
00000000
00000000
00002000
00000000
00000000
00003000
00000000
00000000
00000000
00000000
00000100
00000000
00000000
00000000
00000000
00000000
00000000
00000000
00001000
00000000
00000000
00000000
00000000
00000000
00000000
00000000
00000100
00000000
00000000
00000000
00000000
00000000
00000000
00000000
00010000
00000000
00000000
00000000
,
00000000
00000000
00000000
00001000
00000000
01000000
00000000
00001000
00000000
01000000
00000000
00010000
,
00000000
00000000
00000000
10000000
00000000
00000000
00000000
01000000
00000000
00000000
00000000
00100000
,
00000000
00000000
00000000
00010000
00000000
00000000
00000000
00001000
00000000
00000000
00000000
00000100
,
00000000
00000000
00000000
00000010
00000000
00000001
00000000
00001000
00000000
00000100
00000000
00010000
,
00000000
00000000
00000000
00000100
00000000
00010000
00000000
00001000
00000000
01000000
00000000
00010000
,
00000000
00000000
00000000
10000000
00000000
00100000
00000000
10000000
00000000
00010000
00000000
00100000
,
00000000
00001000
00000000
00010000
00000000
00000100
00000000
00001000
00000000
00000001
00000000
00000010
,
00000000
00000100
00000000
00002000
00000000
00000000
00000000
00000000
00000000
00000000
00000000
00000000
,
00000000
00000000
00000000
00000000
,
00000000
00003000
00000000
00000000
,
00000000
00000000
00000000
00000000
;
#NOTES:
     dance-double:
     :
     Challenge:
     18:
     :
00000000
00000000
00000000
00000000
,
00000000
00000000
00000000
00000000
,
00000000
00000000
00000000
00000000
,
00000000
00000000
00000000
00000000
,
00000002
00000000
00000000
00000000
,
00002003
00000000
00003200
00000000
,
00010300
00001000
00010000
00001000
00100000
00010000
,
10000000
01000000
00010000
00001000
00000100
00000001
,
00001000
00000010
00001000
00000001
00000010
00000100
00001000
00000100
00010000
00001000
00100000
00010000
,
10000000
01000000
00100000
00010000
00000000
00000000
00100000
00000000
00000000
00110000
00000000
00000000
,
00000000
00000000
00000000
11000000
00000000
00000000
00000000
00000000
00000000
00000000
00000000
00000000
00000000
00000000
00000000
00000000
00000000
00000000
00000000
00000000
00000000
00000000
00000000
00000000
10000000
00000000
00000000
00000000
00000000
00000000
00000000
00000000
01000000
00000000
00000000
00000000
00000000
00000000
00000000
00000000
10000000
00000000
00000000
00000000
00000000
00000000
00000000
00000000
00010000
00000000
00000000
00000000
00000000
00000000
00000000
00000000
01000000
00000000
00000000
00000000
00000000
00000000
00000000
00000000
00001000
00000000
00000000
00000000
00000000
00000000
00000000
00000000
00010000
00000000
00000000
00000000
00000000
00000000
00000000
00000000
00001000
00000000
00000000
00000000
00000000
00000000
00000000
00000000
00010000
00000000
00000000
00000000
00000000
00000000
00000000
00000000
,
00000100
00001000
00000001
00000010
00000000
00000010
00000100
00000000
00000100
00001000
00000000
00001000
,
00000010
00000000
00000010
00010000
00000100
00010000
00001000
00100000
00010000
01000000
00100000
01000000
,
00100000
10000000
00010000
01000000
00000000
01000000
00001000
00000000
00001000
00010000
00000000
00010000
,
00000100
00000000
00000000
00000000
00000100
00000000
00001000
00000000
00000000
00001000
00000000
00000000
00000100
00000000
00000000
00000100
00000000
00000000
00000000
00000000
00000000
00010100
00000000
00000000
,
00000000
00011000
00001000
00001000
00100000
00100000
00000000
00110000
,
00000000
10010000
10000000
10000000
00100000
00100000
00000000
01100000
,
00000000
00000000
10100000
00000000
00100000
00000000
10000000
00000000
01000000
00000000
00010000
00000000
00001000
00010000
00001000
00010000
,
00000100
00001000
00000001
00000000
00000100
00000000
00000001
00000000
00001000
00000000
00000100
00000000
00010000
00000000
00001000
00000000
,
00100000
00010000
00100000
01000000
00100000
01000000
10000000
00010000
,
01000000
00001000
00010000
00000010
00001000
00000100
00000010
00000001
,
00001000
00000000
00000100
00000000
00010000
00000100
00010000
00000000
00001000
00010000
00001000
00000000
01000000
00001000
01000000
00000000
,
00010000
01000000
00010000
00000000
01000000
00000000
00100000
00000000
10000000
00000000
00010000
00000000
01000000
00000000
00001000
00000000
,
00010000
00000100
00001000
00000010
00001000
00000010
00000100
00000010
,
00000100
00000001
00001000
00000010
00010000
00001000
01000000
00010000
,
10000000
00000000
00010000
00000000
01000000
00001000
01000000
00000000
00001000
00000000
00010000
00000000
00001000
00000000
00001000
00000000
,
00010000
00000000
00010000
00000000
00000010
00001000
00000001
00000000
00001000
00000000
00000010
00000000
00010000
00000000
00001000
00000000
,
01000000
00010000
00100000
01000000
00100000
00010000
10000000
00100000
,
01000000
00000000
00010000
00000000
01000000
00001000
00010000
00000000
00001000
00000000
00010000
00000000
00000100
00000000
00001000
00000000
,
00000001
00000000
00001000
00000000
00000010
00001000
00000010
00000000
00010000
00001000
00010000
00000000
00001000
00100000
00001000
00000000
,
00100000
00010000
00100000
00000000
00010000
10000000
01000000
00000000
10000000
00000000
01000000
00000000
00010000
00000000
00001000
00000000
,
00000010
00000001
00001000
00000010
00010000
00001000
00010000
00100000
,
01000000
00000000
00100000
00000000
10000000
00010000
00100000
00000000
00001000
00000000
00010000
00000000
00001000
00000000
00000100
00000000
,
00000001
00000000
00000100
00000000
00000010
00001000
00000010
00000000
00010000
00001000
00010000
00000000
00001000
01000000
00001000
00000000
,
01000000
00010000
10000000
01000000
00100000
00000000
00000000
00000000
00010000
00000000
10000000
00100000
01000000
00000000
00001000
00000000
,
00011000
00000000
00000000
00000000
00001100
00000000
00000110
00000000
00000001
00000000
00001000
00000010
00000100
00000000
00000010
00000000
,
00010000
00000000
00011000
00000000
00101000
00000000
00100000
00000000
00010000
00000000
10000000
01000000
00010000
00000000
00001000
00000000
,
00011000
00000000
00000000
00000000
00010000
00000000
00001000
00000000
00000100
00000000
00000001
00000100
00000001
00000000
00000100
00000000
,
00001000
00010000
00100000
01000000
00100000
00000000
00000000
00000000
00100000
00000000
00000000
00000000
10100000
00000000
00000000
00000000
,
10000000
00010000
10000000
00000000
00010000
00000000
00000000
00000000
00010000
00000000
00000000
00000000
00110000
00000000
00000000
00000000
,
00100000
00001000
00010000
00000000
00010000
00000000
00010100
00000000
,
00000100
00001000
00000100
00000000
00001000
00000000
00000000
00000000
00001000
00000000
00000000
00000000
00000001
00000000
00000010
00000000
,
00000100
00001000
00000001
00000100
00000001
00000100
00000010
00001000
,
00000010
00010000
00001000
00000000
00100000
00000000
00010000
00000000
00100000
00000000
00010000
00000000
10000000
00000000
01000000
00000000
,
10000000
00010000
01000000
00000000
00001000
00010000
00001000
00000000
00010000
00000100
00010000
00000000
00000100
00001000
00000100
00000000
,
00001000
00000000
00000000
00000001
00000000
00000000
00001000
00000000
00000000
00000000
00000000
00000000
00000010
00000000
00000000
00000000
00000000
00000000
00000000
00000000
00001010
00000000
00000000
00000000
00000000
00000000
00000000
00000000
00011000
00000000
00000000
00000000
00000000
00000000
00000000
00000000
00100000
00000000
00000000
00000000
00000000
00000000
00000000
00000000
00110000
00000000
00000000
00000000
,
00000000
00000000
00000000
00000000
01100000
00000000
00000000
00000000
00000000
00000000
00000000
00000000
10000000
00000000
00000000
00000000
00000000
00000000
00000000
00000000
00000000
00000000
00000000
00000000
00000000
00000000
00000000
00000000
00000000
00000000
10000000
00000000
00000000
00000000
00000000
00000000
01000000
00000000
00000000
00100000
00000000
00000000
01000000
00000000
00000000
00000000
00000000
00000000
,
00100000
00010000
00100000
00000000
00001000
00000000
00000000
00000000
00000000
00000000
00001000
00000000
00000000
00000000
00000000
00000000
,
00000000
00000000
00000000
00000000
00010000
00000000
00000000
00000000
00000000
00000000
00010000
00000000
00000010
00001000
00000010
00000000
,
00000100
00000000
00000000
00000001
00000000
00000000
00000100
00000000
00000000
00000000
00000000
00000000
00000001
00000000
00000000
00000000
00000000
00000000
00000000
00000000
00000000
00000000
00000000
00000000
00000000
00000000
00000000
00000000
00000000
00000000
00000001
00000000
00000000
00000000
00000000
00000000
00000010
00000000
00000000
00000000
00000000
00000000
00000000
00000000
00001000
00000000
00000000
00000000
,
00000000
00000000
00010000
00000000
00000000
00000000
00001000
00000000
00000000
00100000
00000000
00000000
00010000
00000000
00000000
01000000
00000000
00000000
00010000
00000000
00000000
00100000
00000000
00000000
,
00001000
00010000
00001000
00000000
00010000
00000000
00000010
00000000
00001000
00000000
00000100
00000000
00001000
00000000
00000010
00000000
,
00010000
00001000
00010000
00000000
00000100
00001000
00000100
00000000
00010000
00001000
00010000
00000000
00001000
01000000
00001000
00000000
,
01000000
00010000
01000000
00000000
00100000
10000000
00100000
10000000
00010000
01000000
00010000
01000000
00001000
00010000
00001000
00010000
,
00000100
00001000
00000100
00001000
00000100
00000000
00000000
00000000
00000000
00000000
00000000
00000000
00000000
00000000
00000000
00000000
,
00000000
00000000
00001001
00000000
00000000
00000000
00000001
00000010
,
00000001
00000010
00000001
00000010
00000001
00000010
00000001
00000010
,
00000001
00000010
00000001
00000010
00000001
00000010
00000100
00001000
,
00000100
00001000
00000100
00001000
00000100
00001000
00000100
00010000
,
00000100
00010000
00000100
00010000
00000100
00010000
00001000
00010000
,
00001000
00010000
00001000
00010000
00001000
00010000
00001000
00000000
,
00000000
00000000
00000000
00011000
,
00000000
00000000
00001000
01000000
00001000
01000000
00001000
01000000
,
00001000
01000000
00010000
10000000
00010000
10000000
00010000
10000000
,
00010000
10000000
00010000
00000000
00000000
00000000
00100000
01000000
,
00100000
01000000
00100000
00000000
00000000
00000000
00001000
00010000
,
00001000
00010000
00001000
00000000
00000000
00000000
00010000
00001000
,
00100000
00000000
00000000
00010000
00000000
00000000
10000000
00000000
00000000
00000000
00000000
00000000
00000000
00000000
00100000
00000000
00000000
00000000
00000000
00000000
00000000
00000000
01000000
00000000
,
00000000
00000000
10010000
00000000
00000000
00000000
10000000
01000000
,
10000000
01000000
10000000
01000000
10000000
01000000
10000000
01000000
,
10000000
01000000
10000000
01000000
10000000
01000000
00100000
00010000
,
00100000
00010000
00100000
00010000
00100000
00010000
00100000
00001000
,
00100000
00001000
00100000
00001000
00100000
00001000
00010000
00001000
,
00010000
00001000
00010000
00001000
00010000
00001000
00010000
00000000
,
00000000
00000000
00000000
00011000
,
00000000
00000000
00010000
00000010
00010000
00000010
00010000
00000010
,
00010000
00000010
00001000
00000001
00001000
00000001
00001000
00000001
,
00001000
00000001
00001000
00000000
00000000
00000000
00000100
00000010
,
00000100
00000010
00000100
00000000
00000000
00000000
00010000
00001000
,
00010000
00001000
00010000
00000000
00000000
00000000
00001000
00010000
,
00000100
00000000
00000000
00001000
00000000
00000000
00000001
00000000
00000000
00000000
00000000
00000000
00000000
00000000
00000100
00000000
00000000
00000000
00000000
00000000
00000000
00000000
00000010
00000000
,
00000000
00000000
00001000
00000001
00000010
00000100
00000010
00000001
,
00000100
00001000
00010000
00001000
01000000
00001000
00010000
00100000
,
10000000
00100000
00010000
01000000
00100000
01000000
00001000
00010000
,
00001000
00000000
00000000
00000100
00000000
00000000
00000010
00000000
00000000
00010000
00000000
00000000
00001000
00000000
00000000
00010000
00000000
00000000
00011000
00000000
00000000
00000000
00101000
00000000
,
00000000
00000000
00110000
00000000
00000000
00000000
00010000
00000000
00000000
10000000
00000000
00000000
01000000
00000000
00000000
00100000
00000000
00000000
01000000
00000000
00000000
10000000
00000000
00000000
,
00100000
00010000
00001000
00010000
00000010
00010000
00001000
00000100
,
00000001
00000000
00000000
00000100
00000000
00000000
00000001
00000000
00000000
00000000
00000010
00000000
00000000
00000000
00000100
00000000
00000000
00000000
00001000
00000000
00000000
00000000
00010000
00000000
,
00000000
00100000
00000000
01000000
00000000
10000000
00000000
01000000
00000000
00100000
00000000
00010000
,
00000000
10000000
00000000
11000000
00000000
01000000
00000000
00100000
00000000
00110000
00000000
00010000
,
00100000
00001000
00000000
00011000
00000000
00010000
00000000
00000100
00000000
00001000
00000000
00000100
,
00001000
00000001
00000000
00000101
00000000
00000100
00000000
00000010
00000000
00001000
00000100
00010000
,
00001000
00100000
00000000
00001000
01000000
00010000
10000000
01000000
00000000
00100000
00010000
00001000
,
00000100
00000010
00000000
00000001
00000000
00000100
00000000
00000010
00000000
00001000
00000000
00000010
,
00000000
00010000
00000000
00001000
00000000
00100000
00000000
00010000
00000000
00100000
00000000
01000000
,
00000000
10000000
00000000
00010000
00000000
01000000
00000000
00001000
00000000
00010000
00000000
00000010
,
00000000
00001000
00000000
00000010
00000000
00000100
00000000
00000001
00000000
00000010
00000000
00000100
,
00000000
00000010
00000000
00000001
00000000
00000100
00000000
00001000
00000000
00010000
00000000
00001000
,
00000000
00000100
00000000
00001000
00000000
00010000
00000000
00100000
00000000
00010000
00000000
00001000
,
00000000
00010000
00000000
01000000
00000000
10000000
00000000
01000000
00000000
00010000
00000000
01000000
,
00000000
00010000
00000000
00001000
00000000
00000010
00000000
00000001
00000000
00000010
00000000
00000100
,
00000000
00001000
00000000
00000002
00000000
00000000
00000000
00000000
00000000
00000000
00000000
00000000
,
00000000
00000000
00000000
00000000
,
00000000
00000003
00000000
00000000
,
00000000
00000000
00000000
00000000
;
