
//----- song ID: mesh -----//
#TITLE:Meteor☆Shower;
#ARTIST:Tatsunoshin;
#TITLETRANSLIT:Meteor Shower;
#BANNER:Meteor Shower.png;
#BACKGROUND:Meteor Shower-bg.png;
#CDTITLE:./CDTitles/bm IIDX 33 Sparkle Shower.png;
#MUSIC:Meteor Shower.ogg;
#SAMPLESTART:1.32;
#SAMPLELENGTH:15;
#BPMS:0=177;
#BGSTAGE:16;
#NOTES:
     dance-single:
     :
     Beginner:
     3:
     :
0000
0000
0000
0000
,
0000
0000
0000
0000
,
0000
0000
0000
0000
,
0000
0000
0000
0000
,
0000
0000
0000
0000
,
0001
0000
0000
0000
,
0001
0000
0000
0000
,
0010
0000
0000
0000
,
0000
0000
0000
0000
,
1000
0000
0000
0000
,
1000
0000
0000
0000
,
0010
0000
0000
0000
,
0000
0000
0000
0000
,
0010
0000
0000
0000
,
0010
0000
0000
0000
,
0001
0000
0000
0000
,
0000
0000
0000
0000
,
0001
0000
0000
0000
,
0100
0000
0000
0000
,
0001
0000
0000
0000
,
0000
0000
0000
0000
,
0001
0000
0000
0000
,
0001
0000
0000
0000
,
0010
0000
0000
0000
,
0000
0000
0000
0000
,
1000
0000
0000
0000
,
0100
0000
0000
0000
,
1000
0000
0000
0000
,
0000
0000
0000
0000
,
1000
0000
0000
0000
,
1000
0000
0000
0000
,
0010
0000
0000
0000
,
0000
0000
0000
0000
,
0002
0000
0000
0000
,
0003
0000
0000
0000
,
0001
0000
0001
0000
,
0010
0000
0000
0000
,
0020
0000
0000
0000
,
0030
0000
0000
0000
,
0010
0000
0010
0000
,
1000
0000
0000
0000
,
1001
0000
0000
0000
,
0000
0000
0000
0000
,
1001
0000
0000
0000
,
0000
0000
0000
0000
,
1000
0000
0100
0000
,
1000
0000
0000
0000
,
1000
0000
1000
0000
,
0010
0000
0000
0000
,
0020
0000
0000
0000
,
0030
0000
0000
0000
,
0002
0000
0000
0000
,
0003
0000
0000
0000
,
0001
0000
0001
0000
,
0100
0000
0000
0000
,
0001
0000
0001
0000
,
0010
0000
0000
0000
,
1001
0000
0000
0000
,
0000
0000
0000
0000
,
1001
0000
0000
0000
,
0000
0000
0000
0000
,
1000
0000
0000
0000
,
1000
0000
0000
0000
,
0010
0000
0000
0000
,
0000
0000
0000
0000
,
0001
0000
0000
0000
,
0010
0000
0000
0000
,
0001
0000
0000
0000
,
0010
0000
0000
0000
,
0020
0000
0000
0000
,
0030
0000
0000
0000
,
0200
0000
0000
0000
,
0300
0000
0000
0000
,
1000
0000
0000
0000
,
0100
0000
0000
0000
,
0010
0000
0000
0000
,
0000
0000
0000
0000
,
0001
0000
0000
0000
,
0100
0000
0000
0000
,
0010
0000
0000
0000
,
0000
0000
0000
0000
,
1000
0000
0000
0000
,
0010
0000
0000
0000
,
0001
0000
0000
0000
,
0000
0000
0000
0000
,
0001
0000
0000
0000
,
0010
0000
0000
0000
,
1000
0000
0000
0000
,
0000
0000
0000
0000
,
1001
0000
0000
0000
,
0000
0000
0000
0000
;
#NOTES:
     dance-single:
     :
     Easy:
     8:
     :
0000
0000
0000
0000
,
0000
0000
0000
0000
,
0000
0000
0000
0000
,
0000
0000
0000
0000
,
0000
0000
0000
0000
,
0002
0000
0000
0000
,
0003
0000
0000
0000
,
2000
0000
0000
0000
,
3000
0000
0000
0000
,
0001
0100
0010
1000
,
0001
0000
1000
0001
0000
1000
0001
0000
,
1000
0100
0010
0001
,
1000
0000
0001
0000
1000
0001
1000
0000
,
0001
0100
0001
0000
1000
0000
0010
0000
,
1000
0100
1000
0000
0001
0000
0010
0000
,
0001
0000
1000
0000
0001
1000
0001
0000
,
2002
0000
0000
3003
,
1000
0100
0010
0100
,
1000
0000
0001
0000
0100
0010
0100
0000
,
0001
0010
0100
1000
,
0001
0000
0100
0000
0010
1000
0010
0000
,
1000
0100
0001
0100
,
1000
0000
0001
0000
0010
0100
0010
0000
,
0001
0100
1000
0100
,
0001
0000
1000
0000
0100
0010
0100
0000
,
1000
0001
0011
0000
,
0001
1000
1010
0000
,
0110
0000
1001
0000
,
0100
0010
1001
0000
,
0001
1000
1100
0000
,
1000
0001
0101
0000
,
0110
0000
1001
0000
,
0010
0100
1001
0000
,
0001
0010
0100
1000
,
0001
0000
0100
0000
0010
1000
0001
0000
,
1000
0100
0010
0001
,
1000
0000
0010
0000
0100
0001
1000
0000
,
0001
0010
0100
0000
1000
0000
0000
0000
,
1000
0010
0100
0000
0001
0000
0000
0000
,
1000
0001
1000
0000
0001
1000
0001
0000
,
2002
0000
0000
3003
,
0001
0001
0001
0000
,
0010
0010
0010
0000
,
0100
0100
0100
0000
,
1000
1000
1000
0000
,
1100
0000
0011
0000
,
1100
0000
0011
0000
,
0101
0000
1010
0000
,
2002
0000
0000
3003
,
0001
0100
0010
0000
,
1000
1000
0000
1001
,
2000
0000
0000
3000
,
0002
0000
0000
0003
,
1000
0100
0010
0000
,
0001
0001
0000
1001
,
0002
0000
0000
0003
,
2000
0000
0000
3000
,
0001
0000
0010
0000
0100
0000
0000
1000
,
0000
1000
0000
1000
0000
0000
0000
0000
,
0110
0000
0000
0000
,
1001
0000
0000
0000
,
1000
0000
0100
0000
0010
0000
0000
0001
,
0000
0001
0000
0001
0000
0000
0000
0000
,
0110
0000
0000
0000
,
1001
0000
0000
0000
,
0001
0000
0100
0000
0010
1000
0010
0000
,
1000
0001
0100
0010
,
1000
0000
0100
0000
0010
0001
0010
0000
,
0001
1000
0010
0100
,
0001
1000
0001
0000
1000
0000
0000
0000
,
0100
0010
0100
0000
0010
0000
0000
0000
,
0001
0010
0001
0000
1000
0010
1000
0000
,
0002
0000
0000
0003
,
1000
0000
1000
0000
0100
0000
0010
0001
,
0000
1000
0000
1000
0000
0001
1000
0000
,
0001
0100
1000
0100
,
0001
1000
0100
0110
,
0001
0000
0001
0000
0100
0000
0010
1000
,
0000
0001
0000
0001
0000
1000
0001
0000
,
1000
0100
0001
0100
,
1000
0001
0100
0110
,
1000
0010
0100
0000
0001
0000
1000
0001
,
0000
1000
0000
1000
0000
0001
1000
0000
,
0001
0010
1000
0010
,
0001
0000
1000
0000
0010
0100
0010
0000
,
1000
0000
0010
0000
0100
0001
1000
0000
,
0001
0000
0010
0000
0100
1000
0001
0000
,
0100
0000
0010
0000
1000
0000
0001
1000
,
0000
0010
0000
0100
0000
0010
0000
0000
,
2002
0000
0000
0000
,
0000
0000
0000
0000
,
3003
0000
0000
0000
,
0000
0000
0000
0000
;
#NOTES:
     dance-single:
     :
     Medium:
     12:
     :
0000
0000
0000
0000
,
0000
0000
0000
0000
,
0000
0000
0000
0000
,
0000
0000
0000
0000
,
0000
0000
0000
0000
,
0002
0000
0000
0003
,
0020
0000
0000
0030
,
0200
0000
0000
0300
,
1000
2002
0000
3003
,
1000
0100
0010
0001
1000
0100
0010
0000
,
0001
1000
0001
1000
0000
1000
0001
0000
,
0001
0100
0010
1000
0001
0100
0010
0000
,
1000
0001
1000
0001
0100
0010
1000
0000
,
0001
0010
0001
0000
0100
0001
0100
0000
,
0010
1000
0010
0000
1000
0100
1000
0000
,
0001
0100
0010
1000
0100
0010
0001
0000
,
2002
0000
0000
3003
,
1001
0000
1000
0010
1000
0100
0010
0001
,
0000
1000
0001
0000
0100
0010
0100
0000
,
0001
0000
0100
0010
1000
0001
1000
0010
,
0000
0100
0001
0010
0100
0010
0001
0000
,
1000
0000
0001
0010
0001
0100
0010
1000
,
0000
0001
1000
0000
0100
0010
0001
0000
,
1000
0000
0100
0001
0100
1000
0100
0010
,
0000
0001
1000
0010
0100
0001
1000
0000
,
0001
0000
0010
0000
1000
0000
0010
0000
0001
0000
0000
1000
0000
0000
0001
0000
,
0100
0010
1000
0001
0000
0001
1000
0100
,
1000
0000
0010
0000
0100
0000
0001
0000
1000
0000
0000
0010
0000
0000
1000
0000
,
0000
1000
0100
0010
0001
1000
0100
0000
,
1000
0010
0100
0001
1000
0100
0001
0100
,
1000
0001
0100
0010
1000
0001
0010
0000
,
0011
0000
0000
0101
0000
0000
1001
0000
,
0000
1010
0000
0000
0110
0000
1001
0000
,
1000
0100
1000
0010
0100
0001
0010
0000
,
0001
0100
0001
0010
0100
1000
0010
0000
,
1000
0100
1000
0001
0100
0001
0010
0000
,
0001
0010
0001
1000
0010
1000
0100
0000
,
1000
0100
0001
0000
0001
0100
1000
0000
,
0001
0100
1000
0000
1000
0100
0001
0000
,
1000
0010
0001
0010
1000
0001
1000
0000
,
2002
0000
0000
3003
,
1000
1000
1010
1010
,
0001
0001
0011
0011
,
1000
1000
1100
1100
,
0001
0000
0001
0000
1000
0001
1000
0000
,
0001
0110
1000
0110
,
0001
0110
1000
0110
,
0001
0000
0100
0010
1000
0000
0100
0010
,
0002
0000
0000
0003
,
1000
0000
0001
0000
0100
0010
0100
0000
,
0010
1000
0000
1001
,
0002
0000
0000
0000
0000
0000
0003
1000
,
0200
0000
0000
0300
,
1000
0000
0001
0000
0000
1000
0001
0000
,
0100
0000
0010
0000
0000
0100
0010
0000
,
1000
0000
0001
0000
0000
1000
0001
0000
,
2002
0000
0000
3003
,
1000
0000
0100
0000
0010
0000
0001
1000
,
0000
0001
0000
1000
0000
0000
1001
0000
,
0001
0010
1000
0000
0010
0000
0001
0000
,
1000
0010
0001
0000
0010
0000
1000
0000
,
0001
0000
0100
0000
0010
0000
1000
0001
,
0000
1000
0000
0001
0000
0000
1001
0000
,
1000
0010
0001
0000
0010
0000
1000
0000
,
0001
0010
1000
0000
0010
0000
0001
0000
,
1000
0100
1000
0100
0010
0001
0010
0000
,
0001
0100
0001
0100
0000
0010
1000
0000
,
0001
0010
0001
0010
0100
1000
0100
0000
,
1000
0010
1000
0010
0000
0100
0001
0000
,
1000
0100
0010
0100
1000
0100
0010
0000
,
0001
0100
0010
0100
0001
0100
0010
0000
,
1000
0100
0010
0001
1000
0100
0010
0001
,
2000
0000
0000
3000
,
0011
0000
0110
0000
1100
0000
1000
0001
,
0000
0001
0100
0001
0000
0010
0100
0010
,
0001
1000
0010
0100
0001
1000
0010
0100
,
0000
0010
1000
0001
0000
0001
1000
0000
,
1010
0000
0110
0000
0101
0000
0001
1000
,
0000
1000
0100
1000
0000
0010
0100
0010
,
1000
0001
0010
0100
1000
0001
0010
0100
,
1000
0001
1000
0001
1000
0000
1001
0000
,
0001
0010
0100
1000
0100
0010
0001
1000
,
0000
1100
0000
0110
0000
0011
0001
1000
,
0010
0100
0001
0100
0010
1000
0001
0100
,
0000
0010
1000
0010
0000
1000
0001
0000
,
1000
0100
0001
0100
1000
0100
0010
0000
,
0001
0100
1000
0100
0001
0100
0010
0000
,
1000
0010
0100
0001
1000
0100
0010
0001
,
2000
0010
0000
0001
0000
0100
3000
0000
,
2002
0000
0000
0000
,
0000
0000
0000
0000
,
3003
0000
0000
0000
,
0000
0000
0000
0000
;
#NOTES:
     dance-single:
     :
     Hard:
     16:
     :
0000
0000
0000
0000
,
0000
0000
0000
0000
,
0000
0000
0000
0000
,
0000
0000
0000
0000
,
0000
0000
0000
0000
,
2000
0000
0000
0000
,
3002
0000
0000
0000
,
0203
0000
0000
0000
,
0310
2002
0000
3003
,
0001
0000
0010
0000
0100
0000
1000
0001
1000
0000
0010
0000
0001
0000
0010
0000
,
1000
0000
0100
0000
0010
0000
0001
1000
0000
0000
0010
0000
0100
0000
0010
0000
,
1000
0000
0001
0000
0010
0000
0100
0010
0100
0000
0010
0000
0001
0000
1000
0000
,
0010
0000
0001
0000
0010
0000
0100
0000
0101
0000
0001
0000
1000
0001
1000
0000
,
0001
0000
0100
0000
0001
0100
0001
0000
1000
0000
0100
0000
1000
0100
1000
0000
,
0001
0000
0010
0000
0001
0010
0001
0000
1000
0000
0010
0000
1000
0010
1000
0000
,
0001
0010
0100
0000
1000
0100
0010
0000
0001
0100
0010
0000
1000
0010
0100
0000
,
2002
0000
0000
3003
,
1001
0000
1010
0010
0100
0101
0000
1001
,
0000
0000
0001
0000
0011
0000
0000
0000
0001
0000
0100
0010
1000
0000
0000
0000
,
1010
0000
1001
0000
1000
1100
0000
0110
,
0000
0000
0010
0000
0011
0000
0001
0000
1000
0100
0010
0000
0001
1000
0001
1000
,
0001
0000
0000
0000
1000
0010
0100
0001
1000
0000
1010
0000
0000
0000
1001
0000
,
0000
0000
0001
0000
0101
0000
0000
0000
0011
0000
0010
0001
1000
0100
1000
0100
,
1000
0000
1001
0000
1000
1100
0100
0110
,
0000
0000
0010
0000
0001
0000
0100
0000
0010
0100
0001
1000
0010
0100
0001
0000
,
1000
0000
0100
0010
0001
0000
1000
0000
0010
0000
0100
0010
0000
0100
0010
0000
,
1000
0000
0010
0100
0001
0000
0010
0000
0100
0000
1000
0000
1001
0000
0001
0000
,
1000
0000
0001
0100
0010
0000
1000
0000
0100
0000
0010
0001
0000
0010
0001
0000
,
1000
0000
0010
0000
0001
0000
0010
0000
1000
0010
1000
0000
0001
0010
0100
1000
,
0001
0000
0100
0010
1000
0000
0100
0010
0001
0000
0100
0010
0000
0100
0010
0000
,
1000
0000
0010
0100
0001
0000
0010
0100
1000
0000
0001
0000
1000
0001
1000
0001
,
2000
0000
3010
0020
0000
0130
0200
0000
,
0301
0000
0002
0000
0000
0000
1003
0000
1000
0100
0010
0001
1000
0100
0010
0001
,
1000
0100
1100
1000
0010
0100
0101
0001
,
0010
0000
0100
0000
0110
0000
0010
0000
0001
1000
0001
0000
0100
0000
0010
0000
,
1000
0001
1001
1000
0010
0100
0101
0001
,
0010
0000
0100
0000
1100
0000
1000
0000
0100
0010
0001
1000
0100
0010
0001
0000
,
1000
0100
1000
0100
1000
0000
0100
0000
0010
0001
0010
0001
0010
0000
0001
0000
,
1000
0010
1000
0010
1000
0000
0001
0000
0100
0001
0100
0001
0100
0000
0010
0000
,
1000
0010
1000
0000
0001
0010
0001
0000
1000
0100
1000
0001
0100
0001
0100
0000
,
2002
0000
0000
3003
,
0011
0101
1010
1100
,
0011
0000
0101
0000
1010
1000
0001
1000
,
1100
0000
0000
0000
1010
0000
0000
0000
0101
0000
0000
0000
0011
0000
0001
1000
,
0001
0000
0000
0000
1000
0000
0100
0010
0001
0000
0100
0000
1000
0000
0100
0000
,
0001
0000
0000
1000
0100
0010
0100
0010
0001
0000
0000
1000
0010
0100
0010
0100
,
0001
0000
0000
1000
0100
0010
0100
0010
0001
0000
1000
0001
0000
1000
0001
0000
,
1000
0000
0000
0010
0100
0001
0100
0010
0100
0000
0000
0001
0010
0100
1000
0100
,
0010
0000
0001
1000
0000
0001
1000
0000
0001
0010
0100
1000
0001
0010
0100
1000
,
0002
0000
0000
0000
,
0203
0000
0000
0000
,
0320
0000
0000
0000
,
2030
0000
0000
0000
,
3001
0000
0010
0000
0000
0001
0010
0000
,
0100
0000
1000
0000
0000
0100
1000
0000
,
0010
0000
0100
0000
0000
0010
0100
0000
,
2002
0000
0000
3003
,
2000
0000
3200
0000
0302
0000
0103
1000
,
0000
1000
0001
1000
0000
0010
0100
0010
,
1000
0010
0001
0010
1000
0000
0100
0010
,
0000
0001
1000
0001
0000
0010
0100
0010
,
0002
0000
0203
0000
2300
0000
3100
0001
,
0000
0001
1000
0001
0000
0010
0100
0010
,
0001
0010
1000
0010
0001
0000
0100
0010
,
0000
1000
0001
1000
0000
0010
0100
0010
,
1000
0000
0001
0100
0001
0000
1000
0010
1000
0000
0100
0000
0010
0001
1000
0000
,
0001
0000
0010
0100
0010
0000
0001
1000
0001
0000
0100
0000
0001
1000
0001
0000
,
1000
0000
0010
0100
0001
0000
0010
0100
1000
0000
0100
0000
0010
0100
0010
0000
,
0001
1000
0001
0000
1000
0100
0010
0001
1000
0000
0010
0000
0100
0000
0100
0000
,
0001
0100
0010
0100
0001
0100
0010
0100
0001
0100
0010
0100
0001
0000
0000
0000
,
1000
0100
0010
0100
1000
0100
0010
0100
1000
0100
0010
0100
1000
0000
0000
0000
,
0001
0010
0100
1000
0001
0010
0100
1000
0100
0010
0100
0010
0001
1000
0001
1000
,
0002
0000
0000
0003
,
1000
0000
0010
0100
0001
0000
0010
0100
1000
0000
0001
1000
0001
0000
1000
0000
,
0010
0100
0010
0000
1000
0000
0001
0000
0000
0000
0001
0010
0100
0010
0001
0000
,
1000
0000
0010
0100
0010
0000
0001
0010
1000
0000
0001
0100
0010
0000
1000
0000
,
0000
0000
0001
1000
0001
0000
0100
0000
0000
0000
0001
0100
0010
1000
0000
1000
,
0001
0000
0100
0010
1000
0000
0100
0010
0001
0000
1000
0001
1000
0000
0001
0000
,
0100
0010
0100
0000
0001
0000
1000
0000
0000
0000
1000
0100
0010
0100
1000
0000
,
0001
0000
0100
0010
0100
0000
1000
0100
0001
0000
1000
0010
0100
0000
0001
0000
,
1000
1000
0010
0010
0100
0010
1001
0000
,
1000
0000
0100
0000
0001
0000
0100
0010
0001
0000
1000
0000
0010
0000
1000
0000
,
0000
0000
1010
0000
0000
0000
0101
0000
0000
0000
0011
0000
0001
0000
1000
0001
,
1000
0000
0010
0100
0001
0000
0010
0100
1000
0000
0001
1000
0001
0000
0100
0000
,
0000
0000
0100
0000
0010
0000
0100
0000
0000
0000
0001
0000
1000
0001
0000
0001
,
1000
0000
0100
0000
0010
0000
0001
0100
0010
0000
1000
0000
0010
0100
0001
0000
,
0010
0000
0100
0000
1000
0000
0001
0000
0000
0000
0001
0000
0010
0100
0010
0000
,
0001
0010
0100
1000
0100
0010
0001
0000
1000
0010
0100
0001
0100
0010
1000
0000
,
0000
0001
1000
0001
0000
0100
0010
0100
,
0020
0000
0000
0000
,
0000
0000
0000
0000
,
0030
0000
0000
0000
,
0000
0000
0000
0000
;
#NOTES:
     dance-double:
     :
     Easy:
     8:
     :
00000000
00000000
00000000
00000000
,
00000000
00000000
00000000
00000000
,
00000000
00000000
00000000
00000000
,
00000000
00000000
00000000
00000000
,
00000000
00000000
00000000
00000000
,
00002000
00000000
00000000
00000000
,
00003000
00000000
00000000
00000000
,
00020000
00000000
00000000
00000000
,
00030000
00000000
00000000
00000000
,
00001000
00010000
00000100
00001000
,
00000100
00000000
00000010
00000100
00000000
00000010
00000100
00000000
,
00000010
00000001
00001000
00000010
,
00010000
00000000
00001000
00000000
00010000
00001000
00010000
00000000
,
00001000
00010000
00001000
01000000
,
00010000
01000000
00010000
00100000
,
01000000
00100000
01000000
00000000
00100000
01000000
00100000
00000000
,
20020000
00000000
00000000
30030000
,
10000000
01000000
00010000
00010000
,
00001000
00000010
00000001
00000000
,
00000001
00000100
00001000
00001000
,
00010000
00100000
10000000
00000000
,
10000000
01000000
00100000
00001000
,
00010000
00000100
00001000
00000000
,
00000001
00000100
00000010
00010000
,
00001000
01000000
00010000
00000000
,
10000000
00100000
00010000
00100000
,
10000000
01000000
10010000
00000000
,
10000000
01000000
00100000
00010000
,
00100000
00001000
00010000
00000000
,
00001000
00000010
00000001
00000010
,
00000100
00001000
00001001
00000000
,
00000001
00000100
00000010
00010000
,
00001000
00010000
00001000
00000000
,
00010000
00001000
00100000
00010000
,
01000000
00000000
00010000
00000000
00100000
01000000
00100000
00000000
,
00010000
10000000
01000000
00100000
,
00010000
00000000
00100000
00000000
00001000
00010000
00001000
00000000
,
00010000
00000010
00010000
00000000
00000010
00000000
00001000
00000000
,
00000100
00000010
00000100
00000000
00000010
00000000
00000001
00000000
,
00000100
00000010
00000100
00000000
00000010
00000100
00000010
00000000
,
00002002
00000000
00000000
00003003
,
00001000
00001000
00001000
00000000
,
00000010
00000010
00000010
00000000
,
00010000
00010000
00010000
00000000
,
00001000
00001000
00001000
00000000
,
00011000
00000000
00000000
00000000
,
01100000
00000000
00000000
00000000
,
00011000
00000000
00000000
00000000
,
00000110
00000000
00000000
00000000
,
00000001
00000010
00000100
00000000
,
00000100
00010000
00001000
00000000
,
00020000
00000000
00000000
00030000
,
00002000
00000000
00000000
00003000
,
00001000
01000000
00010000
00000000
,
00010000
00100000
01000000
00000000
,
20000000
00000000
00000000
30000000
,
00020000
00000000
00000000
00030000
,
10000000
00000000
01000000
00000000
00100000
00000000
00000000
00010000
,
00000000
00010000
00000000
00010000
00000000
00000000
00000000
00000000
,
00100000
00000000
00001000
00000000
,
00011000
00000000
00000000
00000000
,
00010000
00000000
00000010
00000000
00001000
00000000
00000000
00000001
,
00000000
00000001
00000000
00000001
00000000
00000000
00000000
00000000
,
00000100
00000000
00000010
00000000
,
00000110
00000000
00000000
00000000
,
00000001
00000000
00000100
00000000
00000010
00001000
00000010
00000000
,
00010000
00001000
00010000
00000000
,
00001000
00000000
00100000
00000000
00010000
00100000
00010000
00000000
,
00100000
01000000
10000000
00000000
,
10000000
00100000
01000000
00000000
00010000
00000000
00000000
00000000
,
00100000
00001000
00010000
00000000
00001000
00000000
00000000
00000000
,
00010000
00000100
00001000
00000000
00000010
00000100
00000001
00000000
,
00002000
00000000
00000000
00003000
,
00000001
00000000
00000010
00000000
00000100
00000000
00001000
00000100
,
00000000
00010000
00000000
00010000
00000000
00000000
00011000
00000000
,
00001000
00010000
01000000
10000000
,
00010000
00100000
01100000
10010000
,
10000000
00000000
00100000
00000000
01000000
00000000
00010000
01000000
,
00000000
00001000
00000000
00001000
00000000
00000000
00011000
00000000
,
00010000
00001000
00000100
00000001
,
00001000
00000010
00000110
00001001
,
00000001
00000100
00000010
00000000
00001000
00000000
00000010
00010000
,
00000000
00001000
00000000
00010000
00000000
00001000
00010000
00000000
,
00001000
01000000
00010000
10000000
,
01000000
00000000
00100000
00000000
00010000
10000000
00010000
00000000
,
10000000
00000000
01000000
00000000
00100000
00001000
00010000
00000000
,
00000010
00000000
00001000
00000000
00000100
00000010
00000001
00000000
,
00000100
00000000
00001000
00000000
00010000
00000000
00100000
10000000
,
00000000
00100000
00000000
01000000
00000000
00100000
00000000
00000000
,
20020000
00000000
00000000
00000000
,
00000000
00000000
00000000
00000000
,
30030000
00000000
00000000
00000000
,
00000000
00000000
00000000
00000000
;
#NOTES:
     dance-double:
     :
     Medium:
     12:
     :
00000000
00000000
00000000
00000000
,
00000000
00000000
00000000
00000000
,
00000000
00000000
00000000
00000000
,
00000000
00000000
00000000
00000000
,
00000000
00000000
00000000
00000000
,
00002000
00000000
00000000
00003000
,
00020000
00000000
00000000
00030000
,
00200000
00000000
00000000
00300000
,
10000000
20020000
00000000
30030000
,
10000000
00010000
10000000
00010000
00100000
00010000
00100000
00000000
,
00010000
00100000
00001000
00010000
00000000
00010000
00001000
00000000
,
00010000
00000100
00010000
00000100
00001000
00000100
00001000
00000000
,
00000100
00000010
00000100
00000010
00000001
00001000
00000001
00000000
,
00001000
00000100
00001000
00000000
00000100
00010000
00000100
00000000
,
00010000
00001000
00010000
00000000
00001000
01000000
00001000
00000000
,
01000000
00010000
01000000
00100000
10000000
00010000
10000000
00000000
,
20020000
00000000
00000000
30030000
,
10010000
00000000
10000000
00100000
01000000
00010000
00000000
10010000
,
00000000
10000000
00010000
00000000
00100000
00001000
00100000
00000000
,
00001000
00000000
00010000
00000010
00001000
00000010
00010000
00000100
,
00000000
00001000
00000100
00000010
00000001
00001000
00000001
00000000
,
00001000
00000000
00000001
00000100
00000001
00000100
00000010
00001000
,
00000000
00001000
00000100
00000000
00010000
00001000
00010000
00001000
,
01000000
00010000
01000000
00100000
01000000
10000000
01000000
00010000
,
00000000
00010000
10000000
00010000
01000000
00100000
01000000
00000000
,
00010000
00000000
01000000
00000000
00001000
00000000
00010000
00000000
00000010
00000000
00000000
00001000
00000000
00000000
00000010
00000000
,
00001000
00000001
00001000
00000001
00000000
00000001
00001000
00000000
,
00000001
00000000
00001000
00000000
00000100
00000000
00010000
00000000
00001000
00000000
00000000
00100000
00000000
00000000
00010000
00000000
,
00000000
00100000
01000000
10000000
00010000
10000000
00010000
00000000
,
10000000
00100000
01000000
00010000
10000000
01000000
00100000
00010000
,
00100000
00001000
00010000
00000100
00001000
00000010
00000100
00000000
,
00000101
00000000
00000000
00001001
00000000
00000000
00001010
00000000
,
00000000
00010010
00000000
00000000
00011000
00000000
00011000
00000000
,
00001000
01000000
00010000
00100000
00010000
01000000
00001000
00000000
,
00010000
00001000
00100000
00010000
10000000
00100000
10000000
00000000
,
01000000
00100000
01000000
10000000
00010000
01000000
00001000
00000000
,
00010000
00001000
00100000
00001000
00010000
00000000
00011000
00000000
,
00010000
00001000
00000010
00000000
00000001
00000000
00001000
00000000
,
00000001
00000100
00001000
00000000
00010000
00000000
00001000
00000000
,
00010000
00100000
10000000
00100000
01000000
00010000
10000000
00000000
,
20020000
00000000
00000000
30030000
,
10000000
10000000
11000000
11000000
,
01000000
01000000
01100000
00110000
,
00010000
00010000
00110000
00101000
,
00001000
00010000
00011000
00000000
,
00010000
00001000
00000010
00000000
00000001
00000000
00001000
00000000
,
00000001
00000100
00001000
00000000
00010000
00000000
00001000
00000000
,
00010000
00100000
10000000
00000000
01000000
00100000
00010000
00000000
,
20000000
00000000
00000000
30000000
,
10000000
00100000
00010000
00001000
,
00000100
00000001
00000000
00001001
,
00000002
00000000
00000000
00000000
00000000
00000000
00000003
00001000
,
00000020
00000000
00000000
00000030
,
00000010
00001000
00000001
00000010
,
00001000
00000000
00010000
00000000
00000000
00010000
01000000
00000000
,
10000000
00000000
00010000
00000000
00000000
10000000
00010000
00000000
,
20020000
00000000
00000000
30030000
,
10000000
00000000
00100000
00000000
01000000
00000000
00010000
00100000
,
00000000
00001000
00000000
00010000
00000000
00000000
00011000
00000000
,
00001000
00010000
00000010
00000000
00001000
00000000
00000100
00000010
,
00000000
00000001
00001000
00000001
00000000
00000100
00000010
00000000
,
00001000
00000000
00000010
00000000
00010000
00000000
00001000
00100000
,
00000000
00010000
00000000
01000000
00000000
00000000
01100000
00000000
,
00100000
10000000
01000000
00000000
00100000
00010000
01000000
00000000
,
20020000
00000000
00000000
30030000
,
10000000
01000000
10000000
01000000
00010000
01000000
00010000
00000000
,
00001000
00010000
00001000
00010000
00000000
00010000
00001000
00000000
,
00010000
00001000
00010000
00001000
00000010
00001000
00000010
00000000
,
00000001
00001000
00000001
00001000
00000001
00000000
00001001
00000000
,
00000001
00001000
00000010
00001000
00000001
00001000
00000010
00000000
,
00001000
00000100
00010000
00000100
00001000
00000100
00010000
00000000
,
00001000
01000000
00010000
00000000
00100000
01000000
10000000
00000000
,
00020000
00000000
00000000
00030000
,
10010000
00000000
10100000
00000000
01100000
00000000
01000000
00001000
,
00000000
00001000
00010000
00001000
00000000
00010000
00000100
00001000
,
00000010
00000100
00000010
00001000
00000100
00000010
00000001
00001000
,
00000000
00000001
00000100
00001000
00000000
00010000
00001000
00000000
,
00011000
00000000
00101000
00000000
00110000
00000000
00010000
01000000
,
00000000
01000000
00100000
01000000
00000000
01000000
10000000
01000000
,
00010000
10000000
01000000
00100000
00001000
00010000
00000100
00001000
,
00000001
00000001
00000001
00000000
00000001
00000000
00001001
00000000
,
00000001
00000100
00000010
00001000
00000001
00000010
00000100
00010000
,
00001000
00100000
00010000
01000000
10000000
01000000
00010000
00000000
,
10000000
01000000
00010000
00001000
00100000
01000000
00100000
00001000
,
00010000
00000100
00001000
00000010
00000100
00000001
00001000
00000000
,
00000001
00000100
00000010
00010000
00001000
00100000
00010000
01000000
,
10000000
01000000
00010000
00100000
01000000
00010000
00001000
00000000
,
00010000
00000010
00000100
00000001
00001000
00000100
00010000
00001000
,
00000000
00100000
01000000
10000000
00000000
00100000
01000000
00100000
,
02000000
00000000
00000000
00000000
,
00000000
00000000
00000000
00000000
,
03000000
00000000
00000000
00000000
,
00000000
00000000
00000000
00000000
;
#NOTES:
     dance-double:
     :
     Hard:
     16:
     :
00000000
00000000
00000000
00000000
,
00000000
00000000
00000000
00000000
,
00000000
00000000
00000000
00000000
,
00000000
00000000
00000000
00000000
,
00000000
00000000
00000000
00000000
,
00020000
00000000
00000000
00000000
,
00032000
00000000
00000000
00000000
,
00003200
00000000
00000000
00000000
,
00000301
00002002
00000000
00003003
,
00000001
00000000
00000100
00000000
00000010
00000000
00001000
00000010
00001000
00000000
00000010
00000000
00010000
00000000
00000000
00000000
,
00001000
00000000
00100000
00000000
00010000
00000000
00100000
01000000
00000000
00000000
10000000
00000000
00010000
00000000
00000000
00000000
,
10000000
00000000
01000000
00000000
00100000
00000000
00010000
00100000
00010000
00000000
00100000
00000000
00001000
00000000
00000000
00000000
,
00010000
00000000
00000100
00000000
00001000
00000000
00000100
00000000
00000110
00000000
00000010
00000000
00000001
00001000
00000001
00000000
,
00000010
00000000
00000100
00000000
00001000
00000100
00001000
00000000
00000100
00000000
00010000
00000000
00001000
00010000
00001000
00000000
,
00100000
00000000
00001000
00000000
00100000
00010000
00100000
00000000
00010000
00000000
01000000
00000000
00100000
10000000
00100000
00000000
,
10000000
01000000
00100000
00000000
00010000
00100000
00001000
00000000
00010000
00000100
00001000
00000000
00000100
00000010
00000001
00000000
,
00002002
00000000
00000000
00003003
,
00001001
00000000
00000001
00000100
00001000
00011000
00000000
01100000
,
00000000
00000000
00000000
00000000
10010000
00000000
00000000
00000000
10000000
00000000
00010000
10000000
00010000
00000000
00000000
00000000
,
10000000
01000000
00100000
00001000
00010000
01000000
00100000
00001000
,
00000000
00000000
00001000
00000000
00010000
00000000
00000010
00000000
00001000
00000010
00001000
00000000
00000001
00000100
00000001
00000000
,
00001000
00000000
00000000
00000000
00000001
00000010
00000100
00001000
00000100
00000000
00010000
00000000
00000000
00000000
00011000
00000000
,
00000000
00000000
00001000
00000000
00101000
00000000
00000000
00000000
00110000
00000000
00100000
00010000
10000000
00100000
10000000
00100000
,
10000000
00000000
10010000
00000000
00010000
01010000
01000000
01001000
,
00000000
00000000
00001000
00000000
00011000
00000000
00000000
00000000
00010000
00000100
00001000
00000100
00010000
00000010
00001000
00000000
,
00000001
00000000
00000010
00000100
00001000
00000000
00000010
00000000
00000100
00000000
00001000
00010000
00000000
00001000
00010000
00000000
,
00100000
00000000
01000000
00010000
10000000
00000000
01000000
00000000
00100000
00000000
00010000
00000000
10010000
00000000
10000000
00000000
,
01000000
00000000
00100000
00001000
00010000
00000000
00000010
00000000
00001000
00000000
00000010
00000100
00000000
00000010
00000100
00000000
,
00000001
00000000
00000010
00000000
00001000
00000000
00000010
00000000
00000001
00001000
00000001
00000000
00000010
00000100
00001000
00000100
,
00010000
00000000
00001000
01000000
00010000
00000000
01000000
00100000
10000000
00000000
00010000
10000000
00000000
00010000
10000000
00000000
,
01000000
00000000
00100000
00001000
00010000
00000000
00000100
00001000
00000001
00000000
00000100
00000000
00000010
00000100
00000010
00000100
,
00000020
00000000
00010030
00020000
00000000
00031000
00002000
00000000
,
01003000
00000000
02000000
00000000
00000000
00000000
03100000
00000000
00100000
10000000
00010000
01000000
00100000
10000000
00010000
01000000
,
00100000
10000000
10010000
00010000
00100000
00001000
00011000
00010000
,
00000010
00000000
00001000
00000000
00001100
00000000
00000100
00000000
00000010
00000100
00000010
00000000
00000001
00000000
00001000
00000000
,
00000010
00000100
00000101
00000001
00001000
00000100
00010100
00010000
,
00001000
00000000
00100000
00000000
00110000
00000000
00010000
00000000
01000000
00100000
01000000
00100000
10000000
00100000
10000000
00000000
,
01000000
00100000
01000000
00100000
01000000
00000000
00100000
00000000
00010000
00100000
00010000
00100000
00010000
00000000
00100000
00000000
,
00001000
00010000
00001000
00010000
00001000
00000000
00010000
00000000
00000010
00001000
00000010
00001000
00000010
00000000
00001000
00000000
,
00000001
00000100
00000001
00000000
00001000
00000100
00001000
00000000
00000100
00010000
00000100
00000000
00010000
00001000
00010000
00001000
,
00020000
00000000
00000000
00030000
,
00011000
00110000
10100000
10010000
,
11000000
00000000
01010000
00000000
00011000
00001000
00010000
00001000
,
00011000
00001010
00000011
00001001
,
00000101
00000000
00001100
00000000
00011000
00010000
00001000
00010000
,
00001000
00000000
00000000
01000000
00100000
01000000
00100000
00000000
00010000
00000000
00000000
00000100
00000010
00000100
00000010
00000000
,
00001000
00000000
00000000
00100000
01000000
00100000
01000000
00000000
00010000
00000000
00001000
00010000
00000000
00001000
00010000
00000000
,
00001000
00000000
00000000
00010000
00100000
01000000
00100000
00010000
00001000
00000000
00000000
00001000
00000010
00000100
00000010
00001000
,
00020000
00000000
00000000
00000000
00000000
00000000
00000000
00000000
00031000
01000000
00010000
01000000
00100000
10000000
00010000
10000000
,
00020000
00000000
00000000
00000000
,
02030000
00000000
00000000
00000000
,
03002000
00000000
00000000
00000000
,
00023000
00000000
00000000
00000000
,
00031000
00000000
00010000
00000000
00000000
00000010
00001000
00000000
,
00000100
00000000
00000010
00000000
00000000
00000001
00001000
00000000
,
00000001
00000100
00001000
00000000
00010000
00100000
10000000
00000000
,
20020000
00000000
00000000
30030000
,
20000000
00000000
30200000
00000000
00320000
00000000
00031000
00000100
,
00000000
00000100
00000001
00001000
00000000
00000001
00000010
00000100
,
00010000
00001000
01000000
00100000
00010000
00001000
00000100
00000001
,
00000000
00000010
00001000
00010000
00001000
00000010
00000001
00000000
,
00000002
00000000
00000023
00000000
00002030
00000000
00013000
01000000
,
00000000
01000000
10000000
00010000
00000000
10000000
00100000
01000000
,
00001000
00010000
00000100
00000010
00001000
00010000
01000000
10000000
,
00000000
00100000
00010000
00001000
00010000
00100000
10000000
00000000
,
00010000
00000000
00100000
01000000
00100000
00000000
00001000
00100000
00001000
00000000
00010000
00000000
00000100
00000000
00001000
00000000
,
00000001
00000000
00000010
00000100
00001000
00000000
00000010
00000100
00000001
00000000
00001000
00000000
00000001
00000000
00000000
00000000
,
00001000
00000000
00000010
00000100
00000010
00000000
00010000
00000010
00010000
00000000
00001000
00000000
01000000
00000000
00010000
00000000
,
10000000
00000000
00100000
01000000
00010000
00000000
00100000
01000000
10000000
00000000
00010000
00000000
10000000
00000000
00000000
00000000
,
00010000
00100000
01000000
00100000
00010000
00100000
00001000
00100000
00001000
00010000
00001000
01000000
00001000
00000000
00000000
00000000
,
00010000
00001000
00010000
00000100
00001000
00000100
00000010
00000100
00001000
00000100
00010000
00001000
00010000
00000000
00000000
00000000
,
00001000
00010000
00001000
01000000
00010000
00100000
00001000
00010000
00000100
00001000
00000100
00000010
00000100
00001000
00000100
00010000
,
00002000
00000000
00000000
00003000
,
00010000
00000000
00001000
01000000
00010000
00000000
00100000
01000000
10000000
00000000
00100000
01000000
00100000
00000000
10000000
00000000
,
00010000
00100000
00010000
00000000
00100000
00000000
00001000
00000000
00000000
00000000
00001000
00010000
00000100
00001000
00000100
00000000
,
00000010
00000000
00000100
00000001
00000100
00000000
00000010
00000100
00001000
00000000
00000100
00010000
00000100
00000000
00001000
00000000
,
00000000
00000000
00000001
00000100
00000010
00000000
00001000
00000000
00000000
00000000
00001000
00000010
00010000
00000000
00000000
00000000
,
00001000
00000000
00010000
00000100
00001000
00000000
00000010
00000100
00000001
00000000
00000010
00000100
00000010
00000000
00000001
00000000
,
00001000
00000010
00001000
00000000
00000010
00000000
00010000
00000000
00000000
00000000
00010000
00001000
01000000
00010000
01000000
00000000
,
00100000
00000000
01000000
10000000
01000000
00000000
00100000
01000000
00010000
00000000
01000000
00001000
01000000
00000000
00010000
00000000
,
10000000
10000000
01000000
01000000
00100000
00000000
10010000
00000000
,
10000000
00000000
01000000
00000000
00010000
00000000
00001000
00000010
00000001
00000000
00001000
00000100
00000010
00000000
00000001
00000000
,
00000000
00000000
00000011
00000000
00000000
00000000
00001001
00000000
00000000
00001000
00000001
00000000
00001000
00000000
00000000
00000000
,
00000001
00000100
00000010
00000000
00001000
00000010
00010000
00000000
00001000
00000000
00010000
00001000
00010000
00000000
00001000
00000000
,
00000000
00000000
00001000
00000000
00010000
00000000
01000000
00000000
00000000
00000000
10000000
00000000
00010000
10000000
00000000
10000000
,
00010000
00000000
00100000
00000000
01000000
00000000
00010000
00001000
00000010
00000000
00000001
00000000
00000100
00000010
00001000
00000000
,
00000001
00000000
00000010
00000000
00001000
00000000
00010000
00000000
00000000
00000000
00001000
00000000
00010000
00001000
00010000
00000000
,
00001000
01000000
00010000
00100000
00001000
01000000
00010000
00000000
00100000
00010000
00100000
00001000
00010000
00000100
00001000
00000000
,
00000001
00000100
00001000
00010000
00000000
00010000
00100000
10000000
,
00020000
00000000
00000000
00000000
,
00000000
00000000
00000000
00000000
,
00030000
00000000
00000000
00000000
,
00000000
00000000
00000000
00000000
;
