
//----- song ID: mesm -----//
#TITLE:メズマライザー;
#ARTIST:サツキ feat.初音ミク・重音テト;
#TITLETRANSLIT:Mesmerizer;
#ARTISTTRANSLIT:Satsuki feat. Miku Hatsune・Teto Kasane;
#BANNER:Mesmerizer.png;
#BACKGROUND:Mesmerizer-bg.png;
#CDTITLE:./CDTitles/Polaris Chord.png;
#MUSIC:Mesmerizer.ogg;
#SAMPLESTART:39.48;
#SAMPLELENGTH:15;
#BPMS:0=185;
#NOTES:
     dance-single:
     :
     Beginner:
     2:
     :
0000
0000
0000
0000
,
0000
0000
0000
0000
,
0000
0000
0000
0000
,
1000
0000
0000
0000
,
0000
0000
0000
0000
,
1000
0000
0000
0000
,
0000
0000
0000
0000
,
0010
0000
0000
0000
,
0000
0000
0000
0000
,
0010
0000
0000
0000
,
0000
0000
0000
0000
,
0001
0000
0000
0000
,
0000
0000
0000
0000
,
0001
0000
0000
0000
,
0000
0000
0000
0000
,
0001
0000
0000
0000
,
0001
0000
0000
0000
,
0100
0000
0000
0000
,
0000
0000
0000
0000
,
0001
0000
0000
0000
,
0001
0000
0000
0000
,
0010
0000
0000
0000
,
0000
0000
0000
0000
,
0010
0000
0000
0000
,
0000
0000
0000
0000
,
0010
0000
0000
0000
,
0000
0000
0000
0000
,
1000
0000
0000
0000
,
0000
0000
0000
0000
,
1000
0000
0000
0000
,
0000
0000
0000
0000
,
1000
0000
0000
0000
,
1000
0000
0000
0000
,
0010
0000
0000
0000
,
0000
0000
0000
0000
,
0010
0000
0000
0000
,
0010
0000
0000
0000
,
0001
0000
0000
0000
,
0000
0000
0000
0000
,
0001
0000
0000
0000
,
0001
0000
0000
0000
,
0010
0000
0000
0000
,
0000
0000
0000
0000
,
0010
0000
0000
0000
,
0010
0000
0000
0000
,
1000
0000
0000
0000
,
0000
0000
0000
0000
,
1000
0000
0000
0000
,
0000
0000
0000
0000
,
2000
0000
0000
0000
,
3000
0000
0000
0000
,
1000
0000
0000
0000
,
0000
0000
0000
0000
,
0020
0000
0000
0000
,
0030
0000
0000
0000
,
0010
0000
0000
0000
,
0000
0000
0000
0000
,
0002
0000
0000
0000
,
0003
0000
0000
0000
,
0001
0000
0000
0000
,
0000
0000
0000
0000
,
0001
0000
0000
0000
,
0000
0000
0000
0000
,
0010
0000
0000
0000
,
0000
0000
0000
0000
,
1000
0000
0000
0000
,
0000
0000
0000
0000
,
0010
0000
0000
0000
,
0000
0000
0000
0000
,
0000
0000
0000
0000
,
0000
0000
0000
0000
,
0001
0000
0000
0000
,
0001
0000
0000
0000
,
0100
0000
0000
0000
,
0000
0000
0000
0000
,
0001
0000
0000
0000
,
0001
0000
0000
0000
,
0010
0000
0000
0000
,
0000
0000
0000
0000
,
1000
0000
0000
0000
,
1000
0000
0000
0000
,
0010
0000
0000
0000
,
0000
0000
0000
0000
,
1000
0000
0000
0000
,
1000
0000
0000
0000
,
0100
0000
0000
0000
,
0000
0000
0000
0000
,
1000
0000
0000
0000
,
0000
0000
0000
0000
,
0010
0000
0000
0000
,
0000
0000
0000
0000
,
0001
0000
0000
0000
,
0000
0000
0000
0000
,
0100
0000
0000
0000
,
0000
0000
0000
0000
,
0001
0000
0000
0000
,
0000
0000
0000
0000
;
#NOTES:
     dance-single:
     :
     Easy:
     6:
     :
0000
0000
0000
0000
,
0000
0000
0000
0000
,
0000
0000
0000
0000
,
0001
0000
0100
0000
,
0010
0010
1000
0000
,
0001
0000
1000
0000
,
0100
0010
0100
0000
,
2000
0000
0000
0000
,
3000
0000
0000
0000
,
0200
0000
0000
0000
,
0300
0000
0000
0000
,
0020
0000
0000
0000
,
0030
0000
0000
0000
,
0002
0000
0000
0000
,
0003
0000
0000
0000
,
0001
0000
0010
0000
,
0100
1000
0100
0000
,
1000
0000
0001
0000
,
0100
0000
0110
0000
,
1000
0000
0010
0000
,
0100
0001
0100
0000
,
0001
0000
1000
0000
,
0100
0000
0110
0000
,
0002
0000
0000
0003
,
0001
0000
0001
0000
,
2000
0000
0000
3000
,
1000
0000
1000
0000
,
0020
0000
0000
0030
,
0010
0000
0010
0000
,
0100
0000
0100
0100
,
0000
0000
0000
0000
,
1001
0000
0110
0000
,
0001
1000
0001
0000
,
1000
0000
0100
0000
,
0010
0010
0010
0000
,
1001
0000
0110
0000
,
1000
0001
1000
0000
,
0001
0000
0010
0000
,
0100
0000
0000
0000
,
1001
0000
0110
0000
,
0001
1000
0001
0000
,
1000
0000
0010
0000
,
0100
0100
0100
0000
,
1001
0000
0110
0000
,
1000
0001
1000
0000
,
0001
0000
0100
0000
,
0010
0000
0000
0000
,
1001
0000
0000
0000
,
0000
0000
0000
0000
,
2000
0000
0000
3000
,
1000
0000
0100
0000
,
0020
0000
0000
0030
,
0010
0000
0001
0000
,
1001
0000
0000
0000
,
0000
0000
0000
0000
,
0110
0000
0000
0000
,
0000
0000
0000
0000
,
1000
0000
0010
0000
,
0001
0000
0010
0000
,
1000
0000
0001
0000
,
1000
0000
0000
0000
,
0001
0000
0100
0000
,
1000
0000
0100
0000
,
0001
0000
1000
0000
,
0001
0000
0000
0000
,
1000
0100
1000
0000
,
0100
0010
0100
0000
,
0010
0000
0001
0000
,
1000
0001
1000
0000
,
0000
0000
0000
0000
,
0000
0000
0000
0000
,
1000
1000
0100
0000
,
0010
0000
0010
0000
,
0001
0000
1000
0000
,
0001
0001
0100
0000
,
0010
0000
0010
0000
,
0010
0000
0000
0000
,
1000
0000
0010
0000
,
0100
0001
0100
0000
,
0001
0000
1000
0000
,
0001
0000
0000
0000
,
0001
0000
0010
0000
,
0100
1000
0100
0000
,
1000
0000
0001
0000
,
1000
0000
0000
0000
,
1001
0000
0000
0000
,
0000
0000
0000
0000
,
1000
0000
0100
0000
,
0010
0100
1000
0000
,
0001
0000
1000
0000
,
0001
0000
0000
0000
,
0001
0000
0100
0000
,
0010
0100
0001
0000
,
1000
0000
0001
0000
,
1000
0000
0000
0000
,
1001
0000
0000
0000
,
0000
0000
0000
0000
;
#NOTES:
     dance-single:
     :
     Medium:
     11:
     :
0000
0000
0000
0000
,
0000
0000
0000
0000
,
0000
0000
0000
0000
,
0001
0000
0000
1000
0000
0000
0010
0000
0100
0000
0000
0000
0110
0000
0000
0000
,
0001
0100
0001
0000
1000
0100
1000
0000
,
0001
0000
0010
0000
0100
0000
0000
1000
0000
0000
1000
0000
0001
0000
0000
0000
,
1000
0100
0010
0000
0001
0100
0010
0000
,
2000
0000
0000
3000
,
0020
0000
0000
0030
,
0200
0000
0000
0300
,
0002
0000
0000
0003
,
0001
0001
0100
0000
,
0010
0100
0010
0000
,
1000
0000
1000
0000
0100
0000
0000
0110
,
0000
0000
0000
0000
,
0001
0000
0100
0000
0001
0010
0001
0000
,
1000
0000
0100
0000
1000
0010
1000
0000
,
0001
0000
0100
0000
0010
1000
0100
0000
,
0010
0010
0110
0000
,
1000
0000
0100
0000
1000
0010
1000
0000
,
0001
0000
0100
0000
0001
0010
0001
0000
,
1000
0000
0100
0000
0010
0001
0100
0000
,
0010
0010
0110
0000
,
0002
0000
0103
0000
,
0100
0100
0010
0000
,
2000
0000
3100
0000
,
0100
0100
0010
0000
,
0001
1000
0001
1000
,
0010
0100
0010
0100
,
0001
1000
0001
1000
0010
0100
0010
0100
,
0000
0000
0000
0000
,
0001
0000
0001
0010
0001
0000
0001
1000
,
0001
0001
1001
1001
,
1000
0001
0100
0010
1000
0001
0000
1000
,
0000
0001
1000
0001
2000
0000
3000
0000
,
0001
0000
0001
0100
0001
0000
0001
1000
,
0001
0001
1001
1001
,
0001
1000
0010
0100
0001
1000
0000
0001
,
0000
1000
0001
0000
0100
0000
0110
0000
,
1000
0000
1000
0010
1000
0000
1000
0001
,
1000
1000
1001
1001
,
0001
1000
0100
0010
0001
1000
0000
0001
,
0000
1000
0001
1000
0002
0000
0003
0000
,
1000
0000
1000
0100
1000
0000
1000
0001
,
1000
1000
1001
1001
,
1000
0001
0010
0100
1000
0001
0000
1000
,
0000
0001
1000
0000
0100
0000
0010
0000
,
1001
0000
0000
0000
,
0000
0000
0000
0000
,
1000
0000
0000
0100
0000
0000
0010
0000
0001
0000
0000
0000
1001
0000
0000
0000
,
1000
0100
1000
0000
0001
0010
0100
0000
,
1000
0000
0010
0000
1000
0000
0000
0001
0000
0000
0100
0000
0001
0000
0000
0000
,
1000
0000
0100
0000
0010
0001
0010
0000
,
0002
0000
0000
0003
,
2000
0000
0000
3000
,
0020
0000
0000
0030
,
0200
0000
0000
0300
,
0001
0001
0100
0100
,
0010
1000
0010
0010
,
1000
0000
1000
0000
0100
0010
0000
0001
,
0000
0001
0010
0001
,
1000
0000
1000
0100
1000
0000
1000
0100
,
0010
0001
0100
0001
,
1000
0000
0010
0000
0100
0010
0000
0100
,
0000
0010
1000
0000
0001
0000
1000
0000
,
0001
0000
0001
0100
0001
0000
0001
0100
,
0010
1000
0100
1000
,
0001
0000
0010
0000
0100
0010
0000
0100
,
0000
0010
0001
0000
1000
0000
0001
0000
,
0000
0000
0000
0000
,
0000
0000
0000
0000
,
1000
0010
1000
0000
0001
0100
0000
0100
,
0000
0001
0020
0000
0001
0000
0031
0000
,
1000
0000
0010
0100
0010
0000
0010
1000
,
0010
1000
0001
0100
,
0001
1000
0010
0000
1000
0100
0000
0100
,
0000
0010
0001
0000
1000
0001
1000
0000
,
0100
0000
0100
0010
0100
0000
0100
1000
,
0100
1000
0010
0100
,
0001
0010
0001
0000
0100
0001
0000
0001
,
0000
1000
0100
0000
1000
0000
1000
0000
,
0001
0000
0000
1000
0000
0000
0001
0000
1000
0000
0000
0000
0100
0000
0010
0000
,
0100
1000
0001
0100
,
0010
1000
0100
0000
0010
0001
0000
0001
,
0000
0010
0100
0000
1000
0000
0001
1000
,
0001
0000
0000
0000
,
0000
0000
0000
0000
,
1000
0000
0000
0001
0000
0000
0100
0000
0010
0000
0000
0000
1000
0000
0000
0000
,
0001
0000
0100
0000
0001
0000
0000
0000
0010
0000
0000
0100
0000
0000
0010
0000
,
0001
0000
0000
1000
0000
0000
0001
0000
0100
0000
0000
0000
0010
0000
0000
0000
,
2000
3200
0320
0030
,
0001
0000
0000
1000
0000
0000
0010
0000
0100
0000
0000
0000
0001
0000
0000
0000
,
1000
0000
0010
0000
1000
0000
0000
0000
0100
0000
0000
0010
0000
0000
0100
0000
,
1000
0000
0001
0000
1000
0000
0000
0010
0000
0000
0000
0000
0100
0000
0000
0000
,
0002
0023
0230
2300
,
3001
0000
0000
0000
,
0000
0000
0000
0000
;
#NOTES:
     dance-single:
     :
     Hard:
     15:
     :
0000
0000
0000
0000
,
0000
0000
0000
0000
,
0000
0000
0000
0000
,
1000
0000
0000
0100
0000
0000
0010
0000
0110
0000
0000
0000
0001
1000
0001
0000
,
1000
0000
0010
0000
0100
0000
0001
0000
1000
0000
0000
0001
0000
0000
1000
0000
,
0100
0000
0010
0000
0100
0000
0000
0110
0000
0000
1000
0000
0001
0000
1000
0000
,
0001
0000
0100
0000
0010
0000
1000
0000
0001
1000
0001
1000
0001
0000
0000
0000
,
2000
0100
0000
3100
,
0200
0010
0000
0310
,
0020
0001
0000
0031
,
0001
0100
1000
0100
0002
0000
1003
0000
,
0002
0000
0000
0000
0103
0000
0010
0100
0000
0010
0000
0100
0010
0000
1000
0000
,
0000
1000
0100
0010
0001
0010
0100
1000
,
0000
0001
0100
0001
1000
0100
0010
0001
,
0000
0000
0000
1001
0000
1000
0001
1000
,
0001
0000
0100
0010
0100
0000
0010
1000
0010
0000
1000
0001
1000
0000
0000
0000
,
0001
0010
1000
0010
0001
0100
1000
0100
,
0001
0000
1000
0010
1000
0000
0010
0100
0010
0000
0100
0001
0100
0000
0000
0000
,
0001
0010
0001
1001
0000
1000
0001
1000
,
0010
0000
0100
0001
0100
0000
0010
1000
0010
0000
1000
0001
1000
0000
0000
0000
,
0001
0100
1000
0100
0000
0100
0001
1000
,
0100
0010
0100
0010
0100
0000
1000
0000
0010
0100
0010
0100
0010
0000
1000
0000
,
0000
1000
0001
0100
0010
1000
0100
0010
,
0001
0000
0000
1000
0010
0100
0001
1000
,
1001
0000
0110
0000
0001
0010
0100
1000
,
0001
0000
0000
0001
1000
0010
0100
0001
,
1001
0000
0110
0000
1000
0010
0100
0010
,
1000
0000
1000
0100
1000
0100
0010
0001
,
0010
0001
0100
0001
0010
0001
0100
0001
,
1000
0010
1000
0010
1000
0000
0100
0000
0010
0001
0010
0001
0010
0000
0100
0000
,
1000
0000
0000
0000
,
1001
0001
0100
0010
1001
1000
0100
0010
,
0011
0001
0101
0000
1010
1000
1100
0100
,
1000
0001
0100
1000
0100
0001
0000
0011
,
0000
0000
1000
0100
0010
0000
0001
0100
0010
0000
0000
0000
1000
0000
0010
0000
,
0110
0001
0100
0010
0110
1000
0010
0100
,
0110
0010
1010
0000
1001
0001
0101
0100
,
0010
0000
1000
0010
0100
0000
0001
0010
0100
0000
1000
0000
0000
0000
1001
0000
,
0000
0000
0001
0100
0010
0000
0100
0000
0001
1000
0001
1000
0001
0000
0000
0000
,
1001
1000
0010
0100
1001
0001
0010
0100
,
1100
1000
1010
0000
0101
0001
0011
0010
,
0001
1000
0010
0001
0010
1000
0000
1100
,
0000
0000
0001
0010
0100
0000
1000
0010
0100
0000
0000
0000
0001
0000
0100
0000
,
0110
1000
0010
0100
0110
0001
0100
0010
,
0110
0100
0101
0000
1001
1000
1010
0010
,
0100
0000
0001
0100
0010
0000
1000
0100
0010
0000
0001
0000
0000
0000
1001
0000
,
0000
0000
1000
0010
0100
0000
0010
0100
0001
0000
1000
0001
1000
0000
0100
0000
,
0001
0000
0000
0000
,
0000
0000
0000
0000
,
1000
0000
0000
1000
0100
0000
0010
0000
0001
0000
0000
0000
1000
0001
1000
0000
,
0001
0100
0000
0001
0000
0100
0010
0000
1000
0000
0000
1000
0000
0000
1000
0000
,
0001
0000
0100
0000
1000
0000
0000
0100
0000
0000
0001
0000
1000
0000
0100
0000
,
0010
0001
0010
0000
0100
1000
0100
0000
1000
0001
1000
0001
1000
0000
0000
0000
,
0002
0000
0000
0000
,
0023
0000
0000
0000
,
0230
0000
0000
0000
,
2300
0000
0000
0000
,
3002
0000
0000
0000
,
0203
0000
0000
0000
,
0320
0000
0000
0000
,
1030
0001
0000
1000
0001
0000
0100
0010
0100
0000
0001
0000
1000
0000
0001
0000
,
1000
0000
0000
1000
0100
0000
0100
0000
1000
0000
0000
1000
0100
0000
0010
0000
,
0001
0000
0000
0001
0100
0000
0100
0000
0001
0000
0000
0001
0100
0000
0010
0000
,
1000
0000
0000
1000
0001
0000
0001
0000
1000
0000
0000
1000
0001
0000
0010
0000
,
0100
0000
0000
0100
0010
0000
0010
0000
0100
0000
0000
0100
0010
0000
0010
0000
,
0001
0010
0001
0010
0100
1000
0100
1000
,
0001
0100
0001
0100
0010
1000
0010
1000
,
0001
0100
0001
0000
0100
0001
0100
0000
0010
1000
0010
0000
1000
0010
1000
0000
,
0000
1000
0100
0100
0010
0010
0001
1000
,
0000
0000
0000
0000
,
0000
0000
0000
0000
,
1000
0000
0100
0010
0001
0000
0100
0010
1000
0000
0001
0000
0000
0000
1001
0000
,
0000
1000
0100
0001
0100
0000
0100
1000
,
1100
0001
0010
0001
0011
1000
0010
1000
,
1010
0010
0110
0000
0101
0001
1001
0000
,
1000
0000
0001
1000
0010
0000
0100
0010
1000
0000
0100
0000
0000
0000
0110
0000
,
0000
0000
0001
0010
0100
0000
0010
0100
1000
0000
0001
1000
0001
0000
0000
0000
,
1000
0000
0100
0010
0100
0000
0001
0000
0100
0000
0010
0100
0010
0000
0001
0000
,
1000
0010
0100
0010
0001
0010
0100
0010
,
1000
0000
0001
0100
0001
0000
1000
0100
1000
0000
0001
0000
0000
0000
1001
0000
,
0000
0001
0010
1000
0010
0000
0010
0001
,
0011
0000
0000
1000
0000
0000
0100
0000
1100
0000
0000
0000
0001
0000
0100
0000
,
0101
0100
0110
0000
1010
1000
1001
0000
,
0001
0000
1000
0001
0100
0000
0010
0100
0001
0000
0010
0000
0000
0000
0110
0000
,
0000
0000
1000
0100
0010
0000
0100
0010
0001
0000
1000
0001
1000
0000
0001
0000
,
0100
0000
0000
0000
,
0000
0000
0000
0000
,
0001
0000
0000
0001
0010
0000
0100
0000
1000
0000
0000
0000
0001
1000
0001
0000
,
1000
0010
0000
1000
0000
0010
0100
0000
0001
0000
0000
1000
0000
0000
0001
0000
,
0100
0000
0000
0100
1000
0000
0100
0000
0001
0000
0000
0000
1000
0001
1000
0000
,
0100
0000
0000
0010
0000
0000
0000
0110
0000
0000
1000
0000
0001
1000
0001
0000
,
1000
0000
0000
1000
0010
0000
0100
0000
0001
0000
0000
0000
1000
0001
1000
0000
,
0001
0010
0000
0001
0000
0010
0100
0000
1000
0000
0000
0001
0000
0000
1000
0000
,
0100
0000
0001
0000
0100
0000
0000
1100
0000
0000
1000
0000
0001
0000
1000
0000
,
0100
0000
0010
0001
0010
0000
0000
0001
0000
0000
0100
0010
0100
0000
0000
0000
,
1001
0000
0000
0000
,
0000
0000
0000
0000
;
#NOTES:
     dance-double:
     :
     Easy:
     6:
     :
00000000
00000000
00000000
00000000
,
00000000
00000000
00000000
00000000
,
00000000
00000000
00000000
00000000
,
00001000
00000000
00010000
00000000
,
00001000
00100000
00010000
00000000
,
01000000
00000000
00100000
00000000
,
10000000
00010000
10000000
00000000
,
20000000
00000000
00000000
00000000
,
30000000
00000000
00000000
00000000
,
02000000
00000000
00000000
00000000
,
03000000
00000000
00000000
00000000
,
00200000
00000000
00000000
00000000
,
00300000
00000000
00000000
00000000
,
00002000
00000000
00000000
00000000
,
00003000
00000000
00000000
00000000
,
00001000
00000000
00010000
00000000
,
00001000
00010000
00001000
00000000
,
00010000
00000000
00000100
00000000
,
00001000
00000000
00000000
00000000
,
00000001
00000000
00001000
00000000
,
00000001
00000100
00000001
00000000
,
00000010
00000000
00000100
00000000
,
00001000
00000000
00000000
00000000
,
00002000
00000000
00000000
00003000
,
00001000
00000000
00000100
00000000
,
00020000
00000000
00000000
00030000
,
00010000
00000000
00001000
00000000
,
00200000
00000000
00000000
00300000
,
00100000
00000000
00010000
00000000
,
10000000
00000000
10000000
10000000
,
00000000
00000000
00000000
00000000
,
10000000
01000000
00100000
00000000
,
00010000
01000000
00100000
00000000
,
10000000
00000000
01000000
00000000
,
00010000
00000000
00001000
00000000
,
00010000
00000100
00010000
00000000
,
00001000
00010000
00001000
00000000
,
00010000
00000000
00001000
00000000
,
00000010
00000000
00000000
00000000
,
00000001
00000100
00000010
00000000
,
00001000
00000100
00000010
00000000
,
00000001
00000000
00000100
00000000
,
00001000
00000000
00010000
00000000
,
00001000
01000000
00001000
00000000
,
00010000
00001000
00010000
00000000
,
00001000
00000000
00010000
00000000
,
00100000
00000000
00000000
00000000
,
10010000
00000000
00000000
00000000
,
00000000
00000000
00000000
00000000
,
10000000
00000000
01000000
00000000
,
00100000
00000000
00000000
00000000
,
00001000
00000000
00010000
00000000
,
00001000
00000000
00000000
00000000
,
00011000
00000000
00000000
00000000
,
00000000
00000000
00000000
00000000
,
00010000
00000000
00001000
00000000
,
00000010
00000000
00000000
00000000
,
00000002
00000000
00000000
00000003
,
00000001
00000000
00000010
00000000
,
00000200
00000000
00000000
00000300
,
00000100
00000000
00010000
00000000
,
00001000
00000000
00001000
00000000
,
00100000
00000000
00100000
00000000
,
00010000
00000000
01000000
00000000
,
00100000
00000000
00000000
00000000
,
10000000
00000000
10000000
00000000
,
01000000
00000000
00100000
00000000
,
00001000
00000000
00010000
00000000
,
00001000
00010000
00001000
00000000
,
00000000
00000000
00000000
00000000
,
00000000
00000000
00000000
00000000
,
00010000
00010000
00000010
00000000
,
00001000
00000100
00000010
00000000
,
00000001
00000000
00000100
00000000
,
00000001
00000010
00000100
00000000
,
00001000
00000000
00000100
00000000
,
00010000
00000000
00000000
00000000
,
00010000
00001000
01000000
00000000
,
00010000
01000000
00010000
00000000
,
00100000
00000000
01000000
00000000
,
10000000
00000000
00000000
00000000
,
10000000
00000000
01000000
00000000
,
00100000
00001000
00010000
00000000
,
00000010
00001000
00000010
00000000
,
00000100
00000000
00000001
00000000
,
00001001
00000000
00000000
00000000
,
00000000
00000000
00000000
00000000
,
00000001
00000000
00000010
00000000
,
00000100
00001000
00000100
00000000
,
00010000
00000000
00001000
00000000
,
00010000
00000000
00000000
00000000
,
00010000
00000000
00001000
00000000
,
01000000
00010000
00100000
00000000
,
00010000
00000000
01000000
00000000
,
00100000
00000000
00000000
00000000
,
10010000
00000000
00000000
00000000
,
00000000
00000000
00000000
00000000
;
#NOTES:
     dance-double:
     :
     Medium:
     11:
     :
00000000
00000000
00000000
00000000
,
00000000
00000000
00000000
00000000
,
00000000
00000000
00000000
00000000
,
00010000
00000000
00000000
00001000
00000000
00000000
00010000
00000000
00001000
00000000
00000000
00000000
00010000
00000000
00000100
00000000
,
00001000
00000010
00001000
00000000
00000001
00000100
00000001
00000000
,
00000010
00000000
00000100
00000000
00001000
00000000
00000000
00000100
00000000
00000000
00010000
00000000
00001000
00000000
00000000
00000000
,
00010000
00001000
00100000
00010000
01000000
00100000
10000000
00000000
,
00020000
00000000
00000000
00030000
,
00200000
00000000
00000000
00300000
,
00002000
00000000
00000000
00003000
,
00020000
00000000
00000000
00030000
,
00000100
00000100
00001000
00000000
,
00000001
00000100
00000001
00000000
,
00000010
00000000
00000100
00000000
00001000
00000000
00000000
00001001
,
00000000
00000000
00000000
00000000
,
00000001
00000000
00000100
00000000
00000001
00000010
00000001
00000000
,
00001000
00000100
00010000
00001000
,
00100000
00000000
00010000
00000000
01000000
00100000
01000000
00000000
,
00100000
10000000
10010000
00000000
,
10000000
00000000
00100000
00000000
10000000
01000000
10000000
00000000
,
00010000
00100000
00001000
00010000
,
00000100
00000000
00001000
00000000
00000010
00000100
00000010
00000000
,
00000100
00000001
00001001
00000000
,
00000002
00000000
00000013
00000000
,
00000010
00000100
00001000
00000000
,
00000200
00000000
00010300
00000000
,
00010000
00001000
00010000
00000000
,
00001000
01000000
00001000
01000000
,
00010000
01000000
00010000
00100000
,
01000000
10000000
01000000
10000000
00010000
00100000
00010000
00100000
,
00000000
00000000
00000000
00000000
,
00101000
00000000
00001000
00010000
00001000
00000000
00001000
01000000
,
00001000
00001000
00101000
00011000
,
00001000
01000000
00010000
00100000
00001000
00010000
00000000
00011000
,
00000000
00001000
00010000
00001000
00020000
00000000
00030000
00000000
,
00001000
00000000
00001000
00000010
00001000
00000000
00001000
00010000
,
00001000
00001000
00011000
00011000
,
00001000
00010000
00000100
00001000
00000010
00000100
00000010
00001000
,
00000000
00001000
00000100
00010000
00001000
00000000
00011000
00000000
,
00010010
00000000
00010000
00001000
00010000
00000000
00010000
00000100
,
00010000
00010000
00010010
00011000
,
00010000
00000100
00001000
00000010
00010000
00001000
00000000
00011000
,
00000000
00010000
00001000
00010000
00002000
00000000
00003000
00000000
,
00010000
00000000
00010000
00100000
00010000
00000000
00010000
00001000
,
00010000
00010000
00011000
00011000
,
00010000
00001000
01000000
00010000
00100000
01000000
00100000
00010000
,
00000000
00010000
01000000
00001000
00010000
00000000
00001000
00000000
,
00011000
00000000
00000000
00000000
,
00000000
00000000
00000000
00000000
,
00001000
00000000
00000000
00010000
00000000
00000000
00001000
00000000
00010000
00000000
00000000
00000000
00001000
00000000
00100000
00000000
,
00010000
01000000
00010000
00000000
10000000
00100000
10000000
00000000
,
01000000
00000000
00100000
00000000
00010000
00000000
00000000
00100000
00000000
00000000
00001000
00000000
00010000
00000000
00000000
00000000
,
00001000
00010000
00000100
00001000
00000010
00000100
00000001
00000000
,
00000002
00000000
00000000
00000003
,
00002000
00000000
00000000
00003000
,
00000020
00000000
00000000
00000030
,
00020000
00000000
00000000
00030000
,
00001000
00001000
00010000
00100000
,
00010000
00010000
00001000
00000010
,
00001000
00001000
00010000
01000000
,
00010000
00010000
00001000
00000100
,
00001000
00000000
00001000
00010000
00001000
00000000
00001000
00100000
,
00010000
01000000
00100000
10000000
,
01000000
00100000
01000000
00000000
00100000
00010000
00000000
00100000
,
00000000
00001000
00010000
00000000
00001000
00000000
00011000
00000000
,
00010000
00000000
00010000
00001000
00010000
00000000
00010000
00000010
,
00001000
00000100
00000010
00000001
,
00000100
00000010
00000100
00000000
00000010
00001000
00000000
00000010
,
00000000
00010000
00001000
00000000
00010000
00000000
00001000
00000000
,
00000000
00000000
00000000
00000000
,
00000000
00000000
00000000
00000000
,
00001000
00010000
00001000
00000000
01000000
00010000
00000000
00100000
,
00000000
00010000
02000000
00000000
00100000
00000000
03100000
00000000
,
10000000
00000000
01000000
00100000
00010000
00000000
01000000
00100000
,
10000000
01000000
00010000
00001000
,
00000010
00000001
00000010
00000100
00000010
00000001
00000000
00001001
,
00000000
00001000
00000010
00000000
00000100
00000000
00000100
00000000
,
00000001
00000000
00000001
00000100
00000010
00000000
00000010
00001000
,
00000100
00010000
00001000
00100000
,
00010000
01000000
00010000
00000000
00100000
00010000
00000000
10000000
,
00000000
00010000
00100000
00000000
01000000
00000000
10000000
00000000
,
00010000
00000000
00000000
00100000
00000000
00000000
00001000
00000000
00010000
00000000
00000000
00000000
00000100
00000000
00001000
00000000
,
00000010
00000100
00000001
00000100
,
00000010
00000100
00000010
00000000
00000100
00001000
00000000
00010000
,
00000000
00010000
00001000
01000000
00010000
00000000
00100000
01000000
,
10000000
00000000
00000000
00000000
,
00000000
00000000
00000000
00000000
,
10000000
00000000
00000000
01000000
00000000
00000000
00100000
00000000
00010000
00000000
00000000
00000000
10000000
00000000
00000000
00000000
,
00100000
00000000
01000000
00000000
00100000
00000000
00000000
00000000
00010000
00000000
00000000
00001000
00000000
00000000
00010000
00000000
,
00001000
00000000
00000000
00010000
00000000
00000000
00000010
00000000
00001000
00000000
00000000
00000000
00000100
00000000
00000000
00000000
,
00000020
00000032
00002003
00003020
,
00000130
00000000
00000000
00000001
00000000
00000000
00001000
00000000
00000100
00000000
00000000
00000000
00000010
00000000
00000000
00000000
,
00000100
00000000
00001000
00000000
00000100
00000000
00000000
00000000
00010000
00000000
00000000
00001000
00000000
00000000
00010000
00000000
,
00001000
00000000
00000000
00000000
00100000
00000000
00000000
00010000
00000000
00000000
01000000
00000000
00010000
00000000
00000000
00000000
,
00200000
02300000
23000000
30020000
,
10030000
00000000
00000000
00000000
,
00000000
00000000
00000000
00000000
;
#NOTES:
     dance-double:
     :
     Hard:
     15:
     :
00000000
00000000
00000000
00000000
,
00000000
00000000
00000000
00000000
,
00000000
00000000
00000000
00000000
,
00001000
00000000
00000000
00001000
00010000
00000000
00001000
00000000
01000000
00000000
00010000
00000000
00100000
01000000
00100000
00000000
,
00010000
00000000
10000000
00000000
01000000
00000000
00010000
00000000
00001000
00000000
00000000
00010000
00000000
00000000
00001000
00000000
,
00010000
00000000
00000100
00000000
00001000
00000000
00000000
00001010
00000000
00000000
00000010
00000000
00000100
00000000
00000001
00000000
,
00001000
00000000
00000100
00000010
00000100
00000000
00000010
00000001
00000000
00000000
00000001
00000000
00001000
00000000
00000000
00000000
,
00000002
00000100
00000000
00000103
,
00000200
00001000
00000000
00001300
,
00002000
00010000
00000000
00013000
,
00010000
00100000
10000000
00100000
02000000
00000000
03010000
00000000
,
20000000
00000000
00000000
00000000
31000000
00000000
00100000
00010000
00000000
00100000
00000000
00010000
00100000
00000000
00001000
00000000
,
00000000
00001000
00010000
00000010
00001000
00000010
00000100
00000001
,
00000000
00000001
00000010
00001000
00010000
00001000
00000010
00000110
,
00000000
00000000
00000000
00001001
00000000
00000000
00000000
00000000
,
00000001
00000000
00000100
00000010
00000100
00000000
00000010
00001000
00000010
00000000
00001000
00000000
00000100
00000000
00010000
00000000
,
00001000
00100000
00010000
00000000
00010000
01000000
00100000
10000000
,
01000000
00000000
00100000
00010000
00100000
00000000
00001000
00100000
00001000
00000000
01000000
00000000
00001000
00000000
00010000
00000000
,
00001000
00000000
00001000
00000010
00000000
00000010
00000001
00000000
,
00001000
00000000
00000100
00000010
00000100
00000000
00001000
00000001
00001000
00000000
00000010
00000100
00000010
00000000
00000100
00000000
,
00001000
00010000
00001000
00010000
00000000
00010000
00100000
10000000
,
00010000
01000000
00010000
01000000
00010000
00000000
10000000
00000000
01000000
00100000
00010000
00000000
00100000
00000000
00001000
00000000
,
00000000
00001000
00010000
01000000
00010000
00001000
00000010
00000001
,
00001000
00000000
00000000
00000001
00000100
00001000
00010000
00000000
,
00002000
00000000
00003020
00000000
00001030
00010000
01000000
10000000
,
00010000
00000000
00000000
00010000
10000000
00100000
01000000
00010000
,
00200000
00000000
00302000
00000000
00003010
00000100
00000010
00000001
,
00001000
00000000
00000001
00000100
00000001
00000100
00000010
00001000
,
00000010
00001000
00010000
01000000
00010000
01000000
00100000
10000000
,
00100000
01000000
00100000
00000000
10000000
00000000
01000000
00000000
00100000
01000000
00100000
00000000
01000000
00000000
00010000
00000000
,
00001000
00000000
00000000
00000000
,
00010100
00001000
00000100
00010000
00010010
00001000
00000010
00010000
,
00011000
00001000
00101000
00000000
01001000
00001000
00011000
00000000
,
00001000
00010000
00100000
01000000
00001000
00010000
00000000
00011000
,
00000000
00000000
00010000
00001000
00010000
00000000
00001000
00010000
00001000
00000000
00000000
00000000
00010000
00000000
00001000
00000000
,
00011000
00000010
00001000
00000010
00010010
00010000
00001000
00010000
,
00011000
00100000
00110000
00000000
01010000
00001000
00011000
00000000
,
00010000
00001000
00000010
00000100
00010000
00001000
00000000
00011000
,
00000000
00000000
00010000
00001000
00010000
00000000
00000100
00001000
00000100
00000000
00010000
00001000
00010000
00000000
00000000
00000000
,
01001000
00010000
01000000
00001000
00101000
00010000
00100000
00001000
,
00011000
00010000
00010010
00000000
00010100
00010000
00011000
00000000
,
00010000
00001000
00000010
00000100
00010000
00001000
00000000
00011000
,
00000000
00000000
00001000
00010000
00001000
00000000
00010000
00001000
00010000
00000000
00000000
00000000
00001000
00000000
00010000
00000000
,
00011000
00100000
00010000
00100000
00101000
00001000
00010000
00001000
,
00011000
00000010
00001010
00000000
00001100
00010000
00011000
00000000
,
00001000
00010000
00100000
01000000
00001000
00010000
00000000
00011000
,
00000000
00000000
00001000
00010000
00001000
00000000
01000000
00010000
01000000
00000000
00001000
00010000
00001000
00000000
00000000
00000000
,
00011000
00000000
00000000
00000000
,
00000000
00000000
00000000
00000000
,
00010000
00000000
00000000
00010000
00001000
00000000
00010000
00000000
00000010
00000000
00001000
00000000
00000100
00000010
00000100
00000000
,
00001000
00000000
00000001
00000000
00000010
00000000
00001000
00000000
00010000
00000000
00000000
00001000
00000000
00000000
00010000
00000000
,
00001000
00000000
00100000
00000000
00010000
00000000
00000000
01010000
00000000
00000000
01000000
00000000
00100000
00000000
10000000
00000000
,
00010000
00000000
00100000
01000000
00100000
00000000
01000000
10000000
00000000
00000000
10000000
00000000
00010000
00000000
00000000
00000000
,
20000000
00000000
00000000
00000000
,
32000000
00000000
00000000
00000000
,
03020000
00000000
00000000
00000000
,
00032000
00000000
00000000
00000000
,
00003020
00000000
00000000
00000000
,
00000032
00000000
00000000
00000000
,
00000203
00000000
00002300
00000000
,
00013000
00000000
00000000
00010000
00001000
00000000
00100000
00010000
00100000
00000000
01000000
00000000
10000000
00000000
00000000
00000000
,
00010000
00000000
00000000
00010000
10000000
00000000
10000000
00000000
01000000
00000000
00000000
01000000
00100000
00000000
00100000
00000000
,
00010000
00000000
00000000
00010000
00100000
00000000
00100000
00000000
00001000
00000000
00000000
00001000
00010000
00000000
00010000
00000000
,
00000100
00000000
00000000
00000100
00001000
00000000
00001000
00000000
00000010
00000000
00000000
00000010
00000100
00000000
00000100
00000000
,
00000001
00000000
00000000
00000001
00001000
00000000
00001000
00000000
00000100
00000000
00000000
00000100
00000010
00000000
00000010
00000000
,
00000001
00000010
00000100
00001000
00000010
00000100
00000010
00000100
,
00001000
00010000
00100000
01000000
00010000
10000000
00010000
10000000
,
01000000
00100000
01000000
00000000
00100000
00010000
00100000
00000000
00001000
00100000
00001000
00000000
00010000
00001000
00010000
00000000
,
00000000
00010000
00001000
00000010
00000001
00001000
00000100
00000010
,
00000000
00000000
00000000
00000000
,
00000000
00000000
00000000
00000000
,
00000001
00000000
00000100
00000010
00001000
00000000
00000010
00000100
00000001
00000000
00001000
00000000
00000000
00000000
00001100
00000000
,
00000000
00000100
00010000
00001000
00100000
00010000
01000000
00000000
,
01100000
10000000
00010000
01000000
01010000
00001000
00010000
00001000
,
00010000
00001000
00000010
00000001
00001000
00000100
00000110
00000000
,
00000001
00000000
00000010
00000100
00001000
00000000
00000100
00010000
00001000
00000000
00010000
00000000
00000000
00000000
00011000
00000000
,
00000000
00000000
00001000
00100000
00001000
00000000
01000000
00010000
01000000
00000000
00100000
01000000
00100000
00000000
00000000
00000000
,
10000000
00000000
01000000
00100000
01000000
00000000
00100000
00000000
00001000
00000000
00010000
00000100
00010000
00000000
00000100
00000000
,
00001000
00000010
00010000
00001000
01000000
00010000
10000000
00100000
,
10000000
00000000
00100000
01000000
00010000
00000000
01000000
00100000
10000000
00000000
00010000
00000000
00000000
00000000
00110000
00000000
,
00000000
00100000
00001000
00010000
00000100
00001000
00000010
00000000
,
00000110
00000000
00000000
00000001
00000000
00000000
00001000
00000000
00001010
00000000
00010000
00000000
00001000
00000000
00010000
00000000
,
00001000
00010000
01000000
10000000
00010000
00100000
01100000
00000000
,
10000000
00000000
01000000
00100000
00010000
00000000
00100000
00001000
00010000
00000000
00001000
00000000
00000000
00000000
00011000
00000000
,
00000000
00000000
00010000
00000100
00010000
00000000
00000010
00001000
00000010
00000000
00000100
00000010
00000100
00000000
00000001
00000000
,
00001000
00000000
00000000
00000000
,
00000000
00000000
00000000
00000000
,
00000001
00000000
00000000
00000001
00000100
00000000
00000010
00000000
00001000
00000000
00000000
00000000
00000010
00000100
00000010
00000000
,
00001000
00000001
00000000
00001000
00000000
00000100
00001000
00000000
00000100
00000000
00000000
00010000
00000000
00000000
00001000
00000000
,
00010000
00000000
00000000
00010000
00001000
00000000
00010000
00000000
01000000
00000000
00000000
00000000
00100000
00010000
00100000
00000000
,
00010000
00000000
00000000
10000000
00000000
00000000
00000000
10010000
00000000
00000000
00010000
00000000
01000000
00100000
01000000
00000000
,
00100000
00000000
00000000
00100000
10000000
00000000
00010000
00000000
01000000
00000000
00000000
00000000
00010000
00100000
00010000
00000000
,
00100000
00001000
00000000
00010000
00000000
00001000
00010000
00000000
00001000
00000000
00000000
00000010
00000000
00000000
00000001
00000000
,
00001000
00000000
00000100
00000000
00000001
00000000
00000000
00000100
00000000
00000000
00001000
00000000
00000001
00000000
00001000
00000000
,
00000010
00000000
00000100
00000010
00001000
00000000
00000000
00000010
00000000
00000000
00010000
00001000
00010000
00000000
00000000
00000000
,
00011000
00000000
00000000
00000000
,
00000000
00000000
00000000
00000000
;
