
//----- song ID: mero -----//
#VERSION:0.83;
#TITLE:迷宮のロンド;
#ARTIST:BEMANI Sound Team "Captain KING";
#TITLETRANSLIT:Meikyuu no rondo;
#BANNER:Meikyuu no rondo.png;
#BACKGROUND:Meikyuu no rondo-bg.png;
#CDTITLE:./CDTitles/DDR WORLD.png;
#MUSIC:Meikyuu no rondo.ogg;
#SAMPLESTART:24;
#SAMPLELENGTH:15;
#BPMS:0=170;
#NOTEDATA:;
#STEPSTYPE:dance-single;
#DIFFICULTY:Beginner;
#METER:3;
#NOTES:
0000
0000
0000
0000
,
0000
0000
0000
0000
,
0000
0000
0000
0000
,
0000
0000
0000
0000
,
0000
0000
0000
0000
,
0001
0000
0000
0000
,
0001
0000
0000
0000
,
0010
0000
0000
0000
,
0010
0000
0000
0000
,
2000
0000
0000
0000
,
3000
0000
0000
0000
,
2000
0000
0000
0000
,
3000
0000
0000
0000
,
1000
0000
0000
0000
,
1000
0000
0000
0000
,
0010
0000
0000
0000
,
0010
0000
0000
0000
,
1001
0000
0000
0000
,
0000
0000
0000
0000
,
1001
0000
0000
0000
,
0000
0000
0000
0000
,
0001
0000
0001
0000
,
0010
0000
0000
0000
,
1000
0000
1000
0000
,
0010
0000
0000
0000
,
1001
0000
0000
0000
,
0000
0000
0000
0000
,
1001
0000
0000
0000
,
0000
0000
0000
0000
,
0001
0000
0001
0000
,
0010
0000
0000
0000
,
1000
0000
1000
0000
,
0010
0000
0000
0000
,
2000
0000
0000
0000
,
3000
0000
0000
0000
,
0020
0000
0000
0000
,
0030
0000
0000
0000
,
0002
0000
0000
0000
,
0003
0000
0000
0000
,
0200
0000
0000
0000
,
0300
0000
0000
0000
,
1000
0000
1000
0000
,
0100
0000
0000
0000
,
0010
0000
0010
0000
,
0010
0000
0000
0000
,
0001
0000
0001
0000
,
0100
0000
0000
0000
,
0010
0000
0010
0000
,
0010
0000
0000
0000
,
1001
0000
0000
0000
,
0000
0000
0000
0000
,
1001
0000
0000
0000
,
0000
0000
0000
0000
,
0002
0000
0000
0000
,
0003
0000
0000
0000
,
2000
0000
0000
0000
,
3000
0000
0000
0000
,
0010
0000
0010
0000
,
1000
0000
0000
0000
,
0010
0000
0010
0000
,
0001
0000
0000
0000
,
0020
0000
0000
0000
,
0030
0000
0000
0000
,
0200
0000
0000
0000
,
0300
0000
0000
0000
,
1001
0000
0000
0000
,
0000
0000
0000
0000
,
1001
0000
0000
0000
,
0000
0000
0000
0000
,
1000
0000
1000
0000
,
0010
0000
0000
0000
,
0010
0000
0010
0000
,
0001
0000
0000
0000
,
0002
0000
0000
0000
,
0003
0000
0000
0000
,
0001
0000
0100
0000
,
0010
0000
0000
0000
,
1000
0000
0100
0000
,
0010
0000
0000
0000
,
0001
0000
0010
0000
,
1000
0000
0000
0000
,
1000
0000
0100
0000
,
0001
0000
0000
0000
,
0000
1001
0000
0000
;
#NOTEDATA:;
#STEPSTYPE:dance-single;
#DIFFICULTY:Easy;
#METER:6;
#NOTES:
0000
0000
0000
0000
,
0000
0000
0000
0000
,
0000
0000
0000
0000
,
0000
0000
0000
0000
,
0000
0000
0000
0000
,
0001
1000
0001
0000
,
1000
0001
1000
0000
,
0100
0010
0100
0000
,
0010
0100
0010
0000
,
0001
0010
0001
0010
,
0100
1000
0100
0000
,
1000
0010
1000
0010
,
0100
0001
0100
0000
,
0001
1000
0100
0100
,
1000
0001
0100
0100
,
0010
0000
0100
0000
,
2002
0000
0000
3003
,
1000
0100
1000
1000
,
0001
0100
0001
0001
,
1000
0010
1000
1000
,
0001
0010
0001
0000
,
1000
0010
0100
0100
,
0001
0010
0100
0100
,
1000
0001
0010
0010
,
0200
0000
0000
0300
,
1000
0100
0001
0000
,
0001
0100
1000
0000
,
0001
0100
1000
0000
,
1000
0100
0001
0000
,
1000
0010
0001
0000
,
0001
0010
1000
0000
,
0001
0010
1000
0000
,
1000
0010
0001
0000
,
0011
0000
1100
0000
,
1001
0000
0000
0000
,
1010
0000
0101
0000
,
1001
0000
0000
0000
,
0101
0000
1100
0000
,
1001
0000
0000
0000
,
1010
0000
0011
0000
,
1001
0000
0000
0000
,
1000
0010
0100
0001
,
1000
1000
1000
0000
,
0001
0010
0100
1000
,
0001
0001
0001
0000
,
1000
0010
1000
0100
,
0010
0001
0100
0000
,
0001
0010
0001
0100
,
0010
1000
0100
0000
,
0110
0000
0000
0000
,
1001
0000
0000
0000
,
0110
0000
0000
0000
,
1001
0000
0000
0000
,
0002
0000
0003
0001
,
0020
0000
0030
0010
,
0200
0000
0300
0100
,
2000
0000
0000
3000
,
0110
0000
0000
0000
,
1001
0000
0000
0000
,
0110
0000
0000
0000
,
1001
0000
0000
0000
,
2000
0000
3000
1000
,
0020
0000
0030
0010
,
0200
0000
0300
0100
,
0002
0000
0000
0003
,
0001
0000
1001
0000
,
1000
0000
1001
0000
,
0100
0000
0110
0000
,
0010
0000
0110
0000
,
1000
0010
1000
0000
,
0100
0010
0001
0000
,
0001
0100
0001
0000
,
2002
0000
0000
3003
,
1000
0100
0010
0001
,
1000
0000
0001
0000
,
1000
1000
1000
0000
,
0100
0100
0100
0000
,
0001
0001
0001
0000
,
0010
0010
0010
0000
,
1000
1000
1000
0000
,
0010
0010
0010
0000
,
0001
0001
0001
0000
,
0100
0100
0100
0100
,
0000
1001
0000
0000
;
#NOTEDATA:;
#STEPSTYPE:dance-single;
#DIFFICULTY:Medium;
#METER:12;
#BPMS:0=170,64=85,66=340,122=170,126=340,156=170,157=340,189=170,221=340,285=170,300=85,300.5=170,315.5=85,316=170,331=85,331.5=170,346.5=85,347=340,403=170,415=340,427=170,429=340,441=170,443=340,475=170,476=340;
#NOTES:
0000
0000
0000
0000
,
0000
0000
0000
0000
,
0000
0000
0000
0000
,
0000
0000
0000
0000
,
0000
0000
0000
0000
,
0000
1000
0000
0010
0000
1000
0000
1000
,
0000
0001
0000
0010
0000
0001
0000
0001
,
0000
1000
0000
0100
0000
1000
0000
1000
,
0000
0001
0000
0100
0000
0001
0000
0001
,
1000
0000
0100
0000
0010
0100
0010
0000
,
0001
0000
0010
0000
0100
0010
0100
0000
,
1000
0000
0010
0000
0100
0010
0100
0000
,
0001
0000
0100
0000
0010
0100
0010
0000
,
1000
0000
0010
0000
0100
0001
0100
0000
,
0001
0000
0010
0000
0100
1000
0100
0000
,
1000
1000
0001
0001
,
2002
0000
0000
3003
0001
0000
0000
0000
,
0100
0000
1000
0000
,
0100
0000
0001
0000
,
0100
0000
1000
0000
,
0100
0000
0001
0000
,
0010
0000
1000
0000
,
0010
0000
0001
0000
,
0010
0000
1000
0000
,
0010
0000
0001
0000
,
0100
0000
1000
0000
,
0100
0000
0001
0000
,
0010
0000
1000
0000
,
0010
0000
0001
0000
,
0100
0000
1000
0000
,
0100
0000
0002
0000
,
0000
0003
1000
0000
,
0100
0000
0001
0000
,
0100
0000
1000
0000
,
0100
0000
0001
0000
,
0100
0000
1000
0000
,
0010
0000
0001
0000
,
0010
0000
1000
0000
,
0010
0000
0001
0000
,
0020
1030
0000
0100
,
0000
0001
0000
0100
,
0000
1000
0000
0010
,
0000
0001
0000
0010
,
0000
1000
0000
0100
,
0000
0001
0000
0100
,
0000
0000
1000
0000
0000
1000
0100
0000
,
0000
0010
0001
0000
1000
0000
0001
1000
,
0000
1000
0001
0000
0000
0011
0000
0000
,
0000
0000
1000
0000
0000
1010
0000
0000
,
0000
0000
0000
0000
0001
0000
0000
0100
0000
0000
0001
0000
0000
0100
0000
0000
,
0001
0000
0000
0000
1000
0000
0000
0100
0000
0000
1000
0000
0000
0100
0000
0000
,
1000
0000
0001
0000
0010
0001
0000
0100
,
0010
0000
1000
0000
0100
1000
0000
0010
,
0100
0000
0000
0000
0001
0000
0000
0010
0000
0000
0100
0000
0000
1000
0000
0000
,
0001
0000
0000
0000
1000
0000
0000
0010
0000
0000
0100
0000
0000
0001
0000
0000
,
1000
0001
0000
1001
,
0000
1000
0100
0010
,
0000
0011
0000
0101
,
0000
1100
0000
1010
,
0000
1000
0000
1001
,
0000
0001
0100
0010
,
0000
1010
0000
1100
,
0000
0101
0000
0011
,
0000
0001
0000
1001
,
0000
1000
0010
0100
,
0000
0101
0000
0011
,
0000
1010
0000
1100
,
0000
1000
0000
1001
,
0000
0001
0010
0100
,
0000
1100
0000
1010
,
0000
0011
0000
0101
,
0000
0002
0000
0000
,
0003
0010
0200
0000
0000
0000
0000
0000
,
0300
1000
0020
0000
0000
0000
0000
0000
,
0030
0100
0002
0000
0003
0000
0001
0010
,
0002
1003
0000
0100
0000
1000
0010
0100
,
0000
0001
0000
0010
0000
0001
0100
0010
,
0000
1000
0000
0100
0000
0010
0001
0100
,
0000
0001
0000
0100
0000
0010
1000
0200
,
1300
0000
1000
0000
0010
1000
0010
0000
,
0100
0000
0100
0000
0001
0100
0001
0000
,
0010
0000
0010
0000
0001
0010
0001
0000
,
1000
0000
1000
0000
0100
1000
0200
1300
,
0000
0001
0000
0010
0000
0011
0000
0001
,
0000
1000
0000
0100
0000
1100
0000
1000
,
0000
0010
0000
0100
0000
0101
0000
0001
,
0000
0010
0000
0100
0000
0110
1000
0000
,
0000
1100
0000
0100
,
0000
0110
0000
0010
,
0000
0011
0000
0001
,
0000
1000
0000
0001
,
0000
0101
0000
0100
,
0000
0110
0000
0010
,
0000
1010
0000
1000
,
0000
0001
0000
1000
,
0100
0010
0000
0100
,
0010
0001
0000
0001
,
0100
0010
0000
0100
,
0010
1000
0000
0001
,
1000
0000
1000
0001
,
1000
0000
1000
0002
,
0000
0000
0000
0000
0003
0000
1000
0010
,
0100
0001
0100
0010
1000
0000
0200
0000
,
0300
0020
0030
0001
,
0010
0100
1000
0010
,
0100
0001
0000
1000
,
0100
0010
0001
0020
,
0030
0010
0001
0100
,
0001
0010
0100
1000
,
0000
0001
0100
0010
,
0100
0002
0003
1000
,
0100
0001
0100
1000
,
0001
1000
0000
0001
,
0100
1000
0100
0001
,
1000
0001
0000
1000
,
0010
0100
0010
1000
,
0100
0010
0000
0001
,
1000
0010
0100
0001
,
1000
0001
0000
2000
,
3001
0000
0000
0000
;
#NOTEDATA:;
#STEPSTYPE:dance-single;
#DIFFICULTY:Hard;
#METER:15;
#BPMS:0=170,64=85,66=340,122=170,126=340,156=170,157=340,189=170,221=340,285=170,300=85,300.5=170,315.5=85,316=170,331=85,331.5=170,346.5=85,347=340,403=170,415=340,427=170,429=340,441=170,443=340,475=170,476=340;
#NOTES:
0000
0000
0000
0000
,
0000
0000
0000
0000
,
0000
0000
0000
0000
,
0000
0000
0000
0000
,
0000
0000
0000
0000
,
0000
1000
0000
1000
0000
0010
0000
0010
,
0000
0100
0000
0100
0000
0001
0000
0001
,
0000
1000
0000
1000
0000
0100
0000
0100
,
0000
0010
0000
0010
0000
0001
0000
0001
,
1000
0000
0010
0000
1000
0000
0000
0100
0000
0000
0010
0000
0010
0000
0000
0000
,
0001
0000
0010
0000
0001
0000
0000
0100
0000
0000
0010
0000
0010
0000
0000
0000
,
1000
0000
0100
0000
1000
0000
0000
0010
0000
0000
0100
0000
0100
0000
0000
0000
,
0001
0000
0100
0000
0001
0000
0000
0010
0000
0000
0100
0000
0100
0000
0000
0000
,
1000
0000
0100
0000
0001
0000
0000
0100
0000
0000
1000
0000
1000
0000
0000
0000
,
0001
0000
0100
0000
1000
0000
0000
0100
0000
0000
0001
0000
0001
0000
0000
0000
,
1000
0000
0010
0000
0001
0000
0000
0010
0000
0000
1000
0000
1000
0000
0000
0000
,
2002
0000
0000
3003
1000
0000
0100
0000
,
1000
0100
0001
0100
,
1000
0000
0001
0100
,
0001
0100
1000
0100
,
0001
0000
1000
0010
,
1000
0010
0001
0010
,
1000
0000
0001
0010
,
0001
0010
1000
0010
,
0001
0000
1000
0100
,
0001
0010
0001
0100
,
1000
0000
0001
0100
,
1000
0010
1000
0100
,
0001
0000
1000
0010
,
0001
0100
0001
0010
,
1000
0000
2002
0000
,
0000
3003
1000
0010
,
0001
1000
0100
0001
,
1000
0000
1000
0100
,
0001
1000
0010
0001
,
1000
0000
0001
0010
,
1000
0001
0100
1000
,
0001
0000
0001
0100
,
1000
0001
0010
1000
,
0002
1003
0000
1001
,
0000
0000
1000
0000
0100
0010
0001
0000
,
0000
0001
0000
1001
,
0000
0000
0001
0000
0100
0010
1000
0000
,
0000
0000
0001
0000
0010
0100
0010
0000
,
0100
0000
1000
0000
0010
0100
0010
0000
,
0100
0000
0001
0000
0010
0100
1000
0000
,
0010
0100
0001
0000
1000
0001
1000
0001
,
0000
0001
1000
1000
1100
0001
0001
0011
,
1001
0000
1000
1000
1010
0001
0001
0101
,
1001
0000
0000
0000
1000
0010
0000
1000
0010
0000
0100
0001
0000
0100
0001
0000
,
1000
0000
0001
0000
0010
0001
0000
0010
0001
0000
1000
0100
0000
1000
0100
0000
,
1000
0001
0010
0001
1001
1000
0010
1010
,
1001
0000
0001
1000
1100
1000
0001
0101
,
1001
0000
0000
0000
0001
0010
0000
0100
0010
0000
0001
0010
0000
0100
0010
0000
,
0001
0000
1000
0000
0010
0100
0000
0010
1000
0000
0010
0100
0000
0010
1000
0000
,
0001
0000
1000
0000
1000
0000
0100
0010
,
0100
0010
0011
0010
,
1010
0000
0010
0000
0001
0010
0100
0000
,
1000
0010
0100
0000
0001
0000
1001
0000
,
0000
0000
0001
0000
0001
0000
0100
0010
,
0100
0010
1010
0010
,
0011
0000
0010
0000
1000
0010
0100
0000
,
0001
0010
0100
0000
1000
0000
1001
0000
,
0000
0000
0001
0000
1000
0010
0100
0000
,
0001
0010
0001
1000
0001
0000
0010
0000
,
0100
0000
1000
0000
0001
0010
0100
0000
,
1000
0010
1000
0001
1000
0000
0010
0000
,
0100
0000
0001
0100
1000
0000
0100
0000
,
0001
0000
1000
0100
0001
0000
0100
0000
,
1000
0000
0001
0000
0100
0010
1000
0000
,
0100
0010
0002
0000
0000
0000
2003
0000
,
0000
0000
3001
0100
1000
0000
0010
0001
,
1000
0000
1000
0100
0001
0000
0010
1000
,
0001
0000
0001
0010
1000
0000
0100
0001
,
1000
0000
1000
0010
0001
0000
0100
1000
,
0002
1003
0000
1010
0000
1000
0000
1100
,
0000
0001
0000
0011
0000
0001
0000
0101
,
0000
1000
0100
0001
0000
1000
0010
0001
,
0000
0001
0100
1000
0100
0001
0000
2000
,
3001
0010
0001
0010
0100
0001
0100
0001
,
1000
0010
1000
0010
0001
0010
0001
0000
,
1000
0010
1000
0010
0100
1000
0100
1000
,
0001
0010
0001
0010
1000
0010
2000
3001
,
0100
0001
0000
0100
1000
0100
0000
1000
,
0010
1000
0000
0010
0001
0010
0000
0100
,
1000
0100
0000
1000
0010
1000
0000
0010
,
0001
0010
0000
0001
0100
0002
0103
0000
,
0000
0100
0000
0110
,
0000
0110
0000
1000
,
0000
1000
0000
1001
,
0000
1001
0000
0001
,
0100
0010
0000
1000
,
0100
0010
0000
0001
,
0010
1000
0000
0001
,
0100
1000
0000
0001
,
0100
0001
0100
1000
,
0100
0001
1000
0100
,
0001
0100
0001
0100
,
1000
0000
0001
0000
0010
0000
0100
0010
,
0100
0000
1000
0000
0001
0000
1000
0001
,
1000
0010
0100
0220
,
0000
0000
0000
0000
0330
0000
0100
0010
,
1000
0010
1000
0000
0001
0000
0010
0000
0100
0010
0100
0000
2000
0000
0000
0000
,
3000
0000
0002
0000
0003
0000
1000
0100
,
0000
0100
0001
0000
0100
0000
1000
0010
,
0000
0010
0001
0000
0010
0000
1000
0100
,
0000
0010
0001
0000
1000
0000
2002
0000
,
3003
0000
0001
0100
0000
0100
1000
0000
,
0100
0000
0001
0010
0000
0010
1000
0000
,
0010
0000
0001
0100
0000
0010
1000
0000
,
0001
2002
3003
0001
,
0100
0000
1000
0100
0001
0000
1000
0000
,
0100
0000
0001
0100
1000
0000
0001
0000
,
0010
0000
1000
0010
0001
0000
1000
0000
,
0010
0000
0001
0010
1000
0000
0000
0001
,
0100
0001
0000
1000
0100
1000
0000
0001
,
0010
0001
0000
1000
0010
1000
0010
0100
,
0001
0000
0010
0100
1000
0000
0001
0000
,
0100
1000
0020
0030
,
0110
0000
0000
0000
;
#NOTEDATA:;
#STEPSTYPE:dance-single;
#DIFFICULTY:Challenge;
#METER:18;
#BPMS:0=170,64=85,66=340,122=170,126=340,156=170,157=340,189=170,221=340,285=170,300=85,300.5=170,315.5=85,316=170,331=85,331.5=170,346.5=85,347=340,403=170,415=340,427=170,429=340,441=170,443=340,475=170,476=340;
#NOTES:
0000
0000
0000
0000
,
0000
0000
0000
0000
,
0000
0000
0000
0000
,
0000
0000
0000
0000
,
0000
0000
0000
0000
,
0000
0000
1000
0100
0000
0000
1000
0100
0000
0000
1000
0010
0000
0000
1000
0010
,
0000
0000
0001
0100
0000
0000
0001
0100
0000
0000
0001
0010
0000
0000
0001
0010
,
0000
0000
1000
0100
0000
0000
1000
0010
0000
0000
0001
0100
0000
0000
0001
0010
,
0000
0000
1000
0100
0000
0000
0001
0010
0000
0000
1000
0010
0000
0000
0001
0100
,
0001
0000
0100
0000
0010
0000
0000
1010
0000
0000
1000
0001
1000
0000
0000
0000
,
1000
0000
0100
0000
0010
0000
0000
0011
0000
0000
0001
1000
0001
0000
0000
0000
,
0001
0000
0010
0000
0100
0000
0000
1100
0000
0000
1000
0001
1000
0000
0000
0000
,
1000
0000
0010
0000
0100
0000
0000
0101
0000
0000
0001
1000
0001
0000
0000
0000
,
1000
0000
0100
0000
0001
0000
0000
1001
0000
0000
1000
0010
0001
0000
0000
0000
,
0001
0000
0100
0000
1000
0000
0000
1001
0000
0000
0001
0010
1000
0000
0000
0000
,
1000
0000
0100
0000
0001
0000
0000
1001
0000
0000
1000
0010
0001
0000
1000
0100
,
0020
0000
0000
0030
0001
0000
0100
0001
,
0100
0000
1000
0100
1000
0000
0010
1000
,
0010
0000
0001
0010
0001
0000
0100
0001
,
0100
0000
1000
0100
1000
0000
0010
1000
,
0010
0000
0001
0010
0001
0000
1000
0100
,
1000
0000
0100
0001
0100
0000
0001
0010
,
0001
0000
0010
1000
0010
0000
1000
0100
,
1000
0000
0100
0001
0100
0000
0001
0010
,
0001
0000
0010
1000
0010
0000
1000
0010
,
0001
0000
1000
0100
0001
0000
1000
0010
,
0001
0000
1000
0100
0001
0000
0001
0010
,
1000
0000
0001
0100
1000
0000
0001
0010
,
1000
0000
0001
0100
1000
0000
1000
0010
,
0001
0000
1000
0100
0001
0000
0001
0010
,
1000
0000
0000
0000
0001
0000
0100
0000
1000
0001
0010
0001
1000
0100
0010
0100
,
1000
0001
0010
0000
0110
0000
0000
0000
1000
0000
0000
0000
0100
0000
0001
0000
,
0100
0000
1000
0100
0001
0000
0100
1000
,
0001
0000
0010
1000
0010
0000
0001
1000
,
0100
0000
0001
0100
1000
0000
0001
0010
,
1000
0000
0010
0000
0001
0000
0100
1000
,
0100
0000
0001
0100
1000
0000
0100
0001
,
1000
0000
0010
0001
0010
0000
1000
0001
,
0100
0000
1000
0100
0001
0000
1000
0010
,
0002
0000
0013
0000
0100
1000
0001
0000
,
1000
0100
0010
0000
0100
1000
0001
0000
,
0010
1000
0001
0000
0100
1000
0001
0000
,
1000
0100
0010
0000
0100
1000
0001
0000
,
0010
1000
0001
0000
0100
1000
0100
0010
,
0100
1000
0100
0000
0001
1000
0010
0100
,
1000
0100
0010
0000
1000
0001
0100
0000
,
1000
0100
0001
0000
0100
0010
1000
0010
,
0000
0000
0010
0000
1000
0000
0010
1000
0001
0000
1000
0100
1000
0100
0010
0000
,
0001
0010
0100
0000
1000
0000
0010
0100
0001
0000
0010
0100
1000
0001
1000
0000
,
0100
0010
0001
0000
1000
0010
0000
0010
1000
0000
0001
0100
0000
0101
0000
0001
,
0100
0001
1000
0000
0100
0010
0001
1000
0000
0000
0001
0010
0000
0011
0000
0001
,
0100
0010
1000
0000
0001
0000
0010
0001
1000
0000
0001
0100
0001
0100
0010
0000
,
1000
0010
0100
0000
0001
0000
0010
0100
1000
0000
0010
0100
0001
1000
0001
0000
,
0100
0010
1000
0000
0001
0010
0000
0010
0001
0000
1000
0100
0000
1100
0000
1000
,
0100
1000
0001
0000
0100
0010
1000
0001
0000
0000
1000
0010
0000
1010
0000
1000
,
0100
0010
0001
0000
1000
0000
0000
0000
0010
0000
0001
0000
0010
0000
0000
0000
,
1000
1100
0101
0011
,
1010
0000
1000
0000
0100
0010
0001
0100
,
0010
1010
1100
0101
,
0011
0000
0001
0000
0100
1000
0100
0000
,
0001
0011
1010
1100
,
0101
0000
0001
0000
0010
0100
1000
0010
,
0100
0101
0011
1010
,
1100
1000
0100
0001
,
0010
0000
0010
1000
0001
0000
0020
0000
,
0030
0001
0100
1000
,
0010
0000
0010
0001
1000
0000
0020
0000
,
0030
0000
1000
0100
0001
0000
0020
0000
,
0030
0000
0001
0100
1000
0000
0020
0000
,
0030
0000
0001
0000
0010
1000
0100
0000
,
0010
0001
1000
0100
0010
0001
1000
0100
,
0010
0001
2000
3001
0100
0010
1000
0001
,
0100
0110
1010
1000
0001
0010
0100
1000
,
0001
0011
0110
0100
1000
0001
0100
0010
,
1000
1010
1001
0001
0100
0010
0100
0001
,
1000
0001
1000
0000
0001
0000
0010
0000
0001
0000
0000
0000
0001
0000
0000
0000
0001
0000
0100
0000
0000
0000
0100
0000
0000
0000
0100
0000
0010
0000
1000
0000
,
0010
0000
1000
0010
1000
0000
1000
0000
1000
0100
0000
0100
1000
0000
0001
0010
,
0000
0010
0001
1000
0001
0000
0001
0000
0001
0100
0000
0100
0000
0100
0001
1000
,
0001
0000
0000
0000
1000
0000
0100
0000
0000
0000
0100
0000
1000
0000
0000
0000
1000
0000
0001
0000
0000
0000
0001
0000
1000
0000
0000
0000
0001
1000
0001
1000
,
0001
0100
0110
0010
1000
0100
0001
0100
,
1000
0010
0110
0100
1000
0100
0001
1000
,
0010
1000
1001
0001
0010
1000
0001
0100
,
1000
0000
0001
0000
1001
0000
1000
0000
0010
0000
0001
0000
0020
0000
1030
0100
,
1000
0000
0001
0000
0100
0010
0000
1010
0000
0000
1001
0000
0001
0100
0001
0010
,
0001
0000
1000
0000
0100
0010
0000
0011
0000
0000
1001
0000
1000
0100
1000
0001
,
0010
0000
0100
0000
1000
0001
0000
0101
0000
0000
1001
0000
0001
0100
0001
1000
,
0010
0000
0100
0000
0010
1000
0000
1100
0000
0000
1001
0000
1000
0000
0000
0000
,
1000
0100
1000
0000
1000
0000
0100
0000
,
0100
0001
0100
0000
0100
0000
0001
0000
,
0001
0010
0001
0000
0001
0000
0010
0000
,
0010
1000
0010
0000
0010
0000
0100
0000
,
0100
0001
0100
0000
0100
0000
0001
0000
,
0001
0010
0001
0000
0001
0000
0010
0000
,
0010
1000
0010
0000
0010
0000
1000
0000
,
1000
0100
1000
0000
1000
0000
0001
0100
,
0001
0100
0001
0100
0001
0000
0010
0001
,
0010
0001
0010
0001
0010
0000
1000
0010
,
1000
0010
1000
0010
1000
0000
0100
1000
,
0100
1000
0100
1000
0100
0000
1000
0100
,
0010
0001
0100
0010
1000
0100
0010
0001
,
0100
0010
1000
0100
0010
0001
2000
0000
,
0000
0000
0000
0000
3000
0000
1000
0001
,
0100
0010
0100
0010
1000
0000
0100
0000
0010
0000
0001
0000
0020
0000
0000
0000
,
0030
0000
0200
0000
0300
0000
1000
0100
,
0001
0000
0010
1000
0001
0000
0001
0100
,
1000
0000
0010
0001
1000
0000
1000
0100
,
0001
0000
0010
1000
0001
0000
2002
0000
,
3003
0000
0001
0010
1000
0000
0100
0001
,
1000
0000
1000
0010
0001
0000
0100
1000
,
0001
0000
0001
0010
1000
0000
0100
0001
,
1000
0000
2002
0000
3003
0000
0001
0100
,
1000
0100
0001
0000
1000
0000
0001
0010
,
1000
0010
0001
0000
0001
0000
1000
0100
,
0001
0100
1000
0000
0001
0000
1000
0010
,
0001
0010
1000
0000
1000
0000
0000
0001
,
0010
1000
0000
0010
0001
0100
0000
1000
,
0100
0001
0000
0010
1000
0010
0001
1000
,
0100
0010
0001
1000
0100
0010
0001
0010
,
0001
0010
1000
0010
1000
0000
0000
0000
,
0110
0000
0000
0000
;
#NOTEDATA:;
#STEPSTYPE:dance-double;
#DIFFICULTY:Easy;
#METER:6;
#NOTES:
00000000
00000000
00000000
00000000
,
00000000
00000000
00000000
00000000
,
00000000
00000000
00000000
00000000
,
00000000
00000000
00000000
00000000
,
00000000
00000000
00000000
00000000
,
00001000
00010000
00001000
00000000
,
00010000
00001000
00010000
00000000
,
00001000
00100000
00010000
00000000
,
00100000
00010000
00100000
00000000
,
01000000
10000000
00010000
10000000
,
00100000
10000000
00010000
00000000
,
10000000
01000000
00100000
01000000
,
00100000
00001000
00010000
00000000
,
00001000
00010000
00000100
00001000
,
00000010
00001000
00000100
00000000
,
00001000
00000001
00001000
00000000
,
00002002
00000000
00000000
00003003
,
00000001
00000100
00000010
00000010
,
00001000
00000010
00010000
00010000
,
00001000
00100000
00010000
00010000
,
01000000
00100000
10000000
00000000
,
10000000
01000000
00100000
00100000
,
00010000
00100000
00001000
00001000
,
00010000
00000010
00001000
00001000
,
00000100
00000010
00000001
00000000
,
00000001
00000000
00000100
00000000
,
00001000
00010000
00001000
00000000
,
00010000
00000000
00100000
00000000
,
10000000
00010000
10000000
00000000
,
10000000
00000000
01000000
00000000
,
00010000
00001000
00010000
00000000
,
00001000
00000000
00000010
00000000
,
00000001
00001000
00000001
00000000
,
00001001
00000000
00000110
00000000
,
00000001
00000010
00000100
00000000
,
00001100
00000000
00010100
00000000
,
00011000
00000000
00000000
00000000
,
00011000
00000000
00101000
00000000
,
00100000
00010000
01000000
00000000
,
01100000
00000000
01100000
00000000
,
10010000
00000000
00000000
00000000
,
10000000
01000000
00100000
00010000
,
00200000
00000000
00000000
00300000
,
00100000
00001000
00010000
00000000
,
00011000
00000000
00000000
00000000
,
00001000
00010000
00000100
00001000
,
00000020
00000000
00000000
00000030
,
00000010
00001000
00000100
00000000
,
00000110
00000000
00000000
00000000
,
00001001
00000000
00000000
00000000
,
00000001
00001000
00000100
00000000
,
00010100
00000000
00000000
00000000
,
00010000
00001000
00010000
00000000
,
00011000
00000000
00000000
00000000
,
00001000
01000000
00010000
00000000
,
01010000
00000000
00000000
00000000
,
01000000
00100000
10000000
00000000
,
10100000
00000000
00000000
00000000
,
01010000
00000000
00000000
00000000
,
00110000
00000000
00000000
00000000
,
00011000
00000000
00000000
00000000
,
00001100
00000000
00000000
00000000
,
00001010
00000000
00000000
00000000
,
00000110
00000000
00000000
00000000
,
00001001
00000000
00000000
00000000
,
00000001
00000010
00000100
00000000
,
00001000
00000100
00010000
00000000
,
00001000
00010000
00001000
00000000
,
01000000
00010000
00100000
00000000
,
00010000
10000000
01000000
00000000
,
00100000
00001000
00010000
00000000
,
00000100
00001000
00000100
00000010
,
00000002
00000000
00000000
00000003
,
00000001
00000000
00001000
00000000
,
00000100
00000000
00010000
00000000
,
00001000
00001000
00001000
00000000
,
00010000
00010000
00010000
00000000
,
00100000
00100000
00100000
00000000
,
10000000
10000000
10000000
00000000
,
01000000
01000000
01000000
00000000
,
00010000
00010000
00010000
00000000
,
00001000
00001000
00001000
00000000
,
00000010
00000010
00000010
00000010
,
00000000
00001001
00000000
00000000
;
#NOTEDATA:;
#STEPSTYPE:dance-double;
#DIFFICULTY:Medium;
#METER:12;
#BPMS:0=170,64=85,66=340,122=170,126=340,156=170,157=340,189=170,221=340,285=170,300=85,300.5=170,315.5=85,316=170,331=85,331.5=170,346.5=85,347=340,403=170,415=340,427=170,429=340,441=170,443=340,475=170,476=340;
#NOTES:
00000000
00000000
00000000
00000000
,
00000000
00000000
00000000
00000000
,
00000000
00000000
00000000
00000000
,
00000000
00000000
00000000
00000000
,
00000000
00000000
00000000
00000000
,
00000000
10000000
00000000
00100000
00000000
10000000
00000000
10000000
,
00000000
00010000
00000000
01000000
00000000
00010000
00000000
00010000
,
00000000
00100000
00000000
00001000
00000000
00100000
00000000
00100000
,
00000000
00001000
00000000
00010000
00000000
00001000
00000000
00001000
,
00010000
00000000
00001000
00000000
00010000
00000010
00010000
00000000
,
00000100
00000000
00001000
00000000
00000100
00000010
00000100
00000000
,
00000010
00000000
00000001
00000000
00001000
00000010
00001000
00000000
,
00000001
00000000
00000010
00000000
00000100
00001000
00000100
00000000
,
00010000
00000000
00001000
00000000
00100000
00010000
00100000
00000000
,
00010000
00000000
01000000
00000000
00100000
10000000
00100000
00000000
,
01000000
01000000
00100000
00100000
,
20020000
00000000
00000000
30030000
10000000
00000000
00000000
00000000
,
01000000
00000000
00010000
00000000
,
01000000
00000000
10000000
00000000
,
01000000
00000000
00010000
00000000
,
00001000
00000000
00010000
00000000
,
00001000
00000000
00000010
00000000
,
00000001
00000000
00000010
00000000
,
00001000
00000000
00000010
00000000
,
00000001
00000000
00000001
00000000
,
00000100
00000000
00001000
00000000
,
00000100
00000000
00000001
00000000
,
00000100
00000000
00001000
00000000
,
00010000
00000000
00001000
00000000
,
00010000
00000000
00100000
00000000
,
10000000
00000000
00200000
00000000
,
00000000
00300000
10000000
00000000
,
00100000
00000000
00010000
00000000
,
00100000
00000000
10000000
00000000
,
00100000
00000000
00010000
00000000
,
00001000
00000000
00010000
00000000
,
00001000
00000000
00000100
00000000
,
00000001
00000000
00000100
00000000
,
00001000
00000000
00000100
00000000
,
00000002
00000013
00000000
00001000
,
00000000
00000010
00000000
00000001
,
00000000
00000010
00000000
00001000
,
00000000
00010000
00000000
00001000
,
00000000
00010000
00000000
01000000
,
00000000
10000000
00000000
00010000
,
00000000
00000000
10000000
00000000
00000000
10000000
01000000
00000000
,
00000000
00100000
00010000
00000000
10000000
00000000
00010000
10000000
,
00000000
10000000
00010000
00000000
00000000
00110000
00000000
00000000
,
00000000
00000000
00100000
00000000
00000000
00101000
00000000
00000000
,
00000000
00000000
00000000
00000000
00001000
00000000
00000000
00010000
00000000
00000000
00001000
00000000
00000000
00010000
00000000
00000000
,
00000100
00000000
00000000
00000000
00001000
00000000
00000000
00000010
00000000
00000000
00001000
00000000
00000000
00000010
00000000
00000000
,
00000100
00000000
00000001
00000000
00000010
00000100
00000000
00000010
,
00000100
00000000
00001000
00000000
00000100
00010000
00000000
00000100
,
00010000
00000000
00000000
00000000
00001000
00000000
00000000
01000000
00000000
00000000
00010000
00000000
00000000
00100000
00000000
00000000
,
00010000
00000000
00000000
00000000
10000000
00000000
00000000
00100000
00000000
00000000
01000000
00000000
00000000
00100000
00000000
00000000
,
10000000
00010000
00000000
10010000
,
00000000
10000000
01000000
00100000
,
00000000
00020000
00000000
00230000
,
00000000
00301000
00010000
00001000
,
00000000
00010000
00000000
00011000
,
00000000
00001000
00000010
00000001
,
00000000
00000200
00000000
00000320
,
00000000
00001030
00000001
00001000
,
00000000
00000001
00000000
00000100
,
00000000
00001000
00010000
00100000
,
00000000
10000000
00000000
01000000
,
00000000
00010000
00001000
00000010
,
00000000
00000001
00000000
00001001
,
00000000
00001000
00000000
00001100
,
00000000
00000100
00000000
00010100
,
00000000
00010000
00001000
00010000
,
00000000
00002000
00000000
00000000
,
00003000
00001000
02000000
00000000
00000000
00000000
00000000
00000000
,
03000000
01000000
00020000
00000000
00000000
00000000
00000000
00000000
,
00030000
00010000
20000000
00000000
30000000
00000000
10000000
00100000
,
20000000
30010000
00000000
01000000
00000000
00100000
01000000
00100000
,
00000000
00010000
00000000
00001000
00000000
00010000
00001000
00010000
,
00000000
00000100
00000000
00000010
00000000
00000001
00001000
00000001
,
00000000
00000100
00000000
00000010
00000000
00001000
00000100
00002000
,
00003100
00000000
00010000
00000000
00001000
00010000
00001000
00000000
,
01000000
00000000
00010000
00000000
00100000
01000000
00100000
00000000
,
00010000
00000000
10000000
00000000
01000000
00100000
01000000
00000000
,
00100000
00000000
00001000
00000000
00010000
00001000
00020000
00031000
,
00000000
00010000
00000000
00001000
00000000
00011000
00000000
00010000
,
00000000
00000100
00000000
00001000
00000000
00001100
00000000
00000100
,
00000000
00000010
00000000
00000001
00000000
00000011
00000000
00000010
,
00000000
00000001
00000000
00001000
00000000
00001010
00000010
00000000
,
00000000
00000010
00000000
00010010
,
00000000
00000000
00000000
00010000
,
00000000
00010000
00000000
00011000
,
00000000
00000000
00000000
00001000
,
00000000
00001000
00000000
00101000
,
00000000
00000000
00000000
00100000
,
00000000
00100000
00000000
01100000
,
00000000
00000000
00000000
10000000
,
00100000
01000000
00000000
00010000
,
00100000
01000000
00000000
00100000
,
00001000
00010000
00000000
00001000
,
00010000
00000100
00000000
00001000
,
00000100
00000000
00000100
00000010
,
00000100
00000000
00000010
00000002
,
00000000
00000000
00000000
00000000
00000003
00000000
00000010
00000001
,
00000010
00000001
00001000
00000100
00001000
00000100
00020000
00000000
,
00030000
00002000
00003000
00001000
,
00010000
00001000
00100000
00010000
,
01000000
00100000
00000000
10000000
,
01000000
00100000
00010000
20000000
,
30000000
10000000
00010000
01000000
,
00010000
00100000
00001000
00010000
,
00000000
00001000
00010000
00000100
,
00001000
00000002
00000003
00000001
,
00000010
00000100
00001000
00000010
,
00000100
00000001
00000000
00000100
,
00000010
00010000
00001000
00010000
,
00001000
01000000
00000000
00010000
,
01000000
00100000
00000000
10000000
,
01000000
00100000
00000000
00010000
,
10000000
01000000
00010000
00001000
,
00000010
00000001
00000000
00002000
,
00003001
00000000
00000000
00000000
;
#NOTEDATA:;
#STEPSTYPE:dance-double;
#DIFFICULTY:Hard;
#METER:15;
#BPMS:0=170,64=85,66=340,122=170,126=340,156=170,157=340,189=170,221=340,285=170,300=85,300.5=170,315.5=85,316=170,331=85,331.5=170,346.5=85,347=340,403=170,415=340,427=170,429=340,441=170,443=340,475=170,476=340;
#NOTES:
00000000
00000000
00000000
00000000
,
00000000
00000000
00000000
00000000
,
00000000
00000000
00000000
00000000
,
00000000
00000000
00000000
00000000
,
00000000
00000000
00000000
00000000
,
00000000
10000000
00000000
10000000
00000000
01000000
00000000
01000000
,
00000000
00100000
00000000
00100000
00000000
00010000
00000000
00010000
,
00000000
00001000
00000000
00001000
00000000
00000100
00000000
00000100
,
00000000
00000010
00000000
00000010
00000000
00000001
00000000
00000001
,
00001000
00000000
00000100
00000000
00001000
00000000
00000000
00000010
00000000
00000000
00010000
00000000
00010000
00000000
00000000
00000000
,
00001000
00000000
00010000
00000000
00001000
00000000
00000000
00100000
00000000
00000000
00010000
00000000
00010000
00000000
00000000
00000000
,
10000000
00000000
00100000
00000000
10000000
00000000
00000000
01000000
00000000
00000000
00100000
00000000
00100000
00000000
00000000
00000000
,
00010000
00000000
00100000
00000000
00010000
00000000
00000000
01000000
00000000
00000000
00001000
00000000
00001000
00000000
00000000
00000000
,
00010000
00000000
00000100
00000000
00001000
00000000
00000000
00000100
00000000
00000000
00000010
00000000
00000010
00000000
00000000
00000000
,
00000001
00000000
00001000
00000000
00000001
00000000
00000000
00001000
00000000
00000000
00000100
00000000
00000100
00000000
00000000
00000000
,
00010000
00000000
00001000
00000000
00100000
00000000
00000000
00010000
00000000
00000000
01000000
00000000
01000000
00000000
00000000
00000000
,
02200000
00000000
00000000
03300000
10000000
00000000
01000000
00000000
,
10000000
01000000
00010000
01000000
,
00010000
00000000
00001000
00000010
,
00001000
00000010
00000001
00000010
,
00000001
00000000
00000001
00000100
,
00000001
00000100
00001000
00000100
,
00001000
00000000
00010000
00100000
,
00010000
00100000
10000000
00100000
,
10000000
00000000
10000000
01000000
,
00010000
00000000
00001000
00000000
,
00000010
00000000
00000001
00000100
,
00001000
00000000
00010000
00000000
,
00100000
00000000
10000000
01000000
,
00010000
00000000
00001000
00000010
,
00000001
00000000
00002002
00000000
,
00000000
00003003
00000001
00000100
,
00001000
00010000
00100000
10000000
,
00010000
00000000
10000000
01000000
,
00010000
00001000
00000010
00000001
,
00001000
00000000
00000001
00000010
,
00001000
00010000
01000000
10000000
,
00010000
00000000
10000000
00100000
,
00010000
00001000
00000100
00000001
,
00002000
00003001
00000100
00001000
,
00010000
01000000
10000000
00010000
,
00000000
10000000
00100000
00010000
,
00001000
00000010
00000001
00001000
,
00000000
00000001
00000100
00001000
,
00000000
00010000
00100000
10000000
,
00000000
10000000
01000000
00010000
,
00001000
00000010
00000001
00001000
,
00000000
00000000
00000001
00000010
00000001
00001000
00000100
00001000
,
00001001
00000000
00000001
00000100
00001000
00010000
00100000
10000000
,
10010000
00000000
00000000
00000000
10000000
01000000
00000000
10000000
01000000
00000000
00100000
00010000
00000000
00100000
00010000
00000000
,
10000000
00000000
00010000
00000000
00100000
00001000
00000000
00100000
00001000
00000000
00010000
00001000
00000000
00010000
00001000
00000000
,
00010000
00000000
00001000
00010000
00000100
00001000
00000010
00000100
,
00000110
00000000
00000010
00001000
00000010
00000001
00000010
00001000
,
00001010
00000000
00000000
00000000
00000010
00001000
00000000
00000100
00001000
00000000
00000100
00010000
00000000
00001000
00010000
00000000
,
00001000
00000000
01000000
00000000
00010000
00100000
00000000
01000000
00100000
00000000
00010000
10000000
00000000
00100000
01000000
00000000
,
00010000
00000000
10000000
00000000
01000000
00100000
00010000
00000000
,
01000000
01001000
00001000
00011000
,
00010000
00000000
00000010
00000000
00001000
00000100
00001000
00000000
,
00000100
00000010
00000001
00000000
00001000
00000000
00001001
00000000
,
00000000
00000000
00000001
00000000
00000100
00000010
00001000
00000000
,
00000100
00010100
00010000
00011000
,
00001000
00000000
00100000
00000000
00010000
01000000
00010000
00000000
,
01000000
00100000
10000000
00000000
00010000
00000000
10010000
00000000
,
00000000
00000000
10000000
00000000
00100000
01000000
00010000
00000000
,
00100000
00001000
00010000
00001000
00010000
00000000
00000100
00000000
,
00001000
00000000
00000010
00000000
00000100
00000001
00001000
00000000
,
00000100
00000010
00000001
00000010
00000100
00000000
00001000
00000000
,
00000100
00000000
00010000
00001000
00100000
00000000
01000000
00000000
,
00100000
00000000
00001000
00010000
00000100
00000000
00000010
00000000
,
00000100
00000000
00010000
00000000
00001000
00100000
00010000
00000000
,
01000000
00100000
20000000
00000000
00000000
00000000
30020000
00000000
,
00000000
00000000
10030000
01000000
00010000
00001000
00000010
00000001
,
00001000
00000000
00000001
00000100
00001000
00010000
00100000
10000000
,
00010000
00000000
10000000
01000000
00010000
00001000
00000100
00000001
,
00001000
00000000
00000001
00000010
00001000
00010000
00100000
10000000
,
00020000
10030000
00000000
11000000
00000000
01000000
00000000
01010000
,
00000000
00010000
00000000
00011000
00000000
00001000
00000000
00001010
,
00000000
00000010
00000001
00000100
00000000
00000010
00001000
00000100
,
00000000
00000010
00000001
00000100
00000010
00001000
00000001
00002000
,
00003001
00000010
00001000
00010000
01000000
10000000
00010000
00000000
,
10000000
00100000
00010000
00001000
00000100
00000001
00001000
00000000
,
00000001
00000010
00001000
00010000
00100000
10000000
00010000
00000000
,
10000000
01000000
00010000
00001000
00000100
00000001
00002000
00003001
,
00000000
00000011
00000000
00000010
00000000
00001010
00000000
00001000
,
00000000
00011000
00000000
00010000
00000000
01010000
00000000
01000000
,
10000000
00100000
00000000
01000000
00010000
00100000
00000000
01000000
,
10000000
00100000
01000000
00010000
10000000
00010000
10000000
00000000
,
00000000
10000000
00000000
11000000
,
00000000
01100000
00000000
00100000
,
00000000
00100000
00000000
00101000
,
00000000
00011000
00000000
00001000
,
00000000
00001000
00000000
00011000
,
00000000
00010010
00000000
00000010
,
00000000
00000010
00000000
00001010
,
00000000
00000110
00000000
00000001
,
00000100
00000001
00000100
00001000
,
00010000
00001000
00010000
00100000
,
10000000
00100000
10000000
01000000
,
00010000
00000000
01000000
00000000
00010000
00000000
00001000
00010000
,
00001000
00000000
00000010
00000000
00000001
00000000
00000100
00000001
,
00000100
00001000
00010000
00002000
,
00000000
00000000
00000000
00000000
00003000
00000000
00001000
00100000
,
00010000
01000000
00010000
00000000
00100000
00000000
01000000
00000000
10000000
00010000
10000000
00000000
00020000
00000000
00000000
00000000
,
00030000
00000000
20000000
00000000
30000000
00000000
10000000
01000000
,
00000000
00100000
00010000
00000000
10000000
00000000
01000000
00010000
,
00000000
00010000
00001000
00000000
00000010
00000000
00000001
00001000
,
00000000
00000100
00000010
00000000
00000001
00000000
00002002
00000000
,
00003003
00000000
00000001
00000100
00000000
00000010
00001000
00000000
,
00000001
00000000
00000100
00001000
00000000
00001000
00010000
00000000
,
00100000
00000000
10000000
00010000
00000000
01000000
00100000
00000000
,
10000000
20020000
30030000
10000000
,
01000000
00000000
00100000
01000000
00100000
00000000
00001000
00000000
,
00010000
00000000
00000100
00000010
00000100
00000000
00000010
00000000
,
00000001
00000000
00000100
00000010
00000100
00000000
00001000
00000000
,
00010000
00000000
00001000
00010000
00001000
00000000
00000000
00010000
,
00100000
01000000
00000000
00010000
00100000
01000000
00000000
00010000
,
00001000
00000010
00000000
00000100
00001000
00000010
00000100
00001000
,
00000100
00000000
00001000
00010000
00001000
00000000
00010000
00000000
,
00100000
00000000
01000000
00100000
02000000
00000000
03000000
00000000
,
01100000
00000000
00000000
00000000
;
#NOTEDATA:;
#STEPSTYPE:dance-double;
#DIFFICULTY:Challenge;
#METER:18;
#BPMS:0=170,64=85,66=340,122=170,126=340,156=170,157=340,189=170,221=340,285=170,300=85,300.5=170,315.5=85,316=170,331=85,331.5=170,346.5=85,347=340,403=170,415=340,427=170,429=340,441=170,443=340,475=170,476=340;
#NOTES:
00000000
00000000
00000000
00000000
,
00000000
00000000
00000000
00000000
,
00000000
00000000
00000000
00000000
,
00000000
00000000
00000000
00000000
,
00000000
00000000
00000000
00000000
,
00000000
00000000
10000000
01000000
00000000
00000000
10000000
01000000
00000000
00000000
00100000
00010000
00000000
00000000
00100000
00010000
,
00000000
00000000
00001000
00000100
00000000
00000000
00001000
00000100
00000000
00000000
00000010
00000001
00000000
00000000
00000010
00000001
,
00000000
00000000
00000001
00000100
00000000
00000000
00000001
00000100
00000000
00000000
00000010
00001000
00000000
00000000
00000010
00001000
,
00000000
00000000
00010000
01000000
00000000
00000000
00010000
01000000
00000000
00000000
00100000
10000000
00000000
00000000
00100000
10000000
,
00100000
00000000
10000000
00000000
01000000
00000000
00000000
01100000
00000000
00000000
00100000
00010000
00100000
00000000
00000000
00000000
,
00010000
00000000
00100000
00000000
00001000
00000000
00000000
00011000
00000000
00000000
00010000
00001000
00010000
00000000
00000000
00000000
,
00001000
00000000
00010000
00000000
00000010
00000000
00000000
00001010
00000000
00000000
00001000
00000010
00001000
00000000
00000000
00000000
,
00000010
00000000
00000100
00000000
00000001
00000000
00000000
00001001
00000000
00000000
00001000
00000001
00001000
00000000
00000000
00000000
,
00000001
00000000
00000100
00000000
00001000
00000000
00000000
00010000
00000000
00000000
00001000
00010000
00001000
00000000
00000000
00000000
,
00010000
00000000
00100000
00000000
10000000
00000000
00000000
00010000
00000000
00000000
10000000
00010000
10000000
00000000
00000000
00000000
,
00010000
00000000
10000000
00000000
01000000
00000000
00000000
00010000
00000000
00000000
00001000
00010000
00001000
00000000
00000000
00000000
,
00022000
00000000
00000000
00033000
00010000
00000000
00001000
00000000
,
00000010
00000000
00000001
00000000
00000100
00000000
00001000
00010000
,
00100000
10000000
01000000
00010000
,
00001000
00000000
00000010
00000000
00000001
00000000
00000100
00001000
,
00010000
00100000
10000000
01000000
,
00010000
00000000
00001000
00000000
00000010
00000000
00000001
00000100
,
00001000
00010000
00100000
10000000
,
01000000
00010000
00001000
00000010
,
00000001
00000100
00000000
00000100
00001000
00000000
00000100
00000000
,
00000001
00000000
00000010
00000000
00001000
00000000
00010000
01000000
,
10000000
00100000
00010000
00001000
,
00000100
00000000
00000001
00000000
00000010
00000000
00001000
00010000
,
01000000
10000000
00100000
00010000
,
00001000
00000000
00000100
00000000
00000001
00000000
00000010
00001000
,
00010000
00000000
00000000
00000000
01000000
00000000
00000000
00000000
10000000
01000000
10000000
00010000
00100000
00010000
00100000
00001000
,
00010000
00000100
00000110
00000000
00000001
00000000
00000100
00000000
,
00001000
00000000
00010000
00000000
01000000
00000000
10000000
00100000
,
00010000
00001000
00000010
00000001
,
00000100
00000000
00001000
00000000
00010000
00000000
01000000
10000000
,
00100000
00010000
00001000
00000010
,
00000001
00000000
00000100
00000000
00001000
00000000
00010000
01000000
,
10000000
00100000
00010000
00001000
,
00000010
00000000
00000001
00000000
00000100
00000000
00001000
00010000
,
02000000
03010000
00001000
00000100
,
00000001
00000000
00000010
00000000
00001000
00010000
00100000
00000000
,
10000000
01000000
00010000
00001000
,
00000100
00000000
00000001
00000000
00000010
00001000
00010000
00000000
,
00100000
10000000
01000000
00010000
,
00001000
00000000
00000100
00000000
00000001
00000010
00001000
00000000
,
00010000
00000000
00100000
00000000
01000000
00100000
01000000
00000000
,
00001000
00010000
00001000
00000000
00000010
00000100
00000010
00000100
,
00000000
00000000
00000100
00000000
00001000
00000000
00000001
00000010
00000100
00000000
00001000
00000100
00001000
00000100
00010000
00000000
,
00001000
00010000
00001000
00000000
01000000
00000000
00010000
00100000
00010000
00000000
01000000
00100000
10000000
00100000
10000000
00000000
,
00010000
01000000
00010000
00000000
10000000
01000000
00000000
01000000
00100000
00000000
00010000
00100000
00000000
00101000
00000000
00001000
,
00010000
00001000
00010000
00000000
00001000
00010000
00000100
00001000
00000000
00000000
00000100
00000010
00000000
00000011
00000000
00000001
,
00001000
00000001
00001000
00000000
00000001
00000000
00000100
00000010
00001000
00000000
00000100
00000010
00000100
00000010
00000001
00000000
,
00001000
00000100
00001000
00000000
00000100
00000000
00010000
00001000
00010000
00000000
00001000
01000000
00010000
01000000
00010000
00000000
,
00100000
01000000
10000000
00000000
00010000
00100000
00000000
00100000
01000000
00000000
00010000
00001000
00000000
00011000
00000000
00010000
,
00000100
00001000
00000100
00000000
00000010
00000001
00001000
00000001
00000000
00000000
00001000
00000010
00000000
00001010
00000000
00001000
,
00000010
00000100
00000001
00000000
00001000
00000000
00000000
00000000
00000001
00000000
00000100
00000000
00001000
00000000
00000000
00000000
,
00010000
00110000
00100000
10100000
,
10010000
00000000
10000000
00000000
01000000
00010000
01000000
00000000
,
00010000
00001000
00010000
00000000
00001000
00000000
00001010
00000000
,
00000011
00000000
00001000
00000000
00000001
00000010
00001000
00000000
,
00010000
01010000
01000000
11000000
,
10010000
00000000
10000000
00000000
00100000
00010000
00100000
00000000
,
00010000
00001000
00010000
00000000
00001000
00000000
00001100
00000000
,
00000101
00000000
00000001
00000000
00000100
00001000
00010000
00000000
,
00100000
00000000
10000000
00010000
10000000
00010000
20000000
00000000
,
30000000
00000000
10000000
00000000
01000000
00010000
00001000
00000000
,
00000010
00000000
00000001
00001000
00000001
00001000
00000002
00000000
,
00000003
00000000
00000001
00000100
00001000
00000000
00010000
00000000
,
01000000
00000000
10000000
00100000
00010000
00000000
00001000
00000000
,
00000010
00000000
00000001
00000000
00000010
00000100
00000010
00000000
,
00001000
00010000
00001000
01000000
00100000
01000000
00100000
10000000
,
00010000
00000000
10010000
10000000
00100000
01000000
00010000
00100000
,
00001000
00011000
00010010
00000010
00001000
00000100
00000010
00000001
,
00000100
00000110
00001010
00001000
00000100
00010000
00001000
00100000
,
00010000
00110000
01100000
01000000
10000000
00010000
01000000
00100000
,
10000000
00010000
10000000
00000000
00010000
00000000
01000000
00000000
00010000
00000000
00000000
00000000
00100000
00000000
00000000
00000000
00001000
00000000
00010000
00000000
00000000
00000000
00010000
00000000
00000000
00000000
00010000
00000000
00001000
00000000
00100000
00000000
,
00001000
00000000
01000000
00010000
01000000
00000000
00100000
00000000
10000000
00010000
00000000
00010000
01000000
00000000
00001000
00010000
,
00000000
00010000
00000100
00001000
00000100
00000000
00000010
00000000
00000100
00010000
00000000
00010000
00000000
00010000
00001000
00010000
,
00001000
00000000
00000000
00000000
00010000
00000000
00000010
00000000
00000000
00000000
00000010
00000000
00001000
00000000
00000000
00000000
00001000
00000000
00000100
00000000
00000000
00000000
00000100
00000000
00000010
00000000
00000000
00000000
00000001
00001000
00000001
00000000
,
00001001
00000001
00000010
00000100
00001000
00000010
00010000
00011000
,
00101000
00100000
00010000
01000000
00100000
10000000
01000000
01100000
,
00110000
00010000
01000000
00001000
00010000
00000010
00001000
00001010
,
00000110
00000000
00000100
00000000
00000001
00000000
00001000
00000000
00000100
00000000
00000010
00000000
00000002
00000000
00000013
00000100
,
00000010
00000000
00000001
00000000
00001000
00000010
00000000
00010010
00000000
00000000
00011000
00000000
00001000
00010000
00001000
00100000
,
00001000
00000000
00010000
00000000
00100000
01000000
00000000
01100000
00000000
00000000
10010000
00000000
10000000
00100000
10000000
00010000
,
01000000
00000000
00010000
00000000
00100000
00001000
00000000
00011000
00000000
00000000
00010100
00000000
00000100
00001000
00000100
00000010
,
00000001
00000000
00000100
00000000
00000010
00001000
00000000
00001010
00000000
00000000
00001001
00000000
00000001
00000000
00000000
00000000
,
00000001
00000100
00000001
00000000
00000100
00000000
00001000
00000000
,
00001000
00010000
00001000
00000000
00010000
00000000
00100000
00000000
,
00100000
10000000
00100000
00000000
10000000
00000000
01000000
00000000
,
01000000
00010000
00001000
00000000
00000010
00000000
00000001
00000000
,
00000001
00000010
00000001
00000000
00000010
00000000
00001000
00000000
,
00001000
00010000
00001000
00000000
00010000
00000000
01000000
00000000
,
01000000
10000000
01000000
00000000
10000000
00000000
00100000
00000000
,
00100000
00010000
00001000
00000000
00000100
00000000
00000001
00000010
,
00000001
00000010
00000001
00000010
00000001
00000010
00001000
00000010
,
00001000
00000010
00001000
00000010
00001000
00000010
00001000
00010000
,
00001000
00010000
00001000
00010000
00001000
00010000
00100000
00010000
,
00100000
00010000
00100000
00010000
00100000
00010000
00100000
10000000
,
00010000
00100000
00001000
00010000
00000010
00001000
00000001
00000100
,
00000001
00001000
00000100
00010000
00001000
00000000
00020000
00000000
,
00000000
00000000
00000000
00000000
00030000
00000000
00010000
00001000
,
01000000
00010000
01000000
00100000
10000000
00000000
01000000
00000000
00100000
00000000
00010000
00000000
00200000
00000000
00000000
00000000
,
00300000
00000000
02000000
00000000
03000000
00000000
10000000
01000000
,
00010000
00000000
00001000
00000010
00000001
00000000
00000001
00000100
,
00001000
00000000
00010000
00100000
10000000
00000000
10000000
01000000
,
00010000
00000000
00001000
00000010
00000001
00000000
00002002
00000000
,
00003003
00000000
00000001
00000010
00001000
00000000
00010000
01000000
,
10000000
00000000
10000000
00100000
00010000
00000000
00001000
00000100
,
00000001
00000000
00000001
00000010
00001000
00000000
00010000
01000000
,
10000000
00000000
20020000
00000000
30030000
00000000
10000000
01000000
,
00010000
00001000
00000100
00000000
00000001
00000000
00000001
00000010
,
00001000
00010000
00100000
00000000
10000000
00000000
10000000
01000000
,
00010000
00001000
00000010
00000000
00000001
00000000
00000001
00000100
,
00001000
00010000
00100000
00000000
10000000
00000000
00000000
00010000
,
10000000
01000000
00000000
00100000
00001000
00010000
00000000
00100000
,
01000000
00010000
00000000
10000000
00010000
10000000
01000000
10000000
,
00010000
01000000
00001000
00010000
00000010
00001000
00000001
00000100
,
00001000
00000000
00010000
00100000
00000000
00100000
00000000
00000000
,
01100000
00000000
00000000
00000000
;
