
//----- song ID: mkss -----//
#TITLE:明鏡止水;
#ARTIST:TOMOSUKE feat.あさき;
#TITLETRANSLIT:Meikyoushisui;
#ARTISTTRANSLIT:TOMOSUKE feat. Asaki;
#BANNER:Meikyoushisui.png;
#BACKGROUND:Meikyoushisui-bg.png;
#CDTITLE:./CDTitles/pnm 10.png;
#MUSIC:Meikyoushisui.ogg;
#SAMPLESTART:19.855;
#SAMPLELENGTH:15;
#DISPLAYBPM:208:290;
#BPMS:0=290,564=266.667,566=264.317,568=234.375,572=215.633,576=208.189;
#NOTES:
     dance-single:
     :
     Beginner:
     4:
     :
0000
0000
0000
0000
,
0000
0000
0000
0000
,
0000
0000
0000
0000
,
0000
0000
0000
0000
,
0000
0000
0000
0000
,
0000
0000
0000
0000
,
1000
0000
0000
0000
,
0000
0000
0000
0000
,
1000
0000
0000
0000
,
0000
0000
0000
0000
,
0001
0000
0000
0000
,
0000
0000
0000
0000
,
0001
0000
0000
0000
,
0000
0000
0000
0000
,
0010
0000
0000
0000
,
0000
0000
0000
0000
,
0010
0000
0000
0000
,
0000
0000
0000
0000
,
0100
0000
0000
0000
,
0000
0000
0000
0000
,
1001
0000
0000
0000
,
0000
0000
0000
0000
,
0000
0000
0000
0000
,
0000
0000
0000
0000
,
1000
0000
0000
0000
,
0010
0000
0000
0000
,
1000
0000
0000
0000
,
0000
0000
0000
0000
,
0001
0000
0000
0000
,
0100
0000
0000
0000
,
0001
0000
0000
0000
,
0000
0000
0000
0000
,
1000
0000
0000
0000
,
0001
0000
0000
0000
,
1000
0000
0000
0000
,
0000
0000
0000
0000
,
0010
0000
0000
0000
,
0000
0000
0000
0000
,
0100
0000
0000
0000
,
0000
0000
0000
0000
,
0002
0000
0000
0000
,
0003
0000
0000
0000
,
1000
0000
0000
0000
,
1000
0000
0000
0000
,
2000
0000
0000
0000
,
3000
0000
0000
0000
,
0001
0000
0000
0000
,
0001
0000
0000
0000
,
0200
0000
0000
0000
,
0300
0000
0000
0000
,
0010
0000
0000
0000
,
0010
0000
0000
0000
,
0020
0000
0000
0000
,
0030
0000
0000
0000
,
0100
0000
0000
0000
,
0100
0000
0000
0000
,
0001
0000
0000
0000
,
0000
0000
0000
0000
,
1000
0000
0000
0000
,
0000
0000
0000
0000
,
0001
0000
0000
0000
,
0001
0000
0000
0000
,
0001
0000
0000
0000
,
0000
0000
0000
0000
,
1000
0000
0000
0000
,
1000
0000
0000
0000
,
1000
0000
0000
0000
,
0000
0000
0000
0000
,
0010
0000
0000
0000
,
0010
0000
0000
0000
,
0010
0000
0000
0000
,
0000
0000
0000
0000
,
0100
0000
0000
0000
,
0100
0000
0000
0000
,
0100
0000
0000
0000
,
0000
0000
0000
0000
,
0002
0000
0000
0000
,
0003
0000
0000
0000
,
1000
0000
0000
0000
,
0100
0000
0000
0000
,
0020
0000
0000
0000
,
0030
0000
0000
0000
,
0001
0000
0000
0000
,
0100
0000
0000
0000
,
0020
0000
0000
0000
,
0000
0000
0030
0000
,
1000
0000
0000
0000
,
0001
0000
0000
0000
,
0200
0000
0000
0000
,
0300
0000
0000
0000
,
0001
0000
0000
0000
,
1000
0000
0000
0000
,
1001
0000
0000
0000
,
0000
0000
0000
0000
,
0000
0000
0000
0000
,
0000
0000
0000
0000
,
0001
0000
0000
0000
,
0100
0000
0000
0000
,
0010
0000
0000
0000
,
1000
0000
0000
0000
,
0001
0000
0000
0000
,
0000
0000
0000
0000
,
0100
0000
0000
0000
,
0100
0000
0000
0000
,
0001
0000
0000
0000
,
0000
0000
0000
0000
,
1000
0000
0000
0000
,
0010
0000
0000
0000
,
0110
0000
0000
0000
,
0000
0000
0000
0000
,
0100
0000
0000
0000
,
0001
0000
0000
0000
,
1000
0000
0000
0000
,
0100
0000
0000
0000
,
0010
0000
0000
0000
,
0000
0000
0000
0000
,
0000
0000
0000
0000
,
0000
0000
0000
0000
,
0001
0000
0000
0000
,
0100
0000
0000
0000
,
0010
0000
0000
0000
,
1000
0000
0000
0000
,
0001
0000
0000
0000
,
0000
0000
0000
0000
,
0000
0000
0000
0000
,
0000
0000
0000
0000
,
1000
0000
0000
0000
,
1000
0000
0000
0000
,
0010
0000
0000
0000
,
0010
0000
0000
0000
,
0100
0000
0000
0000
,
0100
0000
0000
0000
,
0001
0000
0000
0000
,
0001
0000
0000
0000
,
1001
0000
0000
0000
,
1000
0000
0000
0000
,
1001
0000
0000
0000
,
0001
0000
0000
0000
,
1001
0000
0000
0000
,
1000
0000
0000
0000
,
1001
0000
0000
0000
,
0000
0000
0000
0000
,
0000
0000
0000
1000
,
0000
0000
0000
0100
,
0000
0000
0000
0010
,
0000
0100
0000
0010
,
0000
0000
0000
0000
;
#NOTES:
     dance-single:
     :
     Easy:
     10:
     :
0000
0000
0000
0000
,
0000
0000
0000
0000
,
0000
0000
0000
0000
,
0000
0000
0000
0000
,
0000
0000
0000
1001
,
0000
0000
0000
0000
,
0001
0000
0100
0000
,
0001
0000
0100
0000
,
0010
0000
1000
0000
,
0010
0000
1000
0000
,
0001
0000
0010
0000
,
0001
0000
0010
0000
,
0100
0000
1000
0000
,
0001
0000
1000
0000
,
0010
0000
0100
0000
,
0010
0000
0100
0000
,
0001
0000
1000
0000
,
0001
0000
1000
0000
,
0100
0000
0010
0000
,
0100
0000
1000
0000
,
2002
0000
0000
0000
,
0000
0000
0000
0000
,
0000
0000
0000
0000
,
0000
3003
0000
0000
,
1000
0000
0100
0000
,
1000
0000
0001
0000
,
0010
0000
0100
0000
,
0010
0000
0001
0000
,
0100
0000
0010
0000
,
1000
0000
0001
0000
,
0100
0000
0000
0000
,
0000
0000
0000
0000
,
0001
0000
0010
0000
,
0001
0000
1000
0000
,
0100
0000
0010
0000
,
0100
0000
1000
0000
,
0010
0000
0000
0000
,
0110
0000
0000
0000
,
1001
0000
0000
0000
,
0000
0000
0000
0000
,
2000
0000
3200
0000
,
0320
0000
0000
0000
,
0130
0000
1000
0000
,
0001
0010
0001
0000
,
2000
0000
3020
0000
,
0230
0000
0000
0000
,
0310
0000
1000
0000
,
0100
0010
0100
0000
,
2000
0000
3002
0000
,
0203
0000
0000
0000
,
0310
0000
1000
0000
,
0001
1000
0001
0000
,
0020
0000
0230
0000
,
2300
0000
0000
0000
,
3010
0000
0100
0000
,
0001
1000
0100
0000
,
1000
0000
0010
0000
,
0100
0001
0100
0000
,
0001
0010
0001
0000
,
1000
0010
1000
0000
,
0001
0000
0010
0000
,
0001
0000
1000
0000
,
0100
0000
0010
0000
,
0100
0000
1000
0000
,
0010
0000
0100
0000
,
0001
0000
1000
0000
,
0010
0000
0000
0000
,
0000
0000
0000
0000
,
1000
0000
0100
0000
,
1000
0000
0001
0000
,
0010
0000
0100
0000
,
0010
0000
0001
0000
,
0100
0000
0000
0000
,
0110
0000
0000
0000
,
1001
0000
0000
0000
,
0000
0000
0000
0000
,
0002
0000
0203
0000
,
0320
0000
0000
0000
,
1030
0000
0001
0000
,
0100
0010
0100
0000
,
0002
0000
0023
0000
,
0230
0000
0000
0000
,
1300
0000
0001
0000
,
0100
0010
0100
0000
,
0002
0000
2003
0000
,
3200
0000
0000
0000
,
0310
0000
0001
0000
,
1000
0001
1000
0000
,
0020
0000
0230
0000
,
0302
0000
0000
0000
,
1003
0000
0010
0000
,
0100
0001
1000
0000
,
0200
0000
0000
0000
,
0000
0000
0000
0000
,
0000
0000
0000
0000
,
0000
0000
0000
0000
,
1300
0001
0100
0000
,
0001
0010
0100
0000
,
0010
0000
0100
0000
,
1000
0001
0010
0000
,
0011
0000
0100
0000
,
1100
0000
0000
0000
,
1000
0000
0001
0000
,
0101
0000
0000
0000
,
1010
0000
0001
0000
,
0101
0000
0000
0000
,
0010
0000
0100
0000
,
1001
0000
0000
0000
,
1000
0100
1000
0000
,
0100
0010
0001
0000
,
0100
0000
0010
0000
,
1000
0000
0001
0000
,
1000
0000
0100
0000
,
0010
0000
0001
0000
,
0100
0000
0010
0100
,
0001
0100
0001
0000
,
1000
0100
1000
0000
,
0001
0100
0001
0000
,
1000
0000
0100
0000
,
0010
0000
0001
0000
,
0100
0000
0010
0000
,
1000
0000
0100
0000
,
0010
0000
0100
1000
,
0001
1000
0001
0000
,
0010
0100
0010
0000
,
0001
1000
0100
0000
,
1001
0000
0000
1001
0000
0000
0000
0000
,
0001
0100
0010
0000
,
0100
0010
1000
0010
,
1000
0001
0010
0000
,
0110
0000
0000
0110
0000
0000
0000
0000
,
0100
1000
0001
0000
,
0100
0001
1000
0010
,
1000
0010
0100
0000
,
1001
0000
0000
1001
0000
0000
0000
0000
,
0001
0010
0100
0000
,
0110
0000
0000
0110
0000
0000
0000
0000
,
0010
0001
1000
0000
,
1001
0000
0000
1001
0000
0000
0000
0000
,
1000
0100
0010
0000
,
0110
0000
0000
0110
0000
0000
0000
0000
,
0000
0000
0000
0000
,
0000
0000
0000
1000
,
0000
0010
0000
0100
,
0000
0001
0000
1000
,
0000
0100
0010
0001
,
0000
0000
0000
0000
;
#NOTES:
     dance-single:
     :
     Medium:
     13:
     :
0000
0000
0000
0000
,
0000
0000
0000
0000
,
0000
0000
0000
0000
,
0000
0000
0000
0000
,
0000
0000
0000
1001
,
0000
0000
0000
0000
,
1000
0000
0000
0010
0000
0000
1000
0000
,
0001
0010
0100
0000
,
0010
0000
0000
0001
0000
0000
0010
0000
,
0100
1000
0001
0000
,
1000
0000
0000
0010
0000
0000
0100
0000
,
0010
1000
0001
0000
,
0010
0000
0000
0001
0000
0000
1000
0000
,
0010
0100
0010
0000
,
1000
0000
0000
0100
0000
0000
1000
0000
,
0001
0100
0010
0000
,
0100
0000
0000
0001
0000
0000
0100
0000
,
0010
1000
0001
0000
,
0010
0000
0000
0100
0000
0000
0010
0000
,
0001
1000
0001
0000
,
1000
0010
0100
0001
,
1000
0100
0010
0001
,
0200
0000
0000
0000
,
0000
0000
0310
0000
0100
0010
0100
0000
,
0001
1000
0100
1000
,
0010
0100
0001
0100
,
0001
0010
0100
0010
,
0001
0100
0010
1000
,
0100
0010
0001
0010
,
0001
0100
0010
0100
,
0001
1000
0010
0100
,
0001
1000
0001
0000
,
1000
0001
0010
0001
,
0100
0010
1000
0010
,
1000
0100
0010
0100
,
1000
0010
0100
0001
,
0010
0100
1000
0100
,
1000
0000
0000
0010
0000
0000
0100
0000
,
0001
0010
0001
0010
,
0001
1000
0000
0010
0100
0000
0010
0000
,
2000
3200
0320
0230
,
1300
0000
0001
0100
0000
0001
0100
0000
,
0010
0100
0100
0010
,
1000
0000
0100
0010
0000
0100
1000
0000
,
0002
0023
0230
0320
,
0031
0000
1000
0100
0000
1000
0100
0000
,
0010
0100
0100
0010
,
0001
0000
0100
0010
0000
0100
0001
0000
,
2000
3020
0230
0320
,
1030
0000
0001
0010
0000
0001
0100
0000
,
0010
1000
1000
0001
,
0100
0000
0010
0100
0000
0010
1000
0000
,
0002
0023
0230
0320
,
0031
0000
1000
0010
0000
1000
0100
0000
,
0010
0001
0001
1000
,
0100
0000
0010
0100
0000
0010
0001
0000
,
1001
0000
0001
0010
,
0100
0000
1000
0000
0100
0010
0100
0000
,
1000
0000
0010
0000
0100
0010
0100
0000
,
0001
0000
0010
0000
0100
1000
0100
0000
,
1000
0001
0010
0001
,
0100
0010
1000
0010
,
1000
0100
0010
0100
,
1000
0010
0100
0001
,
0010
0100
1000
0100
,
1000
0010
0100
0010
,
1000
0001
0100
0010
,
1000
0001
1000
0000
,
0001
1000
0100
1000
,
0010
0100
0001
0100
,
0001
0010
0100
0010
,
0001
0100
0010
1000
,
0100
0010
0001
0010
,
0001
0000
0000
0100
0000
0000
0010
0000
,
1000
0100
1000
0100
,
1000
0001
0000
0100
0010
0000
0100
0000
,
0002
0023
0230
0320
,
0031
0000
1000
0010
0000
0100
0001
0000
,
1000
0000
0010
0000
0010
0000
0100
0001
,
0100
0000
0001
0000
1000
0001
0000
0000
,
2000
3200
0320
0230
,
1300
0000
0001
0100
0000
0010
1000
0000
,
0001
0000
0100
0000
0100
0000
0010
1000
,
0010
0000
1000
0000
0001
1000
0000
0000
,
0200
0320
0032
0023
,
0130
0000
1000
0010
0000
0100
0001
0000
,
1000
0000
0100
0000
0100
0000
0010
0001
,
0010
0000
0001
0000
1000
0010
0000
0000
,
0200
0320
2030
3020
,
0130
0000
0001
0010
0000
0100
1000
0000
,
0001
0000
0010
0000
0010
0000
0100
1000
,
0100
0000
1000
0000
0001
0100
0001
0000
,
0020
0000
0000
0000
,
0000
0000
0000
0000
,
0000
0000
0000
0000
,
0000
0000
0000
0000
,
0031
0000
1000
0000
0100
1000
0000
0010
,
0000
0010
0100
0000
0001
0000
0100
0000
,
0001
0010
0100
1000
,
0010
0100
0010
0000
0100
0000
0001
0000
,
1001
0000
1000
0100
,
0000
0110
0000
0000
,
0000
0001
1000
0000
,
1100
0000
0000
1100
0000
0000
0000
0000
,
1001
0000
1000
0010
,
0000
0110
0000
0000
,
0000
1000
0100
0010
,
0001
0000
0000
1001
0000
0000
0000
0000
,
1000
0000
0010
0000
0100
0001
0000
0100
,
0001
0010
0100
1000
,
0010
0100
0001
1000
,
0010
0100
0001
1000
,
0001
0010
0100
1000
,
0001
0010
0100
1000
,
0010
0100
0010
1000
,
0001
0100
0001
0100
,
0010
0000
1000
0000
0001
0100
0001
0000
,
1000
0100
1000
0000
0001
0000
0010
0000
,
0100
0010
0001
1000
,
0100
0010
0001
1000
,
0010
0100
0001
1000
,
0010
0100
0001
1000
,
0100
0010
0100
1000
,
0001
0100
0010
0100
,
0001
0000
1000
0000
0010
0000
0000
1000
,
0010
0000
0000
0100
0001
0000
1000
0000
,
1001
0000
0000
1001
0000
0000
0000
0001
,
0000
0010
0000
0100
0000
0010
0001
0000
,
1000
0000
0010
0000
1000
0000
0000
0010
,
0000
0100
0000
0001
0000
1000
0001
0000
,
1001
0000
0000
1001
0000
0000
0000
1000
,
0000
0100
0000
0010
0000
0100
1000
0000
,
0001
0000
0100
0000
0001
0000
0000
0100
,
0000
0010
0000
1000
0000
0001
1000
0000
,
1010
0000
0000
1010
0000
0000
0000
0001
,
0000
0100
0000
0010
0000
1000
0100
0000
,
0110
0000
0000
0110
0000
0000
0000
1000
,
0000
0010
0000
0100
0000
0001
0010
0000
,
0110
0000
0000
1001
0000
0000
0000
1000
,
0000
0100
0000
0010
0000
0001
1000
0000
,
1010
0000
0000
0101
0000
0000
0000
0000
,
0000
0000
0000
0000
,
0000
0000
0000
1000
,
0000
0100
0000
0010
,
0000
0100
0000
1000
,
0000
0001
0010
0100
,
0000
0000
0000
0000
;
#NOTES:
     dance-single:
     :
     Hard:
     15:
     :
0000
0000
0000
0000
,
0000
0000
0000
0000
,
0000
0000
0000
0000
,
0000
0000
0000
0000
,
0000
0000
0000
1001
,
0000
0000
0000
0000
,
0001
0100
0000
0100
0000
0000
0010
0000
,
1010
0000
1000
0001
1000
0001
0010
0000
,
0100
0010
0000
0010
0000
0000
0100
0000
,
1100
0000
0001
0100
0001
0100
0010
0000
,
1000
0001
0000
0001
0000
0000
0100
0000
,
0110
0000
1000
0001
0010
0001
1000
0000
,
0100
0010
0000
0010
0000
0000
0001
0000
,
0011
0000
1000
0100
0010
0100
1000
0000
,
0001
0100
0000
0100
0000
0000
0010
0000
,
1010
0000
1000
0100
1000
0100
0010
0000
,
0100
1000
0000
1000
0000
0000
0001
0000
,
0101
0000
0100
0010
0100
0010
1000
0000
,
0100
0010
0000
0010
0000
0000
0001
0000
,
1001
0000
1000
0100
0010
0001
1000
0000
,
0001
0010
0001
0010
0100
1000
0100
0000
,
1000
0010
1000
0010
0100
0010
0100
0000
,
0002
0000
0000
0000
,
0000
0000
1003
0000
1000
0010
0100
0000
,
0010
0000
1000
0010
1000
0000
0001
0000
,
0010
0000
0100
0000
0010
0100
0010
0000
,
0001
0000
0100
0001
0100
0000
0001
0000
,
1000
0000
0010
0000
1000
0001
0010
0000
,
0100
0000
1000
0001
0100
0000
0010
0000
,
1000
0000
0100
0000
0010
0001
1000
0000
,
0010
0000
0100
0010
0100
0000
0010
1000
,
0010
0000
1000
0000
0001
1000
0001
0000
,
0010
0000
0100
0010
0100
0000
1000
0000
,
0001
0000
0100
0000
0010
0100
0010
0000
,
1000
0000
0001
1000
0001
0000
0010
0000
,
0001
0000
0100
0000
0010
1000
0001
0000
,
0010
0000
0100
1000
0001
0000
0100
0000
,
0010
0000
1000
0100
0010
0000
0100
0000
,
1000
0000
0001
0100
0001
0000
0100
0010
,
0100
0010
1000
0001
0010
0000
0100
0010
,
0002
0203
0320
0230
,
0301
0100
0001
0100
0000
0010
1000
0000
,
0001
0000
1000
0001
0010
0100
0010
0000
,
0001
1000
0001
1000
0000
0001
0010
0000
,
0200
2300
3020
2030
,
3001
0010
0001
0010
0000
0100
1000
0000
,
0010
0000
0100
0001
1000
0001
0010
0000
,
0100
1000
0100
1000
0000
0001
0100
0000
,
0020
0230
0302
0203
,
0310
1000
0010
1000
0000
0100
0010
0000
,
0100
0000
0010
0001
1000
0010
0100
0000
,
0010
0100
0010
0100
0000
0001
1000
0000
,
0200
0320
0032
0023
,
0130
1000
0100
1000
0000
0010
0100
0000
,
0001
0000
1000
0001
0010
0100
1000
0000
,
0010
0100
0001
1000
0100
0010
0001
0000
,
1000
0000
0000
0001
1000
0100
0010
0001
,
1000
0010
1000
0010
0100
0001
0010
0001
,
1000
0010
0100
0001
1000
0010
0100
0001
,
0010
0100
1000
0001
1000
0100
0010
0001
,
0100
0000
0010
0100
0010
0000
1000
0000
,
0001
0000
0100
0000
0010
1000
0010
0000
,
1000
0000
0100
0010
0100
0000
0010
0000
,
0001
0000
1000
0000
0010
0100
0001
0000
,
0010
0000
0100
1000
0001
0000
0100
0000
,
0001
0000
0010
0000
0100
1000
0010
0000
,
0100
0000
0001
0100
0001
0000
1000
0010
,
1000
0000
0001
0000
0010
0100
0010
0000
,
0001
0000
1000
0001
1000
0000
0100
0000
,
0010
0000
0001
0000
1000
0010
1000
0000
,
0001
0000
0010
0100
0010
0000
0001
0000
,
1000
0000
0010
0000
0100
0001
1000
0000
,
0100
0000
1000
0010
1000
0000
0001
0000
,
1000
0000
0100
0010
0001
0000
0100
0000
,
0010
0000
1000
0001
0010
0100
0010
0100
,
1000
0001
0100
0010
0100
0000
0010
0100
,
0002
0023
0230
0320
,
0031
1000
0010
1000
0000
0001
0100
0000
,
0010
1000
0001
0000
0010
0000
0100
0010
,
0001
1000
0001
0000
1000
0000
0010
0100
,
0020
2030
3002
0023
,
0130
1000
0001
1000
0000
0010
0100
0000
,
0001
0010
0100
0000
0010
0000
0001
1000
,
0010
0100
0010
0000
0100
0000
0010
1000
,
0200
0320
0032
0023
,
0130
1000
0001
0100
0000
0001
0010
0000
,
0100
1000
0001
0000
0100
0000
0010
1000
,
0001
0010
0100
0000
0010
0000
0100
1000
,
0020
0230
0302
0203
,
0310
1000
0001
0100
0000
0010
1000
0000
,
0001
1000
0010
0000
0100
0000
0001
0010
,
0100
1000
0001
0100
0010
0100
0010
0100
,
0002
0000
0000
0000
,
0000
0000
0000
0000
,
0000
0000
0000
0000
,
0000
0000
0000
0000
,
1003
0000
0001
0000
0100
0010
0100
0001
,
0000
0001
0100
0000
0010
1000
0010
0000
,
1000
0100
1000
0000
0001
0010
0001
0000
,
1000
0010
1000
0010
0100
0000
0001
0000
,
1001
0000
0000
0000
0001
0010
0100
1000
,
0000
1100
0000
0000
,
0000
0010
0100
0000
,
0101
0000
0000
0101
0000
0000
0000
0000
,
1001
0000
0000
0000
1000
0100
0010
0001
,
0000
0011
0000
0000
,
0000
1000
0010
0100
,
0101
0000
0000
0011
0000
0000
0000
0000
,
0001
1000
0100
1000
0100
0010
0001
0010
,
0001
1000
0010
0100
0001
0010
0100
1000
,
0002
0103
0020
1030
,
0200
0310
0002
0103
,
0020
1030
0200
0301
,
2000
3010
0002
0103
,
0010
1000
0001
1001
,
1000
1000
0010
0010
,
0100
0000
0010
0100
0001
1000
0001
0000
,
1000
0100
1000
0100
0010
0000
0001
0000
,
2000
3010
0200
0301
,
0020
0130
2000
3010
,
0200
0301
0020
1030
,
0002
0103
2000
3010
,
0100
0100
0001
0001
,
1000
1000
0010
0010
,
1000
0001
1000
0100
0010
0100
1000
0001
,
0100
0010
1000
0001
0010
0100
1000
0000
,
1001
0000
0000
1001
0000
0000
0000
0011
,
0000
0101
0000
1010
0000
0010
0100
0000
,
0001
0000
0100
0000
0010
0100
0000
0001
,
0000
1000
0100
1000
0001
1000
0100
0000
,
1001
0000
0000
1001
0000
0000
0000
1100
,
0000
1010
0000
0101
0000
0100
0010
0000
,
1000
0000
0010
0000
0100
0010
0000
1000
,
0000
0001
0010
0001
1000
0001
0010
0000
,
0011
0000
0000
0011
0000
0000
0000
1100
,
0000
1001
0000
0011
0000
0001
1000
0000
,
1010
0000
0010
0100
0001
1000
0000
0001
,
0010
0100
0010
0001
1000
0010
0100
0000
,
0110
0000
0010
1000
0001
0010
0000
0001
,
1000
0100
0010
0100
1000
0001
0010
0000
,
0110
0000
0000
0110
0000
0000
0000
0000
,
0000
0000
0000
0000
,
0000
0000
0000
1100
,
0000
1001
0000
0011
,
0000
1100
0000
0101
,
0000
1000
0010
0100
,
0000
0000
0000
0000
;
#NOTES:
     dance-double:
     :
     Easy:
     9:
     :
00000000
00000000
00000000
00000000
,
00000000
00000000
00000000
00000000
,
00000000
00000000
00000000
00000000
,
00000000
00000000
00000000
00000000
,
00000000
00000000
00000000
00011000
,
00000000
00000000
00000000
00000000
,
00010000
00000000
00000100
00000000
,
00001000
00000000
00000000
00000000
,
00000001
00000000
00001000
00000000
,
00000100
00000000
00000000
00000000
,
00010000
00000000
00001000
00000000
,
00100000
00000000
00000000
00000000
,
00010000
00000000
10000000
00000000
,
01000000
00000000
10000000
00000000
,
00010000
00000000
00100000
00000000
,
00001000
00000000
00000000
00000000
,
00010000
00000000
00000010
00000000
,
00001000
00000000
00000000
00000000
,
00000001
00000000
00000010
00000000
,
00001000
00000000
00010000
00000000
,
00022000
00000000
00000000
00000000
,
00000000
00000000
00000000
00000000
,
00000000
00000000
00000000
00000000
,
00000000
00033000
00000000
00000000
,
00001000
00000000
00100000
00000000
,
00010000
00000000
10000000
00000000
,
00100000
00000000
01000000
00000000
,
00100000
00000000
10000000
00000000
,
01000000
00000000
00010000
00000000
,
00001000
00000000
00000010
00000000
,
00000001
00000000
00000000
00000000
,
00000000
00000000
00000000
00000000
,
00000100
00000000
00000010
00000000
,
00001000
00000000
00000001
00000000
,
00000010
00000000
00001000
00000000
,
00010000
00000000
01000000
00000000
,
10000000
00000000
00000000
00000000
,
10010000
00000000
00000000
00000000
,
01100000
00000000
00000000
00000000
,
00000000
00000000
00000000
00000000
,
20000000
00000000
30020000
00000000
,
00230000
00000000
00000000
00000000
,
00301000
00000000
00010000
00000000
,
00000100
00001000
00000100
00000000
,
00000020
00000000
00000032
00000000
,
00002003
00000000
00000000
00000000
,
00003100
00000000
00010000
00000000
,
00001000
00010000
00001000
00000000
,
02000000
00000000
03020000
00000000
,
00230000
00000000
00000000
00000000
,
01300000
00000000
10000000
00000000
,
00010000
01000000
00010000
00000000
,
20000000
00000000
30200000
00000000
,
00320000
00000000
00000000
00000000
,
00031000
00000000
00000100
00000000
,
00000001
00001000
00000001
00000000
,
00001000
00000000
00000100
00000000
,
00010000
00001000
00010000
00000000
,
00001000
00100000
00010000
00000000
,
10000000
00100000
01000000
00000000
,
00010000
00000000
00100000
00000000
,
00001000
00000000
00010000
00000000
,
00000010
00000000
00001000
00000000
,
00000001
00000000
00000010
00000000
,
00000001
00000000
00000100
00000000
,
00001000
00000000
00010000
00000000
,
00100000
00000000
00000000
00000000
,
00000000
00000000
00000000
00000000
,
10000000
00000000
01000000
00000000
,
00100000
00000000
01000000
00000000
,
10000000
00000000
00010000
00000000
,
01000000
00000000
00001000
00000000
,
00010000
00000000
00000000
00000000
,
00001100
00000000
00000000
00000000
,
00001001
00000000
00000000
00000000
,
00000000
00000000
00000000
00000000
,
00000002
00000000
00002003
00000000
,
00003200
00000000
00000000
00000000
,
00010300
00000000
00001000
00000000
,
00100000
00010000
00100000
00000000
,
02000000
00000000
23000000
00000000
,
30020000
00000000
00000000
00000000
,
00130000
00000000
00001000
00000000
,
00010000
00001000
00010000
00000000
,
00000020
00000000
00002030
00000000
,
00003200
00000000
00000000
00000000
,
00000310
00000000
00000001
00000000
,
00001000
00000010
00001000
00000000
,
00000002
00000000
00000203
00000000
,
00002300
00000000
00000000
00000000
,
00013000
00000000
00100000
00000000
,
10000000
00010000
10000000
00000000
,
02000000
00000000
00000000
00000000
,
00000000
00000000
00000000
00000000
,
00000000
00000000
00000000
00000000
,
00000000
00000000
00000000
00000000
,
13000000
00010000
00100000
00000000
,
00001000
00000000
00010000
00000000
,
00001000
00000000
00000100
00000000
,
00000001
00001000
00000001
00000000
,
00001000
00000000
00000100
00000000
,
00010100
00000000
00000000
00000000
,
00010000
00000000
00001000
00000000
,
01001000
00000000
00000000
00000000
,
01000000
00000000
00010000
00000000
,
10010000
00000000
00000000
00000000
,
00010000
00000000
00100000
00000000
,
00101000
00000000
00000000
00000000
,
00001000
00010000
00000010
00000000
,
00001000
00000001
00000100
00000000
,
00000001
00000000
00000010
00000000
,
00000100
00000000
00001000
00000000
,
00000010
00000000
00010000
00000000
,
00001000
00000000
00100000
00000000
,
00010000
00000000
10000000
00000000
,
01000000
00100000
01000000
00000000
,
00100000
00010000
00100000
00000000
,
00001000
00010000
00001000
00000000
,
00010000
00000000
00000010
00000000
,
00001000
00000000
00000001
00000000
,
00000100
00000000
00000010
00000000
,
00001000
00000000
00000100
00000000
,
00010000
00000000
00001000
00000000
,
00100000
00010000
00100000
00000000
,
00001000
00010000
00001000
00000000
,
00010000
00000100
00001000
00000000
,
00001001
00000000
00000000
00001001
00000000
00000000
00000000
00000000
,
00001000
00000100
00010000
00000000
,
00001000
00100000
00010000
00000000
,
10000000
00010000
01000000
00000000
,
10010000
00000000
00000000
10010000
00000000
00000000
00000000
00000000
,
00010000
00100000
00001000
00000000
,
00010000
00000100
00001000
00000000
,
00000001
00001000
00000010
00000000
,
00000110
00000000
00000000
00000110
00000000
00000000
00000000
00000000
,
00001000
00000010
00010000
00000000
,
00011000
00000000
00000000
00011000
00000000
00000000
00000000
00000000
,
00001000
00100000
00010000
00000000
,
10010000
00000000
00000000
10010000
00000000
00000000
00000000
00000000
,
10000000
01000000
00010000
00000000
,
00011000
00000000
00000000
00011000
00000000
00000000
00000000
00000000
,
00000000
00000000
00000000
00000000
,
00000000
00000000
00000000
00001000
,
00000000
00100000
00000000
00010000
,
00000000
10000000
00000000
00100000
,
00000000
00010000
00001000
00000100
,
00000000
00000000
00000000
00000000
;
#NOTES:
     dance-double:
     :
     Medium:
     13:
     :
00000000
00000000
00000000
00000000
,
00000000
00000000
00000000
00000000
,
00000000
00000000
00000000
00000000
,
00000000
00000000
00000000
00000000
,
00000000
00000000
00000000
10010000
,
00000000
00000000
00000000
00000000
,
00010000
00000000
00000000
01000000
00000000
00000000
00001000
00000000
,
00010000
00000100
00001000
00000000
,
00000001
00000000
00000000
00000010
00000000
00000000
00000100
00000000
,
00001000
00000010
00010000
00000000
,
00001000
00000000
00000000
00100000
00000000
00000000
00010000
00000000
,
10000000
01000000
00100000
00000000
,
00010000
00000000
00000000
00100000
00000000
00000000
00001000
00000000
,
00010000
00000010
00001000
00000000
,
00000001
00000000
00000000
00000100
00000000
00000000
00001000
00000000
,
00010000
00001000
00010000
00000000
,
00001000
00000000
00000000
00010000
00000000
00000000
00100000
00000000
,
10000000
00010000
10000000
00000000
,
01000000
00000000
00000000
00010000
00000000
00000000
00001000
00000000
,
00000010
00000100
00000010
00000000
,
00000001
00000100
00000010
00001000
,
00000100
00010000
00001000
00100000
,
00020000
00000000
00000000
00000000
,
00000000
00000000
10030000
00000000
00010000
10000000
00010000
00000000
,
01000000
00001000
00010000
00001000
,
00010000
00000100
00001000
00000100
,
00000010
00000001
00001000
00000001
,
00001000
00000010
00010000
00001000
,
00100000
00010000
10000000
01000000
,
10000000
00100000
00010000
00001000
,
00010000
00000010
00001000
00000001
,
00000010
00000100
00001000
00000000
,
00000100
00010000
00001000
00010000
,
00001000
00100000
00010000
00100000
,
01000000
10000000
00010000
10000000
,
00010000
01000000
00001000
00010000
,
00000100
00001000
00000001
00000010
,
00000001
00000000
00000000
00001000
00000000
00000000
00000100
00000000
,
00010000
00001000
00100000
00010000
,
10000000
01000000
00000000
10000000
00010000
00000000
01000000
00000000
,
00020000
00230000
00302000
00023000
,
00030100
00000000
00001000
00000001
00000000
00001000
00000001
00000000
,
00000010
00000100
00000100
00001000
,
00000010
00000000
00000100
00000001
00000000
00001000
00000001
00000000
,
00002000
00003200
00020300
00032000
,
00103000
00000000
00010000
10000000
00000000
00010000
10000000
00000000
,
01000000
00100000
00100000
00010000
,
01000000
00000000
00100000
10000000
00000000
00010000
10000000
00000000
,
02000000
03020000
00032000
00003020
,
00000031
00000000
00001000
00000001
00000000
00001000
00000100
00000000
,
00010000
00001000
00001000
01000000
,
00010000
00000000
10000000
00100000
00000000
01000000
00100000
00000000
,
20000000
30200000
00320000
00032000
,
00003100
00000000
00000010
00000100
00000000
00000001
00000100
00000000
,
00000001
00000010
00000010
00000100
,
00001000
00000000
00000100
00010000
00000000
00001000
00010000
00000000
,
00011000
00000000
00001000
01000000
,
00010000
10000000
01000000
00100000
,
01000000
00100000
00010000
00001000
,
00000100
00000010
00000001
00000010
,
00000001
00001000
00000010
00001000
,
00000100
00010000
00001000
00010000
,
00001000
00100000
00010000
01000000
,
00010000
10000000
01000000
10000000
,
00010000
01000000
00001000
00010000
,
00000100
00001000
00000001
00001000
,
00000010
00000100
00001000
00010000
,
00100000
01000000
00100000
00000000
,
10000000
00010000
00100000
00010000
,
01000000
00001000
00010000
00001000
,
00010000
00000010
00001000
00000100
,
00001000
00000001
00000100
00000001
,
00001000
00000100
00000010
00000001
,
00000100
00000000
00000000
00001000
00000000
00000000
00010000
00000000
,
00100000
10000000
00100000
01000000
,
00010000
01000000
00000000
00001000
00010000
00000000
00001000
00000000
,
00020000
00230000
02300000
03200000
,
00310000
00000000
00001000
00010000
00000000
00000100
00001000
00000000
,
00000001
00000000
00001000
00000000
00001000
00000000
00000100
00000010
,
00000100
00000000
00001000
00000000
00000100
00010000
00000000
00000000
,
00002000
00003200
00000320
00000230
,
00001300
00000000
00010000
00001000
00000000
00100000
00010000
00000000
,
10000000
00000000
00010000
00000000
00010000
00000000
00100000
01000000
,
00100000
00000000
00010000
00000000
00100000
00001000
00000000
00000000
,
00020000
02030000
03200000
02300000
,
03010000
00000000
00001000
00010000
00000000
00000010
00001000
00000000
,
00000001
00000000
00001000
00000000
00001000
00000000
00000010
00000100
,
00000010
00000000
00001000
00000000
00000010
00010000
00000000
00000000
,
00002000
00003020
00000230
00000320
,
00001030
00000000
00010000
00001000
00000000
01000000
00010000
00000000
,
10000000
00000000
00010000
00000000
00010000
00000000
01000000
00100000
,
01000000
00000000
00010000
00000000
01000000
00001000
00010000
00000000
,
00002000
00000000
00000000
00000000
,
00000000
00000000
00000000
00000000
,
00000000
00000000
00000000
00000000
,
00000000
00000000
00000000
00000000
,
00013000
00000000
00000010
00000000
00001000
00000100
00000000
00000010
,
00000000
00000010
00000001
00000000
00001000
00000000
00000001
00000000
,
00000100
00000010
00001000
00010000
,
01000000
00100000
01000000
00000000
00100000
00000000
10000000
00000000
,
10010000
00000000
00010000
00100000
,
00000000
00101000
00000000
00000000
,
00000000
00001000
00010000
00000000
,
00010100
00000000
00000000
00001100
00000000
00000000
00000000
00000000
,
00001001
00000000
00001000
00000010
,
00000000
00010010
00000000
00000000
,
00000000
00010000
00001000
00000100
,
00000001
00000000
00000000
00001001
00000000
00000000
00000000
00000000
,
00001000
00000000
00000100
00000000
00010000
00001000
00000000
00010000
,
00001000
00010000
00100000
10000000
,
01000000
00100000
00010000
01000000
,
00001000
00010000
00000100
00001000
,
00000001
00000010
00000100
00001000
,
00000010
00010000
00001000
00100000
,
00010000
01000000
00100000
01000000
,
00010000
10000000
01000000
00100000
,
00010000
10000000
01000000
00010000
,
00001000
00000010
00000001
00001000
,
00000010
00001000
00000100
00010000
,
00001000
00100000
00010000
10000000
,
01000000
00100000
00010000
01000000
,
00001000
00010000
00000100
00001000
,
00000010
00000100
00000010
00001000
,
00000001
00000010
00000100
00001000
,
00000010
00000000
00010000
00000000
00001000
00000000
00000000
01000000
,
00010000
00000000
00000000
01000000
00100000
00000000
10000000
00000000
,
10010000
00000000
00000000
01010000
00000000
00000000
00000000
00010000
,
00000000
00100000
00000000
00001000
00000000
00010000
00001000
00000000
,
00010000
00000000
00000100
00000000
00001000
00000000
00000000
00000001
,
00000000
00000010
00000000
00000100
00000000
00001000
00000001
00000000
,
00001001
00000000
00000000
00001010
00000000
00000000
00000000
00001000
,
00000000
00000100
00000000
00010000
00000000
00001000
00010000
00000000
,
00001000
00000000
00100000
00000000
00010000
00000000
00000000
10000000
,
00000000
01000000
00000000
00100000
00000000
00010000
10000000
00000000
,
11000000
00000000
00000000
01100000
00000000
00000000
00000000
00100000
,
00000000
00010000
00000000
01000000
00000000
00001000
00010000
00000000
,
00011000
00000000
00000000
00010100
00000000
00000000
00000000
00000100
,
00000000
00001000
00000000
00000010
00000000
00000100
00000001
00000000
,
00000101
00000000
00000000
00001100
00000000
00000000
00000000
00000001
,
00000000
00000100
00000000
00001000
00000000
00010000
00001000
00000000
,
00011000
00000000
00000000
01100000
00000000
00000000
00000000
00000000
,
00000000
00000000
00000000
00000000
,
00000000
00000000
00000000
10000000
,
00000000
01000000
00000000
00100000
,
00000000
00010000
00000000
00001000
,
00000000
00000100
00000010
00000001
,
00000000
00000000
00000000
00000000
;
#NOTES:
     dance-double:
     :
     Hard:
     15:
     :
00000000
00000000
00000000
00000000
,
00000000
00000000
00000000
00000000
,
00000000
00000000
00000000
00000000
,
00000000
00000000
00000000
00000000
,
00000000
00000000
00000000
00001001
,
00000000
00000000
00000000
00000000
,
00001000
00000100
00000000
00000100
00000000
00000000
00010000
00000000
,
00001000
00000000
01000000
00010000
01000000
00010000
10000000
00000000
,
00010000
00100000
00000000
00100000
00000000
00000000
00001000
00000000
,
00010000
00000000
00000010
00001000
00000010
00001000
00000001
00000000
,
00000010
00000100
00000000
00000100
00000000
00000000
00001000
00000000
,
00000001
00000000
00000100
00001000
00010000
00001000
00010000
00000000
,
00001000
00100000
00000000
00100000
00000000
00000000
00010000
00000000
,
10000000
00000000
01000000
00100000
00010000
00100000
01000000
00000000
,
10000000
00100000
00000000
00100000
00000000
00000000
01000000
00000000
,
00001000
00000000
00010000
00000100
00010000
00000100
00001000
00000000
,
00000001
00000100
00000000
00000100
00000000
00000000
00000010
00000000
,
00010000
00000000
00001000
00100000
00001000
00100000
00010000
00000000
,
10000000
01000000
00000000
01000000
00000000
00000000
00010000
00000000
,
00001000
00000000
00010000
00001000
00000100
00000010
00000100
00000000
,
00000001
00000010
00000100
00001000
00000100
00010000
00001000
00000000
,
00100000
00010000
10000000
01000000
00100000
00010000
00100000
00000000
,
00002000
00000000
00000000
00000000
,
00000000
00000000
00013000
00000000
00001000
00010000
00000100
00000000
,
00001000
00000000
00000001
00001000
00000001
00000000
00000100
00000000
,
00000010
00000000
00001000
00000000
00000100
00010000
00001000
00000000
,
00100000
00000000
00010000
00100000
00010000
00000000
10000000
00000000
,
00100000
00000000
00010000
00000000
00001000
00000100
00000010
00000000
,
00001000
00000000
00000100
00000010
00000001
00000000
00001000
00000000
,
00000001
00000000
00000100
00000000
00001000
00010000
00001000
00000000
,
01000000
00000000
00010000
10000000
00010000
00000000
00100000
01000000
,
00100000
00000000
00010000
00000000
10000000
00100000
01000000
00000000
,
00010000
00000000
10000000
00010000
10000000
00000000
00100000
00000000
,
01000000
00000000
00010000
00000000
00100000
00001000
00010000
00000000
,
00000100
00000000
00001000
00000100
00001000
00000000
00000001
00000000
,
00000100
00000000
00001000
00000000
00010000
00100000
01000000
00000000
,
00010000
00000000
00100000
01000000
10000000
00000000
00010000
00000000
,
10000000
00000000
01000000
00010000
00001000
00000000
00010000
00000000
,
00001000
00000000
00000100
00000010
00000100
00000000
00000001
00001000
,
00000100
00010000
00001000
00100000
00010000
00000000
10000000
01000000
,
20000000
30200000
00320000
00032000
,
00003100
00000010
00000100
00000010
00000000
00001000
00000001
00000000
,
00000010
00000000
00000100
00000010
00000001
00001000
00000100
00000000
,
00010000
00001000
00010000
00001000
00000000
00000100
00000001
00000000
,
00000020
00002030
00023000
02030000
,
13000000
00010000
10000000
00010000
00000000
00100000
00001000
00000000
,
00010000
00000000
00000010
00001000
00000001
00001000
00000100
00000000
,
00010000
00001000
00010000
00001000
00000000
00010000
01000000
00000000
,
20000000
32000000
03020000
00032000
,
00003010
00000100
00000010
00000100
00000000
00001000
00000001
00000000
,
00000100
00000000
00000010
00000100
00000001
00001000
00000010
00000000
,
00010000
00001000
00010000
00001000
00000000
00000010
00000001
00000000
,
00000200
00002300
00023000
00230000
,
10300000
00010000
10000000
00010000
00000000
01000000
00001000
00000000
,
00010000
00000000
00000100
00001000
00000001
00001000
00000010
00000000
,
00010000
00001000
00100000
00010000
10000000
01000000
00100000
00000000
,
01000000
00000000
00000000
10000000
00010000
00100000
01000000
10000000
,
00010000
00100000
00010000
00100000
00001000
00010000
00001000
00010000
,
00000100
00001000
00000100
00001000
00000001
00000010
00000001
00000010
,
00000100
00001000
00000001
00001000
00000010
00010000
00001000
00010000
,
00001000
00000000
01000000
00010000
01000000
00000000
00100000
00000000
,
10000000
00000000
00010000
00000000
00100000
01000000
00100000
00000000
,
00010000
00000000
01000000
00001000
01000000
00000000
00001000
00000000
,
00010000
00000000
00000100
00000000
00001000
00000001
00000010
00000000
,
00000100
00000000
00010000
00001000
01000000
00000000
00010000
00000000
,
10000000
00000000
00100000
00000000
01000000
00001000
00010000
00000000
,
00000100
00000000
00001000
00000001
00000100
00000000
00000010
00010000
,
00001000
00000000
00010000
00000000
00001000
00010000
00001000
00000000
,
00010000
00000000
00000010
00001000
00000010
00000000
00000100
00000000
,
00000001
00000000
00001000
00000000
00000100
00000010
00000100
00000000
,
00001000
00000000
00000010
00010000
00000010
00000000
00010000
00000000
,
00001000
00000000
00100000
00000000
00010000
10000000
01000000
00000000
,
00100000
00000000
00001000
00010000
00000010
00000000
00001000
00000000
,
00000001
00000000
00000010
00001000
00010000
00000000
00001000
00000000
,
00100000
00000000
00010000
01000000
00100000
10000000
01000000
00100000
,
00010000
01000000
00001000
00010000
00001000
00000000
00010000
00001000
,
00000200
00000302
00000023
00002030
,
00013000
00001000
00010000
00001000
00000000
00010000
01000000
00000000
,
10000000
00100000
10000000
00000000
00010000
00000000
01000000
00001000
,
00010000
00001000
00010000
00000000
00001000
00000000
00010000
00000000
,
00200000
20300000
32000000
03020000
,
00031000
00010000
00001000
00010000
00000000
00001000
00000010
00000000
,
00000001
00000100
00000001
00000000
00001000
00000000
00000010
00010000
,
00001000
00010000
00001000
00000000
00010000
00000000
00001000
00000000
,
00000020
00000032
00000203
00002300
,
00013000
00001000
00010000
00001000
00000000
00010000
00100000
00000000
,
10000000
01000000
10000000
00000000
00010000
00000000
00100000
00001000
,
00010000
00001000
00010000
00000000
00001000
00000000
00010000
00000000
,
02000000
23000000
30200000
00320000
,
00031000
00010000
00001000
00010000
00000000
00001000
00000100
00000000
,
00000001
00000010
00000001
00000000
00001000
00000000
00000100
00010000
,
00001000
01000000
00010000
10000000
01000000
00100000
00010000
00000000
,
20000000
00000000
00000000
00000000
,
00000000
00000000
00000000
00000000
,
00000000
00000000
00000000
00000000
,
00000000
00000000
00000000
00000000
,
30010000
00000000
01000000
00000000
00001000
00010000
00001000
00100000
,
00000000
00100000
00010000
00000000
01000000
00001000
00010000
00000000
,
00000100
00001000
00000100
00000000
00001000
00000010
00001000
00000000
,
00000001
00000100
00000001
00001000
00000010
00000000
00010000
00000000
,
00011000
00000000
00000000
00000000
00001000
01000000
00010000
10000000
,
00000000
11000000
00000000
00000000
,
00000000
10000000
00010000
00000000
,
01000000
00000000
00000000
01001000
00000000
00000000
00000000
00000000
,
00011000
00000000
00000000
00000000
00010000
00000100
00001000
00000001
,
00000000
00000011
00000000
00000000
,
00000000
00000001
00000100
00001000
,
00010000
00000000
00000000
00011000
00000000
00000000
00000000
00000000
,
00001000
00000000
00100000
00000000
00100000
00010000
00000000
00010000
,
10000000
01000000
10000000
00000000
00100000
00000000
00100000
00010000
,
00002000
00013000
00000020
00001030
,
00000200
00000310
00000002
00001003
,
00000020
00000130
00002000
00013000
,
00200000
10300000
02000000
03100000
,
00010000
10000000
01000000
00010000
,
00001000
00000010
00000001
00000010
,
00000001
00000000
00001000
00000100
00010000
00001000
01000000
00000000
,
00001000
00010000
00001000
00010000
00001000
00000000
00011000
00000000
,
00020000
00031000
00200000
00310000
,
20000000
30010000
02000000
03100000
,
00020000
00031000
00000200
00000301
,
00000020
00001030
00020000
00031000
,
00010000
01000000
10000000
00010000
,
10000000
01000000
00010000
00001000
,
00011000
00000000
00001100
00000000
00000110
00000000
00000000
00000001
,
00000100
00000000
00000000
00000001
00000010
00000100
00001000
00000000
,
00001100
00000000
00000000
00010100
00000000
00000000
00000000
00011000
,
00000000
00110000
00000000
01100000
00000000
10000000
00010000
00000000
,
10000000
00000000
01000000
00000000
00010000
00001000
00000000
00010000
,
00000000
00001000
00010000
00100000
01000000
00100000
10000000
00000000
,
10100000
00000000
00000000
10010000
00000000
00000000
00000000
00110000
,
00000000
00011000
00000000
00001010
00000000
00000001
00001000
00000000
,
00000001
00000000
00000010
00000000
00001000
00010000
00000000
00001000
,
00000000
00010000
00001000
00000100
00000010
00000100
00000001
00000000
,
00000101
00000000
00000000
00001010
00000000
00000000
00000000
00010010
,
00000000
00011000
00000000
00101000
00000000
00100000
00010000
00000000
,
10010000
00000000
10000000
01000000
00100000
00010000
00000000
01000000
,
00001000
00010000
00000100
00001000
00000001
00000010
00000100
00000000
,
00001001
00000000
00000001
00000100
00000010
00001000
00000000
00000100
,
00010000
00001000
01000000
00010000
10000000
01000000
00100000
00000000
,
01100000
00000000
00000000
01100000
00000000
00000000
00000000
00000000
,
00000000
00000000
00000000
00000000
,
00000000
00000000
00000000
11000000
,
00000000
01010000
00000000
00011000
,
00000000
00001100
00000000
00000101
,
00000000
00000001
00001000
00000100
,
00000000
00000000
00000000
00000000
;
