
//----- song ID: decm -----//
#TITLE:まにぃまにあ××;
#ARTIST:月乃 & BEMANI Sound Team "劇団レコード";
#TITLETRANSLIT:Many mania--;
#ARTISTTRANSLIT:Tsukino & BEMANI Sound Team "Gekidan Records";
#BANNER:Many mania--.png;
#BACKGROUND:Many mania---bg.png;
#CDTITLE:./CDTitles/DDR WORLD.png;
#MUSIC:Many mania--.ogg;
#SAMPLESTART:37.5;
#SAMPLELENGTH:15;
#BPMS:0=160;
#NOTES:
     dance-single:
     :
     Beginner:
     3:
     :
0000
0000
0000
0000
,
0000
0000
0000
0000
,
0000
0000
0000
0000
,
0000
0000
0000
0000
,
0000
0000
0000
0000
,
0000
0000
0000
0000
,
0001
0000
0000
0000
,
0001
0000
0000
0000
,
1000
0000
0000
0000
,
1000
0000
0000
0000
,
0010
0000
0000
0000
,
0010
0000
0000
0000
,
1000
0000
0000
0000
,
0001
0000
0000
0000
,
0100
0000
0000
0000
,
0100
0000
0000
0000
,
0001
0000
0000
0000
,
1000
0000
0000
0000
,
1001
0000
0000
0000
,
0010
0000
0000
0000
,
1001
0000
0000
0000
,
0010
0000
0000
0000
,
0000
0000
0000
0000
,
0200
0000
0000
0000
,
0300
0000
0000
0000
,
1001
0000
0000
0000
,
1000
0000
0001
0000
,
0100
0000
0000
0000
,
0001
0000
1000
0000
,
0010
0000
0000
0000
,
1000
0000
0001
0000
,
0100
0000
0000
0000
,
0010
0010
0010
0000
,
0100
0000
0000
0000
,
0001
0000
1000
0000
,
0001
0000
0000
0000
,
0100
0000
0010
0000
,
0100
0000
0000
0000
,
0001
0000
1000
0000
,
0001
0000
0000
0000
,
1000
0000
0100
0000
,
0010
0000
0000
0000
,
0000
0000
0000
0000
,
0000
0000
0000
0000
,
0000
0000
0000
0000
,
0001
0000
0001
0000
,
0001
0000
0000
0000
,
1000
0000
1000
0000
,
1000
0000
0000
0000
,
0010
0000
0000
0000
,
0010
0000
0000
0000
,
0010
0000
0000
0000
,
0010
0000
0000
0000
,
0000
0000
0000
0000
,
0220
0000
0000
0000
,
0330
0000
0000
0000
,
1001
0000
0000
0000
,
0001
0000
0100
0000
,
0010
0000
0000
0000
,
1000
0000
0010
0000
,
0100
0000
0000
0000
,
0001
0000
1000
0000
,
0010
0000
0000
0000
,
1000
0000
0001
0000
,
1001
0000
0000
0000
,
0110
0000
0000
0000
,
1001
0000
0000
0000
,
0110
0000
0000
0000
,
0001
0000
0000
0000
,
1000
0000
1000
0000
,
1000
0000
0001
0000
,
0000
0000
2002
3003
,
0000
0000
0000
0000
;
#NOTES:
     dance-single:
     :
     Easy:
     7:
     :
0000
0000
0000
0000
,
0000
0000
0000
0000
,
0000
0000
0000
0000
,
0000
0000
0000
0000
,
0000
0000
0000
0000
,
0000
0000
0000
0000
,
0001
1000
0010
0100
,
0000
0100
0001
1000
,
0100
1000
0001
0100
,
0000
0100
0010
1000
,
0001
0000
1000
0000
,
0010
0100
0001
0000
,
1000
0000
0001
0000
,
2002
3003
0220
0330
,
1001
0000
0001
0000
,
1000
0010
0100
0000
,
0001
0000
1000
0000
,
2020
3030
0202
0303
,
1001
0000
0000
0010
0000
0000
0000
0000
,
0010
0000
0000
0000
0010
0010
0000
0000
,
1001
0000
0000
0100
0000
0000
0000
0000
,
0100
0000
0000
0000
0100
0100
0000
0000
,
0000
0000
0000
0000
,
2002
0000
0000
0000
0000
0000
0000
3003
0000
0000
0000
0000
0000
0000
0000
0000
,
0220
0000
0000
0000
0000
0000
0000
0330
0000
0000
0000
0000
0000
0000
0000
0000
,
1000
0000
0000
0001
0000
0000
1000
0000
,
0100
0010
0001
0000
,
0100
0000
0000
0001
0000
0000
1000
0000
,
0001
0010
0100
0000
,
1000
0000
0000
0001
0000
0000
0100
0000
,
0001
1000
0100
0000
,
1000
0000
0000
0001
0000
0000
0000
0100
,
0000
0010
0220
0330
,
0001
0000
0000
1000
0000
0000
0001
0000
,
0010
0001
0101
1010
,
1000
0000
0000
0001
0000
0000
1000
0000
,
0100
1000
1010
0000
,
0001
0000
0000
1000
0000
0000
0001
0000
,
0100
0001
0011
1100
,
1000
0000
0000
0001
0000
0000
0100
0100
,
0000
0010
2002
3003
,
0000
0000
0000
0000
,
0000
0000
0000
0000
,
0000
0000
0000
0000
,
0000
0000
0000
0000
,
0001
0100
0001
0100
,
0010
1000
0010
1000
,
0001
0010
0001
0010
,
0100
1000
0100
1000
,
0001
0001
0100
0000
,
0010
0000
0000
0000
0010
0010
0000
0000
,
1000
1000
0100
0000
,
0010
0000
0000
0000
0010
0010
0000
0000
,
0001
1000
1001
0000
,
0200
0000
0000
0000
,
0020
0000
0000
0000
0000
0000
0000
0330
0000
0000
0000
0000
0000
0000
0000
0000
,
1000
0000
0000
0001
0000
0000
1000
0000
,
0010
0100
0001
0001
,
1000
0000
0000
0010
0000
0000
1000
0000
,
0100
0010
0001
0001
,
0100
0000
0000
0110
0000
0000
0000
1001
,
0000
0001
0100
0001
,
0010
0000
0000
0001
0000
0000
0100
0100
,
0000
0010
0220
0330
,
0001
0100
0001
0010
,
0001
0100
1100
0101
,
0001
0010
0001
0100
,
0001
0010
0110
0000
,
1000
0001
1000
0100
,
1000
0010
0011
1010
,
1000
0000
0100
0000
1000
0000
0000
0010
,
0000
0100
0010
2002
,
0000
0000
0000
0000
,
0000
0000
0000
0000
,
3003
0000
0000
0000
,
0000
0000
0000
0000
;
#NOTES:
     dance-single:
     :
     Medium:
     10:
     :
0000
0000
0000
0000
,
0000
0000
0000
0000
,
0000
0000
0000
0000
,
0000
0000
0000
0000
,
0000
0000
0000
0000
,
0000
0000
0000
0000
,
0001
0000
1000
0000
0001
0100
0000
0010
,
0000
0000
1000
0000
0000
0000
0001
0000
0000
0000
0100
0000
0000
0010
0000
0000
,
1010
0000
1000
0000
0001
0010
0000
0100
,
0000
0010
0000
0001
0000
1000
0010
0100
,
0001
0000
0000
0000
1000
0000
0000
0100
0000
0000
1000
0000
0001
0000
0100
0000
,
0001
0000
0000
1000
0000
0000
0002
0000
0000
0000
0000
0000
0013
0000
0000
0000
,
0001
0000
1000
0000
0010
0000
0000
0100
0000
0000
0010
0000
1000
0000
0010
0000
,
1000
0000
0000
1100
0000
0000
0000
0000
0001
0000
0000
0011
0000
0000
0000
0000
,
1000
0000
0100
0000
1000
0000
0000
0010
0000
0000
1000
0000
0001
0000
0100
0000
,
0001
0010
0100
2000
0000
0000
3010
0000
,
1000
0000
0001
0000
1000
0000
0000
0100
0000
0000
1000
0000
0010
0000
0100
0000
,
0001
0000
0000
0001
0000
0000
0000
0000
1000
0000
0000
1000
0000
0000
0000
0000
,
0001
0000
0000
0100
0000
0010
0000
0100
,
0001
0000
1000
0000
0100
0100
0000
0000
,
1000
0000
0000
0010
0000
0100
0000
0010
,
1000
0000
0001
0000
0010
0010
0000
0000
,
0200
0000
0000
0300
,
1000
0000
0000
0001
0000
0001
0000
0001
0000
0000
0000
0000
0000
0000
0000
0000
,
0100
0000
0000
0010
0000
0010
0000
0010
0000
0000
0000
0000
0000
0000
0000
0000
,
1010
0000
0000
0102
0000
0013
0000
1100
,
0000
1000
0010
0100
0001
0010
0000
0000
,
0011
0000
0000
2100
0000
3010
0000
0101
,
0000
0001
0010
0100
1000
0100
0000
0000
,
1100
0000
0000
0012
0000
0103
0000
1010
,
0000
1000
0100
0010
0001
0100
0000
0000
,
0101
0000
0000
2010
0000
3100
0000
0110
,
0000
0010
0001
0010
0001
0000
0000
0000
,
1000
0010
0000
0100
0000
0001
0000
0010
,
0000
0100
0000
1000
0001
0100
0100
0000
,
0001
0010
0000
0001
0000
1000
0000
0010
,
0000
0010
0100
0001
0100
1000
0000
0000
,
0110
0000
0001
1000
0000
0001
0000
0100
,
0000
0010
0000
1000
0001
0010
0010
0000
,
0001
1000
0000
0010
0100
0001
0000
0011
,
0000
0001
0010
0100
1000
0000
0000
0000
,
0002
0000
0000
0003
,
2000
0000
0000
3000
,
0020
0000
0000
0030
,
0200
0000
0000
0300
,
0001
0000
1000
0010
0100
0000
0010
0000
,
1000
0000
0001
0010
0001
0000
1000
0000
,
0010
0000
0100
0001
0010
0000
0100
0000
,
1000
0000
0010
0100
0010
0000
1000
0000
,
0001
0000
0100
0000
0010
0010
0000
0000
,
0100
0100
0000
0000
0001
0001
0000
0000
,
1000
0000
0001
0000
0100
0100
0000
0000
,
0010
0010
0000
0000
1000
1000
0000
0000
,
0020
0100
2030
0001
,
3100
0000
0000
1000
0000
1000
0000
1000
0000
0000
0000
0000
0000
0000
0000
0000
,
0010
0000
0000
0100
0000
0100
0000
0100
0000
0000
0000
0000
0000
0000
0000
0000
,
0101
0000
0000
2010
0000
3100
0000
0012
,
0000
0103
0000
0001
0010
0100
0000
0000
,
1100
0000
0000
0012
0000
0103
0000
2010
,
0000
3100
0000
1000
0010
0100
0000
0000
,
1001
0000
0000
0110
0000
1001
0000
0110
,
0000
0001
0000
1000
0100
0001
0000
0000
,
0110
0000
0000
2100
0000
3010
0000
0101
,
0000
0001
0010
0001
0010
0000
0000
0000
,
0001
0100
0000
0010
0000
1000
0000
0100
,
0000
0010
0000
0001
1000
0010
0010
0000
,
1000
0100
0000
1000
0000
0001
0000
0100
,
0000
0100
0010
1000
0010
0001
0000
0000
,
0010
0100
0000
0001
0000
1000
0000
0010
,
0000
0100
0000
0001
1000
0100
0100
0000
,
1000
0000
0001
0000
0000
0000
0100
0000
0010
0000
0000
1000
0000
0000
1001
0000
,
0000
0001
0010
0100
1000
0000
2002
0000
,
0000
0000
0000
0000
,
0000
0000
0000
0000
,
3003
0000
0000
0000
,
0000
0000
0000
0000
;
#NOTES:
     dance-single:
     :
     Hard:
     14:
     :
0000
0000
0000
0000
,
0000
0000
0000
0000
,
0000
0000
0000
0000
,
0000
0000
0000
0000
,
0000
0000
0000
0000
,
0000
0000
0000
0000
,
0001
0000
0000
0000
0101
0000
0000
0100
0010
0000
1000
0000
0100
0000
0010
0000
,
0000
0000
0010
0000
0100
0000
1000
0000
0001
0000
0010
0000
0001
0100
0000
0000
,
0110
0000
0000
0000
1010
0000
0000
1000
0100
0000
0010
0001
0010
0000
0100
0000
,
0000
0000
1000
0000
0100
0000
1000
0000
0010
0000
0100
0001
0100
0000
0010
0000
,
1000
0000
0100
0000
1000
0000
0010
0100
0000
0000
0001
0000
1000
0000
0100
0000
,
1000
0000
0000
0010
0000
0000
0200
0000
0000
0000
0000
0000
0301
0000
0010
0000
,
0100
0000
1000
0000
0001
0000
0100
0010
0000
0000
0100
0000
0001
0000
0010
0000
,
0011
0000
0000
1100
0000
0000
1000
0000
1010
0000
0000
0101
0000
0000
0001
0000
,
0010
0000
0100
0000
1000
0000
0001
0100
0000
0000
0001
0000
0010
0000
0100
0000
,
1000
0100
0010
0002
0000
0000
1003
0010
,
0100
0000
0001
0000
1000
0000
0100
1000
0000
0000
0010
0000
0100
0000
0001
0000
,
0011
0000
0000
0011
0000
0000
0100
0000
1100
0000
0000
1100
0000
0000
0001
0000
,
1001
1000
0100
0110
0000
0110
0010
1000
,
0010
0001
0100
0010
1000
1100
0000
0000
,
1001
0001
0010
0110
0000
0110
0100
0001
,
0100
1000
0010
0100
0001
0011
0000
0000
,
0020
0000
0000
0030
,
0001
1000
0000
0010
0000
0100
0000
0001
0000
0000
0000
0000
0000
0000
0010
0000
,
0001
0100
0000
0010
0000
1000
0000
0100
0000
0000
0000
0000
0000
0000
0000
0000
,
1000
0100
0010
0011
0000
0001
0100
1100
,
0000
0000
1000
0000
0100
0000
0010
1000
0001
0000
0010
0100
1000
0000
0001
0000
,
1000
0010
0100
0101
0000
0001
0010
1010
,
0000
0000
1000
0000
0010
0000
0100
1000
0001
0000
0100
0000
0010
0000
1000
0001
,
0010
0100
1000
1010
0000
0010
0100
0101
,
0000
0001
0010
0100
2100
0000
3010
0000
,
0010
0100
0001
0011
0000
1100
0000
0110
,
0000
0100
1000
0020
0001
0000
1030
0000
,
1001
0000
0001
0000
0010
0000
0100
0000
1000
0010
0000
0010
0100
0000
0001
0000
,
1000
0100
1000
0000
0101
0110
1010
0000
,
1000
0000
0100
0000
0010
0000
0001
0000
0100
0001
0000
0001
0010
0000
0001
0000
,
1000
0000
0010
0000
0100
0000
0000
0000
1010
0000
0101
0000
0000
0000
0001
0100
,
0010
0000
1000
0000
0100
0000
0010
0000
0001
0100
0000
0100
0010
0000
1000
0000
,
0001
0010
0100
0000
1100
0110
0011
0000
,
0001
0000
1000
0000
0100
0000
1000
0000
0010
0100
0000
0001
0010
0000
0200
0000
,
0000
0301
0100
1000
0010
0000
0000
0000
,
0110
0000
0001
0000
0100
0010
0000
1000
,
0000
0000
0010
0000
0000
0000
0100
0000
0000
0000
0001
0000
0000
0010
0000
0000
,
0100
0000
1000
0000
0001
0100
0000
0010
,
0000
0000
0100
0000
0000
0000
0001
0000
1000
0000
0000
0000
0001
1000
0001
1000
,
0001
0010
0001
0100
0010
0100
0001
0010
,
0100
1000
0010
1000
0100
1000
0010
0100
,
0001
0000
1000
0100
1000
0000
0010
0000
0100
0000
0001
0000
0010
0000
0001
0000
,
0100
0000
0010
0000
1000
0000
0100
0000
1000
0000
0001
0000
0100
0010
0100
0010
,
0100
0001
1000
0100
0010
0020
0000
1030
,
0010
0000
0001
0000
0000
0000
1000
0001
0100
0000
0110
0000
0000
0000
0000
0000
,
0010
1000
0001
0010
0100
0200
0000
0301
,
0100
0000
1000
0000
0000
0000
0001
1000
0010
0000
0110
0000
0000
0000
0000
0000
,
0100
0000
0001
1000
0001
0000
0000
0000
0010
0000
0100
0000
0000
0000
1000
0100
,
1000
0100
0000
1000
0000
0001
0000
0100
0010
0100
0000
0001
0000
0010
0000
0001
,
1000
0000
1000
0010
0000
0100
0000
0001
0000
1000
0100
1000
0000
0001
0100
0000
,
0010
0000
0100
0001
1000
0000
1010
0000
0000
0000
0101
0000
0000
0000
1000
0000
,
0001
0010
0100
0000
1000
0000
0001
0000
0100
0001
0100
0000
0010
1000
0010
0000
,
0100
0001
0010
0011
0000
1100
0000
0001
,
1000
0010
0100
0000
0001
0000
1000
0000
0100
0000
1000
0000
0001
0100
0001
0100
,
0010
0000
0000
1010
0000
0101
0000
0001
,
0010
0100
1000
0000
0001
0000
1000
0000
1020
0000
0000
0000
0031
0000
0000
0000
,
0010
0100
0001
0011
0000
1100
0000
1001
,
0000
0001
0100
1000
0001
0000
0110
0000
,
0001
0000
1000
0000
0010
0000
0100
0000
0001
0010
0000
0010
0100
0000
1000
0000
,
0001
0100
0010
0000
1010
1001
0011
0000
,
0010
0000
0100
0000
1000
0000
0001
0000
0100
0010
0000
0010
1000
0000
0001
0000
,
1000
0000
0100
0000
0010
0000
0000
0000
1100
0000
0011
0000
0000
0000
0001
0010
,
0100
0000
1000
0000
0001
0000
0100
0000
0010
1000
0000
1000
0100
0000
0010
0000
,
1000
0010
0001
0000
1100
1001
0101
0000
,
0100
0000
0010
0000
0100
0000
0001
0000
0010
0100
0000
1000
0010
0000
0200
0000
,
0000
1300
0100
0001
0010
0000
2002
0000
,
0000
0000
0000
0000
,
0000
0000
0000
0000
,
3003
0000
0000
0000
,
0000
0000
0000
0000
;
#NOTES:
     dance-double:
     :
     Easy:
     6:
     :
00000000
00000000
00000000
00000000
,
00000000
00000000
00000000
00000000
,
00000000
00000000
00000000
00000000
,
00000000
00000000
00000000
00000000
,
00000000
00000000
00000000
00000000
,
00000000
00000000
00000000
00000000
,
00001000
00010000
00000100
00000010
,
00000000
00000010
00000100
00001000
,
00000001
00000100
00000010
00001000
,
00000000
00001000
00000100
00010000
,
00011000
00001000
00000000
01000000
,
00000000
00010000
00000000
00100000
,
01000000
10000000
00000000
00010000
,
20020000
30030000
02200000
03300000
,
10000000
10000000
00000000
01000000
,
00000000
00100000
00000000
00001000
,
00010000
00001000
00000000
00010000
,
00202000
00303000
00020200
00030300
,
00011000
00000000
00000000
00010000
00000000
00000000
00000000
00000000
,
00000100
00001000
00000010
00000000
,
00001000
00000000
00000000
00001000
00000000
00000000
00000000
00000000
,
00000001
00000010
00000100
00000000
,
00000000
00000000
00000000
00000000
,
00020000
00000000
00000000
00000000
00000000
00000000
00000000
00030000
00000000
00000000
00000000
00000000
00000000
00000000
00000000
00000000
,
00002000
00000000
00000000
00000000
00000000
00000000
00000000
00003000
00000000
00000000
00000000
00000000
00000000
00000000
00000000
00000000
,
00010000
00001000
00001000
00100000
,
00010000
01000000
00100000
00000000
,
10000000
00010000
00010000
01000000
,
00001000
00010000
00001000
00000000
,
00010000
00000100
00000100
00001000
,
00000010
00000100
00000001
00000000
,
00001000
00000010
00000010
00000100
,
00000001
00000010
00000220
00000330
,
00010000
00000000
00000000
00001000
00000000
00000000
00010000
00000000
,
00000100
00001000
00001010
00001010
,
00000010
00000000
00000000
00010000
00000000
00000000
00001000
00000000
,
01000000
00010000
00100000
00000000
,
00001000
00000000
00000000
00010000
00000000
00000000
00001000
00000000
,
00100000
00010000
00110000
00110000
,
00100000
00000000
00000000
00001000
00000000
00000000
00010000
00010000
,
00000000
00001000
00022000
00033000
,
00000000
00000000
00000000
00000000
,
00000000
00000000
00000000
00000000
,
00000000
00000000
00000000
00000000
,
00000000
00000000
00000000
00000000
,
00001000
00010000
00001000
00010000
,
00100000
10000000
00100000
10000000
,
01000000
00010000
01000000
00010000
,
00001000
00000010
00001000
00000010
,
00000001
00000100
00000010
00000000
,
00010000
00001000
00011000
00000000
,
00001000
01000000
00100000
00000000
,
00100000
10000000
10010000
00000000
,
00100000
01000000
01100000
00000000
,
00002000
00000000
00000000
00000000
,
00020000
00000000
00000000
00000000
00000000
00000000
00000000
00033000
00000000
00000000
00000000
00000000
00000000
00000000
00000000
00000000
,
00001000
00000000
00000000
00010000
00000000
00000000
00001000
00000000
,
00010000
00100000
10000000
01000000
,
00010000
00000000
00000000
00001000
00000000
00000000
00010000
00000000
,
00001000
00000010
00000001
00000100
,
00001000
00000000
00000000
00011000
00000000
00000000
00000000
00011000
,
00000000
00001000
01000000
00010000
,
00100000
00000000
01000000
00000000
10000000
00000000
00000000
00100000
,
00000000
10000000
20020000
30030000
,
10000000
01000000
00100000
00001000
,
00010000
00001000
00011000
00011000
,
00010000
00000010
00001000
00000001
,
00000100
00000001
00000011
00000000
,
00000010
00000100
00001000
00000010
,
00010000
00001000
00011000
00011000
,
00010000
00000000
00001000
00000000
00100000
00000000
00000000
00010000
,
00000000
01000000
00100000
20020000
,
00000000
00000000
00000000
00000000
,
00000000
00000000
00000000
00000000
,
30030000
00000000
00000000
00000000
,
00000000
00000000
00000000
00000000
;
#NOTES:
     dance-double:
     :
     Medium:
     10:
     :
00000000
00000000
00000000
00000000
,
00000000
00000000
00000000
00000000
,
00000000
00000000
00000000
00000000
,
00000000
00000000
00000000
00000000
,
00000000
00000000
00000000
00000000
,
00000000
00000000
00000000
00000000
,
00010000
00000000
00011000
00000000
00001000
01000000
00000000
00100000
,
00000000
00000000
10000000
00000000
01000000
00000000
10000000
00000000
00000000
00000000
01000000
00000000
00000000
00100000
00000000
00000000
,
00001000
00000000
00011000
00000000
00010000
00000100
00000000
00001000
,
00000000
00000010
00000100
00000000
00000001
00001000
00000100
00001000
,
00000100
00000000
00000000
00000000
00000010
00000000
00000000
00000100
00000000
00000000
00001000
00000000
00000010
00000000
00010000
00000000
,
00001000
00000000
00000000
00010000
00000000
00000000
00002000
00000000
00000000
00000000
00000000
00000000
00003000
00000000
00000000
00000000
,
01000000
00000000
00010000
00000000
00100000
00000000
00000000
01000000
00000000
00000000
10000000
00000000
00100000
00000000
00010000
00000000
,
00001000
00000000
00000000
00001000
00000000
00000000
00000000
00000000
00010000
00000000
00000000
00010000
00000000
00000000
00000000
00000000
,
00000010
00000000
00000000
00000000
00001000
00000000
00000000
00000001
00000000
00000000
00000010
00000000
00000001
00000000
00000000
00000000
,
00001000
00000010
00001000
00000020
00000000
00000000
00010030
00000000
,
00001000
00000000
00010000
00000000
00001000
00000000
00000000
00100000
00000000
00000000
00010000
00000000
00100000
00000000
01000000
00000000
,
10000000
00000000
00000000
10000000
00000000
00000000
00000000
00000000
00010000
00000000
00000000
00010000
00000000
00000000
00000000
00000000
,
10000000
00000000
00000000
00100000
00000000
01000000
00000000
00100000
,
10000000
00000000
00010000
00000000
01000000
01000000
00000000
00000000
,
00001000
00000000
00000000
00010000
00000000
00000010
00000000
00001000
,
00000100
00000000
00010000
00000000
00001000
00001000
00000000
00000000
,
00020000
00000000
00000000
00030000
,
00000010
00000000
00000000
00001000
00000000
00001000
00000000
00001000
00000000
00000000
00000000
00000000
00000000
00000000
00000000
00000000
,
00000001
00000000
00000000
00000100
00000000
00000100
00000000
00000100
00000000
00000000
00000000
00000000
00000000
00000000
00000000
00000000
,
00000011
00000000
00000000
00002100
00000000
00003010
00000000
00010010
,
00000000
00010000
00001000
00100000
01000000
10000000
00000000
00000000
,
10100000
00000000
00000000
01020000
00000000
00130000
00000000
00101000
,
00000000
00001000
00010000
00000100
00000010
00000001
00000000
00000000
,
00000101
00000000
00000000
00002010
00000000
00003100
00000000
00010100
,
00000000
00010000
00001000
01000000
00100000
10000000
00000000
00000000
,
11000000
00000000
00000000
00120000
00000000
01030000
00000000
01001000
,
00000000
00001000
00010000
00001000
00010000
00000000
00000000
00000000
,
00010000
00000100
00000000
00001000
00000000
00000001
00000000
00000100
,
00000000
00000010
00000000
00001000
00000001
00000100
00001000
00000000
,
00010000
00001000
00000000
00100000
00000000
00010000
00000000
01000000
,
00000000
00100000
00000000
10000000
01000000
01000000
00000000
00000000
,
10000000
00100000
00000000
01000000
00000000
00010000
00000000
00100000
,
00000000
00001000
00000000
00010000
00001000
00000010
00000001
00000000
,
00001000
00000001
00000000
00000100
00000000
00000010
00000000
00001000
,
00000000
00000001
00000100
00000010
00010000
00000000
00000000
00000000
,
00012000
00000000
00000000
00003000
,
00020000
00000000
00000000
00030000
,
02000000
00000000
00000000
03000000
,
20000000
00000000
00000000
30000000
,
00010000
00000000
10000000
01000000
00100000
00000000
00001000
00000000
,
00010000
00000000
00000100
00001000
00000001
00000000
00000100
00000000
,
00000010
00000000
00001000
00000001
00000100
00000000
00001000
00000000
,
00010000
00000000
01000000
00100000
00010000
00000000
10000000
00000000
,
00010000
00000000
10000000
00000000
10000000
01000000
00000000
00000000
,
00010000
00001000
00000000
00000000
00000010
00000001
00000000
00000000
,
00001000
00000000
00000001
00000000
00000001
00000100
00000000
00000000
,
00001000
00010000
00000000
00000000
00100000
10000000
00000000
00000000
,
12000000
03100000
00210000
00301000
,
00010000
00000000
00000000
00001000
00000000
00001000
00000000
00001000
00000000
00000000
00000000
00000000
00000000
00000000
00000000
00000000
,
00001000
00000000
00000000
00010000
00000000
00010000
00000000
00010000
00000000
00000000
00000000
00000000
00000000
00000000
00000000
00000000
,
00010100
00000000
00000000
00001200
00000000
00010300
00000000
00002010
,
00000000
00003001
00000000
00000001
00000100
00001000
00000000
00000000
,
01001000
00000000
00000000
02010000
00000000
03001000
00000000
00120000
,
00000000
10030000
00000000
10000000
01000000
00010000
00000000
00000000
,
01100000
00000000
00000000
10010000
00000000
00011000
00000000
00001001
,
00000000
00001000
00000000
00000001
00000100
00001000
00000000
00000000
,
00011000
00000000
00000000
02001000
00000000
03100000
00000000
01010000
,
00000000
00010000
00100000
00010000
00100000
00000000
00000000
00000000
,
00010000
10000000
00000000
00100000
00000000
10000000
00000000
00100000
,
00000000
01000000
00000000
00001000
00010000
00001000
00000010
00000000
,
00000001
00001000
00000000
00000010
00000000
00000100
00000000
00000001
,
00000000
00001000
00000000
00000010
00000100
00000100
00000000
00000000
,
00000100
00000010
00000000
00001000
00000000
00000001
00000000
00000010
,
00000000
00000100
00000000
00010000
00001000
00010000
00100000
00000000
,
10000000
00000000
00010000
00000000
00000000
00000000
01000000
00000000
00100000
00000000
00000000
10000000
00000000
00000000
10010000
00000000
,
00000000
10000000
01000000
00100000
00001000
00000000
00022000
00000000
,
00000000
00000000
00000000
00000000
,
00000000
00000000
00000000
00000000
,
00033000
00000000
00000000
00000000
,
00000000
00000000
00000000
00000000
;
#NOTES:
     dance-double:
     :
     Hard:
     14:
     :
00000000
00000000
00000000
00000000
,
00000000
00000000
00000000
00000000
,
00000000
00000000
00000000
00000000
,
00000000
00000000
00000000
00000000
,
00000000
00000000
00000000
00000000
,
00000000
00000000
00000000
00000000
,
00021000
00000000
00000000
00000000
00030100
00000000
00000000
00000010
00000001
00000000
00000100
00000000
00001000
00000000
00010000
00000000
,
00000000
00000000
00100000
00000000
00010000
00000000
00001000
00000000
00100000
00000000
00010000
00000000
00100000
00001000
00000000
00000000
,
00012000
00000000
00000000
00000000
01003000
00000000
00000000
00100000
10000000
00000000
01000000
00000000
00010000
00000000
00001000
00000000
,
00000000
00000000
00000010
00000000
00001000
00000000
00010000
00000000
00000010
00000000
00001000
00000001
00001000
00000000
00000100
00000000
,
00000010
00000000
00001000
00000000
00010000
00000000
00001000
01000000
00000000
00000000
00100000
00000000
00010000
00000000
00001000
00000000
,
00000100
00000000
00000000
00000001
00000000
00000000
00000020
00000000
00000000
00000000
00000000
00000000
00000030
00000000
00000000
00000000
,
00000001
00000000
00000100
00000000
00001000
00000000
00010000
00100000
00000000
00000000
01000000
00000000
00001000
00000000
00010000
00000000
,
00001000
00000000
00000000
00001010
00000000
00000000
00001000
00000000
00010000
00000000
00000000
00110000
00000000
00000000
00010000
00000000
,
00001000
00000000
00010000
00000000
00000100
00000000
00000010
00000001
00000000
00000000
00000100
00000000
00000010
00000000
00010000
00000000
,
00001000
01000000
00010000
00200000
00000000
00000000
00300000
00000000
,
01000000
00000000
00100000
00000000
00010000
00000000
01000000
00100000
00000000
00000000
00100000
00000000
00010000
00000000
00001000
00000000
,
02001000
00000000
00000000
00010000
00000000
00000000
03001000
00000000
00010200
00000000
00000000
00001000
00000000
00000000
00010300
00000000
,
00001000
00000100
00000010
00000020
00000000
00000031
00000010
00001000
,
00000100
00000001
00000100
00001000
00000100
00010100
00000000
00000100
,
00010000
00100000
01000000
02000000
00000000
13000000
01000000
00010000
,
00100000
10000000
00100000
00010000
00100000
00101000
00000000
00000000
,
00002000
00000000
00000000
00003000
,
00010000
00001000
00000000
00000010
00000000
00000100
00000000
00010000
00000000
00000000
00000000
00000000
00000000
00000000
00000000
00000000
,
00001000
00010000
00000000
00100000
00000000
01000000
00000000
00001000
00000000
00000000
00000000
00000000
00000000
00000000
00000000
00000000
,
00010000
00001000
00010000
00000100
00000000
00000011
00000000
00001100
,
00000000
00010000
00001000
00000100
00000001
00000010
00000001
00000010
,
00001000
00010000
00001000
01000000
00000000
10100000
00000000
01010000
,
00000000
00000000
00001000
00000000
00010000
00000000
01000000
00000000
10000000
00000000
00100000
00000000
00010000
00000000
00001000
00010000
,
00001000
00010000
01000000
00100000
00000000
00102000
00000000
00003010
,
00000000
00000000
00001000
00000000
00010000
00000000
00001000
00000000
00000100
00000000
00000010
00000000
00001000
00000000
00000100
00000010
,
00000001
00000010
00000100
00001000
00000000
00020100
00000000
01030000
,
00000000
00010000
00001000
00000010
00000200
00000000
00000300
00000000
,
00010000
00000000
00001000
00000000
00100000
00000000
01000000
00000000
00010000
00000000
00000000
01000000
00000000
00000000
10000000
00000000
,
00000000
00100000
01000000
00001000
00010000
00000100
00000001
00000000
,
00000100
00000000
00001000
00000000
00000010
00000000
00010000
00000000
00001000
01000000
00000000
01000000
00100000
00000000
00010000
00000000
,
00000000
00000000
00001000
00000000
00010000
00000000
01000000
00000000
01100000
00000000
00110000
00000000
00000000
00000000
00010000
00100000
,
00001000
00000000
00010000
00000000
00000100
00000000
00000010
00000000
00001000
00000000
00000000
00000010
00000000
00000000
00000001
00000000
,
00000000
00000100
00000010
00010000
00001000
00100000
10000000
00000000
,
00100000
00000000
00010000
00000000
01000000
00000000
00100000
00000000
00010000
00000000
00000000
00001000
00000000
00000000
00012000
00000000
,
00000000
00003010
00001000
00010000
01000000
00000000
00000000
00000000
,
11000000
00000000
01000000
00000000
00100000
00001000
00000000
00010000
,
00000000
00000000
00000100
00000000
00000000
00000000
00000010
00000000
00000000
00000000
00000100
00000000
00000000
00001000
00000000
00000000
,
00000010
00000000
00000010
00000000
00000100
00000010
00000000
00010000
,
00000000
00000000
00001000
00000000
00000000
00000000
01000000
00000000
00010000
00000000
00000000
00000000
10000000
00010000
10000000
00010000
,
10000000
01000000
10000000
01000000
00010000
00001000
00010000
00001000
,
00000100
00000001
00000100
00000001
00000010
00001000
00000010
00001000
,
00010000
00100000
00010000
00100000
01000000
10000000
01000000
00010000
,
00100000
00000000
01000000
00000000
00010000
00000000
00001000
00000000
00000100
00000000
00000010
00000000
00001000
00000001
00001000
00000001
,
00001000
00000100
00000010
00000020
00000000
00001030
00000010
00000001
,
00000100
00000010
00000000
00010000
00001000
00011000
00000000
00010000
,
00001000
01000000
00100000
00200000
00000000
00310000
00100000
10000000
,
01000000
00100000
00000000
00001000
00010000
00011000
00000000
00000000
,
00010000
00000000
00000100
00000010
00000001
00000000
00000000
00000000
00000010
00000000
00000100
00000000
00000000
00000000
00000100
00000000
,
00001000
00000001
00000000
00000100
00000000
00000010
00000000
00001000
00000000
00000000
00000000
00000001
00000000
00000100
00000000
00001000
,
00010000
00000000
00100000
01000000
00000000
00010000
00000000
10000000
00100000
00000000
00000000
00000000
00000000
00000000
00000000
00000000
,
01000000
00000000
00010000
00100000
00010000
00000000
10000000
00000000
01000000
10000000
01000000
00000000
00010000
00000000
00001000
00000000
,
00000000
00000000
00000010
00000001
00000010
00000000
00000100
00000000
00001000
00000000
00000010
00000000
00010000
00000000
00001000
00010000
,
00001000
00000000
00100000
00010000
00100000
00000000
01000000
00000000
00000000
00000000
11000000
00000000
00000000
00000000
00101000
00000000
,
00000000
00000000
00001000
00000000
00010000
00000000
01000000
00000000
00010000
00000000
00001000
00000000
00010000
00001000
00010000
00001000
,
00010000
00000000
00000000
00011000
00000000
00020100
00000000
00130000
,
00000000
00010000
00001000
01000000
00100000
01000000
10000000
01000000
,
00010000
00100000
01000000
11000000
00000000
00102000
00000000
00003010
,
00000000
00000001
00000010
00000100
00010000
00000000
00000000
00000000
,
00001000
00000000
00010000
00000000
00000010
00000000
00000100
00000000
00001000
00000000
00000000
00000100
00000000
00000000
00000001
00000000
,
00000000
00000010
00000100
00010000
00001000
01000000
10000000
00000000
,
01000000
00000000
00010000
00000000
00100000
00000000
00001000
00000000
00010000
00000100
00000000
00000100
00000010
00000000
00001000
00000000
,
00000000
00000000
00010000
00000000
00001000
00000000
00000100
00000000
00000110
00000000
00001010
00000000
00000000
00000000
00001000
00000010
,
00010000
00000000
00001000
00000000
01000000
00000000
00100000
00000000
00010000
00000000
00000000
00100000
00000000
00000000
10000000
00000000
,
00000000
01000000
00100000
00001000
00010000
00000010
00000001
00000000
,
00000010
00000000
00001000
00000000
00000100
00000000
00000010
00000000
00001000
00000000
00000000
00010000
00000000
00000000
00021000
00000000
,
00000000
00130000
00010000
00001000
00000100
00000000
00000220
00000000
,
00000000
00000000
00000000
00000000
,
00000000
00000000
00000000
00000000
,
00000330
00000000
00000000
00000000
,
00000000
00000000
00000000
00000000
;
