
//----- song ID: myst -----//
#TITLE:MYSTIC CUBE;
#ARTIST:こふ;
#ARTISTTRANSLIT:Kofu;
#BANNER:MYSTIC CUBE.png;
#BACKGROUND:MYSTIC CUBE-bg.png;
#CDTITLE:./CDTitles/DDR WORLD.png;
#MUSIC:MYSTIC CUBE.ogg;
#SAMPLESTART:13.936;
#SAMPLELENGTH:15;
#BPMS:0=155;
#BGSTAGE:3;
#NOTES:
     dance-single:
     :
     Beginner:
     3:
     :
0000
0000
0000
0000
,
0000
0000
0000
0000
,
0000
0000
0000
0000
,
0000
0000
0000
0000
,
0000
0000
0000
0000
,
0001
0000
0000
0000
,
0000
0000
0000
0000
,
1000
0000
0000
0000
,
0020
0000
0030
0000
,
1000
0000
0001
0000
,
0001
0000
0000
0000
,
0001
0000
1000
0000
,
1000
0000
0000
0000
,
1000
0000
0010
0000
,
0010
0000
0000
0000
,
0010
0000
0100
0000
,
0000
0000
0000
0000
,
0002
0000
0003
0000
,
1000
0000
0010
0000
,
0010
0000
0000
0000
,
0100
0000
0001
0000
,
0001
0000
0000
0000
,
0010
0000
0001
0000
,
0001
0000
0000
0000
,
0100
0000
0010
0000
,
0020
0000
0000
0000
,
0030
0000
0000
0000
,
1000
0000
0000
0000
,
0001
0000
0000
0000
,
1000
0000
0001
0000
,
0100
0000
0000
0000
,
0001
0000
1000
0000
,
0010
0000
0000
0000
,
1000
0000
0001
0000
,
0010
0000
0000
0000
,
0001
0000
1000
0000
,
0100
0000
0000
0000
,
1000
0000
0000
0000
,
0000
0000
0000
0000
,
0001
0000
0000
0000
,
0000
0000
0000
0000
,
1000
0000
0000
0000
,
0100
0000
0000
0000
,
0010
0000
0000
0000
,
0001
0000
0000
0000
,
1001
0000
0000
0000
,
0000
0000
0000
0000
,
0110
0000
0000
0000
,
0000
0000
0000
0000
,
0001
0000
0100
0100
,
0100
0000
0010
0010
,
0010
0000
1000
0000
,
0001
0000
0000
0000
,
1001
0000
0000
0000
,
0001
0000
0100
0000
,
0010
0000
0000
0000
,
1000
0000
0010
0000
,
0100
0000
0000
0000
,
0001
0000
1000
0000
,
0010
0000
0000
0000
,
0100
0000
0001
0000
,
1000
0000
0000
0000
,
0001
0000
0010
0000
,
0100
0000
0000
0000
,
1000
0000
0100
0000
,
0020
0000
0000
0030
0000
0000
0000
0000
,
0000
0000
0000
0000
0002
0000
0000
0003
,
0000
0000
0000
0000
,
2000
0000
0000
3000
0000
0000
0010
0000
,
0010
0000
0000
0000
,
1000
0000
0000
0001
,
0000
0000
1000
0000
,
0000
0001
0000
0000
,
1000
0000
0010
0010
,
0010
0000
0000
0000
,
0000
0000
0000
0000
;
#NOTES:
     dance-single:
     :
     Easy:
     8:
     :
0000
0000
0000
0000
,
0000
0000
0000
0000
,
0000
0000
0000
0000
,
0000
0000
0000
0000
,
0000
0000
0000
0000
,
0002
0000
0000
0000
,
0000
0000
2003
0000
,
3020
0000
0000
0000
,
0230
0000
0302
0000
,
1003
0000
0010
0100
,
0001
0000
0001
0010
,
0100
0000
1000
0010
,
0100
0000
0100
0001
,
1000
0000
0001
0100
,
1000
0000
1000
0100
,
0010
0000
1000
0100
,
0001
0000
0001
0100
,
0020
0000
0000
0030
,
0001
1000
0010
0110
,
0100
0001
1000
1100
,
0100
0010
0001
1001
,
1000
0100
0110
0000
,
0001
0100
0110
0000
,
0001
1000
0010
0110
,
0100
0001
0101
1010
,
0002
0000
0000
0000
,
0000
0000
0000
0003
,
1000
0000
1000
0000
0000
0001
0000
0000
,
0010
0000
0000
0100
0000
0000
1000
0000
,
0002
0000
0100
0000
,
1003
0000
1000
0000
,
0020
0000
0100
0000
,
1030
0000
1000
0000
,
2000
0000
0010
0000
,
3001
0000
0001
0000
,
0200
0000
0010
0000
,
0301
0000
1000
0000
,
0002
0000
0203
0000
,
0320
0000
1030
0001
,
0020
0000
0230
0000
,
2300
0000
3001
0100
,
0002
0023
0230
0320
,
0032
2003
3020
0230
,
0302
0000
0000
0000
,
0003
0000
0000
0000
,
1000
1000
0000
0000
,
0000
0000
0001
1000
,
0010
0010
0000
0000
,
0000
0000
1000
0001
,
0100
0000
0010
0010
,
1000
0000
0001
0001
,
0010
0010
0001
1000
,
0100
0010
0001
0001
,
0200
0000
0000
0300
,
0010
1000
1000
0001
,
0001
0100
0100
0001
,
1000
0010
0010
0100
,
0001
0010
0010
0001
,
1000
0010
0010
1000
,
0001
0100
0010
1000
,
0001
0010
0100
1000
,
1100
0001
0001
0100
,
0010
0000
0000
0000
0000
1000
0000
0000
,
0001
0100
0100
0001
,
0010
0000
0000
0000
0000
0001
0000
0000
,
0100
0000
0000
0010
0000
0000
1000
0000
,
0000
0100
0000
0000
0010
0000
0000
0001
,
0000
0000
0100
0000
0000
0010
0000
0000
,
1000
0000
0000
0100
1000
0000
0001
0000
,
0200
0000
0000
0300
,
0001
0000
0000
0010
0000
0000
0100
0000
,
0000
1000
0000
0000
0010
0000
0000
0100
,
0000
0000
0001
0000
0000
1000
0000
0000
,
0100
0000
0000
1000
0010
0000
0100
0000
,
0010
0000
0000
0000
,
0000
0000
0000
0000
;
#NOTES:
     dance-single:
     :
     Medium:
     12:
     :
0000
0000
0000
0000
,
0000
0000
0000
0000
,
0000
0000
0000
0000
,
0000
0000
0000
0000
,
0000
0000
0000
0000
,
0001
0000
0000
1000
0000
1000
0000
0000
0010
0000
0000
0000
0010
0000
0000
0000
,
1000
0000
0000
0001
0000
0001
0000
0000
0100
0000
0000
0000
0100
0000
0000
0000
,
0001
0010
0100
0000
1000
0001
0100
0000
,
0010
1000
0001
0000
0011
0000
1001
0000
,
1000
0000
0000
0010
0000
0010
0000
0000
0100
0000
0000
0000
0100
0000
0000
0000
,
0001
0000
0000
1000
0000
1000
0000
0000
0010
0000
0000
0000
0010
0000
0000
0000
,
0100
0000
0000
0001
0000
0001
0000
0000
0010
0000
0000
0000
0010
0000
0000
0000
,
0001
0000
0000
0100
0000
0100
0000
0000
0010
0000
0000
0000
0010
0000
0000
0000
,
1000
0000
0000
0001
0000
0100
0000
0000
0001
0000
0000
0000
1000
0000
0000
0000
,
0001
0000
0000
1000
0000
0010
0000
0000
1000
0000
0000
0000
0001
0000
0000
0000
,
0100
0000
0000
0010
0000
0010
0000
0000
0100
0000
0000
0000
0100
0000
0000
0000
,
0001
0000
0000
1000
0000
0001
0000
0000
0011
0000
0000
0000
1100
0000
0000
0000
,
0002
0000
0000
0003
,
1000
0000
0000
0001
0000
0001
0000
0000
0100
0000
0010
0000
1000
0000
0000
0000
,
0001
0000
0000
0100
0000
0100
0000
0000
0001
0000
0010
0000
0100
0000
0000
0000
,
1000
0000
0000
0010
0000
0010
0000
0000
1000
0000
0001
0000
0010
0000
0000
0000
,
0001
0000
0000
1000
0000
0100
0000
0000
1000
0000
0010
0000
0100
0000
0000
0000
,
0001
0000
0000
0010
0000
0001
0000
0000
0100
0000
0001
0000
0010
0000
0000
0000
,
0001
0000
0000
1000
0000
0100
0000
0000
1000
0000
0001
0000
0100
0000
0000
0000
,
0001
0000
0000
0010
0000
0100
0000
0000
1100
0000
0000
0000
0011
0000
0000
0000
,
2000
0010
0010
0010
,
3002
0100
0100
0103
,
1000
0000
0001
0000
1000
0000
0000
0010
0000
0000
1000
0000
0000
0001
0000
0000
,
0010
0000
0000
0100
0000
0000
1000
0000
0010
0000
1000
0000
0001
0000
0000
0000
,
1000
0000
0000
0010
0000
0010
0000
0000
1000
0000
0000
0001
0000
0001
0000
0000
,
1000
0000
0000
0100
0000
0100
0000
1000
0000
0000
0010
0000
0000
0100
0000
0000
,
0001
0000
0000
0010
0000
0010
0000
0000
0001
0000
0000
1000
0000
1000
0000
0000
,
0001
0000
0000
0100
0000
0100
0000
0001
0000
0000
0010
0000
0000
0100
0000
0000
,
2000
0000
0000
0010
0000
0010
0000
0000
0010
0000
0000
0010
0000
0010
0000
0000
,
3020
0000
0000
0100
0000
0100
0000
0230
0000
0000
0001
0000
0000
0001
0000
0000
,
0302
0000
0000
1000
0000
1000
0000
0000
1000
0000
0000
1000
0000
1000
0000
0000
,
1003
0000
0000
0010
0000
0100
0000
0001
0000
0000
0010
0000
0000
0100
0000
0000
,
0000
1000
0000
1000
0000
0010
0000
0010
,
0000
1000
0000
1000
0000
0100
0000
0100
,
0000
0010
0000
0010
0000
0001
0000
0001
,
0000
0100
0000
0010
0000
1000
0000
1000
,
0100
0010
0000
0001
0000
0100
0000
0010
,
0000
0001
0000
0010
0000
1000
0000
0100
,
0020
0000
0000
0000
,
0000
0000
0000
0030
,
0011
0000
0000
1001
0000
0000
0000
0000
0000
0000
0000
0000
0000
0000
0000
0000
,
0000
0000
1100
1001
,
0101
0000
0000
0011
0000
0000
0000
0000
0000
0000
0000
0000
0000
0000
0000
0000
,
0000
0000
1100
1001
,
0101
0000
0000
0100
0000
0010
0000
0000
1000
0000
0000
0000
0001
0000
0000
0000
,
0100
0000
0000
0010
0000
0100
0000
0000
0001
0000
0000
0000
1000
0000
0000
0000
,
0100
1000
0100
1000
0001
0100
0010
0000
,
0100
0001
0100
0001
0010
0000
0100
0000
,
2002
0000
0000
3003
,
0001
0000
0000
0000
0100
0000
0000
0010
0000
0000
1000
0000
0000
0001
0000
0000
,
0100
0000
0000
0000
0001
0000
0000
0010
0000
0100
0000
1000
0100
0000
0000
0000
,
1000
0001
0000
0100
0000
0010
0000
1000
0000
0000
0010
0000
0000
0010
0000
0000
,
0100
0000
0000
0000
0001
0000
0000
0010
0000
0000
0001
0000
0000
1000
0000
0010
,
0000
0100
0010
0000
1000
0000
0000
0001
0000
0000
0100
0000
0001
0000
0010
0000
,
0100
0000
0001
0000
0100
0000
0000
1000
0000
0010
0000
0000
1000
0000
0001
0000
,
0100
0000
0001
0000
0010
0000
0001
1000
0000
0000
0010
0000
0100
0000
0001
0000
,
1001
0000
0000
0000
1000
0000
0000
0010
0000
0100
0000
0000
0001
0000
1000
0000
,
0100
0000
1000
0000
0010
0000
0000
0001
0000
0000
0010
0000
0000
0100
0000
0000
,
0001
0000
1000
0000
0010
0000
0000
1000
0000
0100
0000
0000
1000
0000
0001
0000
,
0000
0100
0000
0001
0000
0010
0000
0100
0000
0000
1000
0000
0000
0010
0000
0000
,
0100
0000
0000
0001
0000
0000
0001
0000
0000
0010
0000
0000
0100
0000
0000
1000
,
0000
0000
1000
0000
0000
0010
0000
0000
0100
0000
0000
1000
0000
0000
0100
0000
,
0000
0001
0000
0000
0011
0000
0000
1000
0000
0000
1100
0000
0000
0001
0000
0000
,
0101
0000
0000
1100
0000
0000
0001
0000
1001
0000
0000
0000
0110
0000
0000
0000
,
0020
0000
0000
0030
,
0102
0000
0000
0013
0000
0000
2100
0000
0000
3010
0000
0000
0102
0000
0000
0013
,
0000
0000
2100
0000
0000
3010
0000
0000
0102
0000
0000
0013
0000
0000
1100
0000
,
0000
1010
0000
0000
0100
0000
0000
0011
0000
0000
0100
0000
0000
1010
0000
0000
,
0100
0000
0000
1001
0000
0000
0001
0000
0010
0000
0100
0000
1000
0000
0010
0000
,
0100
0000
0000
0000
,
0000
0000
0000
0000
;
#NOTES:
     dance-single:
     :
     Hard:
     15:
     :
0000
0000
0000
0000
,
0000
0000
0000
0000
,
0000
0000
0000
0000
,
0000
0000
0000
0000
,
0000
0000
0000
0000
,
1000
0001
0000
0000
0100
0000
0000
0001
1000
0001
0000
0000
0010
0000
0000
0001
,
1000
0001
0000
0000
0100
0000
0000
0001
1000
0001
0000
0000
0010
0000
0000
0001
,
0100
0010
0100
0010
1000
0001
1000
0000
0100
0010
0100
0010
0001
1000
0001
0000
,
0100
0010
0100
0010
1000
0001
0010
0100
1000
0000
0000
0000
0001
0000
0000
0000
,
1020
0000
0000
0100
0000
0100
0000
0000
1030
0000
0000
0000
0001
0000
0000
0000
,
0021
0000
0000
0100
0000
0100
0000
0000
0031
0000
0000
0000
1000
0000
0000
0000
,
1200
0000
0000
0010
0000
0010
0000
0000
1300
0000
0000
0000
0001
0000
0000
0000
,
0201
0000
0000
0010
0000
0010
0000
0000
0301
0000
0000
0000
1000
0000
0000
0000
,
1020
0000
0000
0100
0000
1000
0000
0000
0130
0000
0000
0000
0001
0000
0000
0000
,
0021
0000
0000
0100
0000
0001
0000
0000
0031
0000
0000
0000
0100
0000
0000
0000
,
0210
0000
0000
0001
0000
0010
0000
0000
1300
0000
0000
0000
0010
0000
0000
0000
,
0210
0000
0000
1000
0000
0010
0000
0000
0301
0000
0000
0000
1001
0000
0000
0000
,
0001
0000
0000
0100
0000
0010
0000
0000
1000
0000
0000
0000
0001
0000
0000
0000
,
1000
0001
0000
0100
0000
0100
0000
0010
1000
0000
0000
0001
0100
0000
0010
0000
,
1000
0100
0000
0010
0000
0010
0000
0100
1000
0000
0000
0001
0100
0000
0010
0000
,
0100
0001
0000
0010
0000
0010
0000
0001
1000
0000
0000
0100
1000
0000
0010
0000
,
1000
0001
0000
0100
0000
0100
0000
0010
0001
0000
0000
0010
0100
0000
0001
0000
,
1000
0100
0000
0010
0000
0010
0000
1000
0010
0000
0000
0001
0010
0000
0100
0000
,
1000
0001
1000
0001
0100
0010
0100
0000
0001
1000
0001
1000
0100
0010
0100
0000
,
1000
0001
1000
0001
1000
0010
0100
0001
0010
0000
0000
0000
0100
0000
0000
0000
,
2000
3002
0023
0230
,
2300
3200
0320
0032
,
1003
0001
0100
0000
0001
0010
0000
0001
0100
0000
0001
0010
0000
0001
0100
0000
,
0010
1000
0000
0100
1000
0000
0010
1000
0001
0100
0001
0010
0100
0000
0000
0000
,
1000
0001
0000
0100
0000
0100
0000
0001
1000
0100
0000
0010
0000
0010
0000
0100
,
1000
0010
0000
0100
0000
0100
0000
0010
1000
0001
0000
0010
0000
0010
0000
0001
,
0100
0010
0000
1000
0000
1000
0000
0010
0100
0001
0000
0010
0000
0010
0000
0001
,
1000
0010
0000
0100
0000
0100
0000
0001
1000
0100
0010
0001
0000
0001
0100
0010
,
1000
0001
0000
0100
0000
0100
0000
0001
0010
0100
0000
0001
0000
0001
0000
0100
,
0010
0001
0000
0100
0000
0100
0000
0001
0010
0100
0000
0001
0000
0001
0000
0100
,
0010
0001
0000
0100
0000
0100
0000
0010
0100
1000
0000
0100
0000
0100
0000
0001
,
0010
0100
0000
1000
0000
1000
0000
0001
0100
0010
1000
0001
0000
1000
0100
0010
,
0002
2003
3020
0230
0302
2003
3200
0320
,
0230
2300
3002
0203
0320
0032
0023
0230
,
0302
2003
3200
0320
0032
2003
3020
0230
,
2300
3200
0320
2030
3002
0023
0230
0302
,
2003
3002
0203
0320
0032
0203
0320
0032
,
2003
0000
3002
0000
0023
0000
0230
0000
0301
1000
0002
0000
0023
0000
0230
0000
,
1300
0001
0000
0001
0000
0001
1000
0001
0000
0001
1000
0001
1000
0000
1000
0001
,
1000
0001
0000
0001
1000
0000
1000
0001
1000
0001
0000
0001
1000
0000
1000
0001
,
0200
0000
0000
0000
,
0300
0000
0000
0000
0000
0000
0000
0000
0110
0000
0000
0000
0101
0000
0001
0010
,
0100
0000
0000
1100
0000
0000
0000
0000
0000
0000
0000
0000
0000
0000
0000
0000
,
0000
0000
0000
0000
0000
0000
0000
0000
1100
0000
0000
1000
0001
0100
0000
0001
,
0020
0000
0000
0001
0000
0100
0000
0000
1000
0000
0000
0000
0031
0000
0000
0000
,
1020
0000
0000
1000
0000
0100
0000
0000
0001
0000
0000
0000
0130
0000
0000
0000
,
0001
0100
0001
0100
0010
1000
0001
0000
1000
0010
1000
0100
0010
0001
1000
0000
,
0001
0010
0001
0100
0010
1000
0100
1000
0010
0000
0000
0000
0100
0000
0000
0000
,
0001
0010
0100
0000
1000
0100
0000
1000
0010
0000
0100
0001
0000
0010
0001
0000
,
1000
0001
0100
0000
0001
0010
0000
1000
0010
0000
0001
0010
0000
0100
0010
0000
,
0001
0000
0100
0000
0110
0000
0000
1000
0000
0010
0000
0100
0001
0010
0000
0000
,
0100
1000
0000
0001
0000
0100
0000
0010
0000
0000
1000
0000
0000
1001
0000
0000
,
0001
0010
0100
0000
1000
0010
0000
0010
0001
0000
0001
0010
0000
0010
0000
1000
,
0000
0001
0010
0100
1000
0100
1000
0010
0000
0000
0100
0000
0001
0000
0010
0100
,
1000
0000
0001
0100
0010
0100
0001
0100
0000
0001
0010
0100
0000
0000
1000
0000
,
0001
0100
0000
1000
0000
0001
0000
1000
0000
0100
0001
0000
0010
0100
1000
0000
,
0001
0100
0010
0000
1000
0001
0000
0010
0000
0001
0000
0100
0010
0000
1000
0001
,
0010
0000
0100
1000
0010
0000
0100
0001
0000
0010
0001
0000
0100
0010
0000
1000
,
0100
0000
1000
0000
0010
0100
0000
1000
0000
0100
0000
0001
0010
0000
0100
1000
,
0000
0001
0000
0100
0000
0010
0000
0100
0000
0001
1000
0000
0001
0010
0000
0100
,
1000
0000
0010
0100
0000
0001
0010
0000
0001
0100
0000
0010
1000
0000
1000
0100
,
0000
1000
0010
0000
0100
0001
0000
0010
0001
0000
0100
0010
0000
1000
0100
0000
,
1000
0010
0000
0001
0010
0000
1000
0100
0000
0001
0100
0000
1000
0010
0000
0001
,
0010
0000
1000
0100
0000
0001
0100
0000
1000
0000
0001
0010
0100
1000
0010
0100
,
0002
0000
0000
0000
0000
0000
0000
0003
,
0011
0000
0000
1100
0000
0000
1010
0000
0000
0101
0000
0000
0011
0000
0000
1010
,
0000
0000
1100
0000
0000
0101
0000
0000
0110
0000
0000
1001
0000
0000
0110
0000
,
0000
0001
0100
0001
1000
0000
0000
0100
1000
0100
0010
0000
0000
0001
0100
0001
,
1000
0100
1000
0010
0100
0010
1000
0001
1000
0100
0010
0001
1000
0001
0100
0010
,
0100
0000
0000
0000
,
0000
0000
0000
0000
;
#NOTES:
     dance-double:
     :
     Easy:
     8:
     :
00000000
00000000
00000000
00000000
,
00000000
00000000
00000000
00000000
,
00000000
00000000
00000000
00000000
,
00000000
00000000
00000000
00000000
,
00000000
00000000
00000000
00000000
,
00002000
00000000
00000000
00000000
,
00000000
00000000
00023000
00000000
,
00030200
00000000
00000000
00000000
,
00002300
00000000
00003020
00000000
,
00000130
00000000
00000001
00001000
,
00000010
00000000
00000010
00010000
,
00001000
00000000
00010000
00001000
,
00100000
00000000
00100000
00010000
,
01000000
00000000
00010000
00100000
,
10000000
00000000
10000000
00100000
,
01000000
00000000
10000000
01000000
,
00010000
00000000
00010000
00001000
,
00000200
00000000
00000000
00000300
,
00000010
00001000
00000100
00001100
,
00001000
00000010
00010000
00011000
,
00001000
00000100
00000001
00000011
,
00000010
00000100
00001100
00000000
,
00000100
00010000
00011000
00000000
,
00001000
00100000
00010000
01000000
,
00100000
10000000
10100000
01010000
,
02000000
00000000
00000000
00000000
,
00000000
00000000
00000000
03000000
,
00010000
00000000
00010000
00000000
00000000
10000000
00000000
00000000
,
01000000
00000000
00000000
00100000
00000000
00000000
00001000
00000000
,
00020000
00000000
00001000
00000000
,
00030100
00000000
00000100
00000000
,
00002000
00000000
00000010
00000000
,
00003001
00000000
00000001
00000000
,
00000020
00000000
00000100
00000000
,
00001030
00000000
00010000
00000000
,
00002000
00000000
00010000
00000000
,
00103000
00000000
00001000
00000000
,
00002000
00000000
00023000
00000000
,
00230000
00000000
01300000
00010000
,
20000000
00000000
32000000
00000000
,
03020000
00000000
00031000
00010000
,
00000200
00000320
00002030
00003020
,
00000032
00000203
00002300
00023000
,
00032000
00000000
00000000
00000000
,
00003000
00000000
00000000
00000000
,
00001000
00001000
00000000
00000000
,
00000000
00000000
01000000
00010000
,
00100000
00100000
00000000
00000000
,
00000000
00000000
00010000
10000000
,
01000000
00000000
10000000
10000000
,
00100000
00000000
10000000
10000000
,
01000000
10000000
00100000
01000000
,
00010000
00100000
00001000
00010000
,
00002000
00000000
00000000
00003000
,
00010000
00000100
00000100
00000000
,
00001000
00000010
00000000
00000100
,
00000001
00000010
00000010
00000001
,
00001000
00000010
00000010
00010000
,
00001000
00010000
00010000
00001000
,
00100000
00010000
01000000
00100000
,
10000000
01000000
00010000
00001000
,
00011000
00010000
00000010
00001000
,
00000100
00000000
00000000
00000000
00000000
00000100
00000000
00000000
,
00001000
00000001
00000001
00000100
,
00000010
00000000
00000000
00000000
00000000
00010000
00000000
00000000
,
00001000
00000000
00000000
00100000
00000000
00000000
00010000
00000000
,
00000000
01000000
00000000
00000000
00100000
00000000
00000000
10000000
,
00000000
00000000
01000000
00000000
00000000
00100000
00000000
00000000
,
00001000
00000000
00000000
00010000
00001000
00000000
00010000
00000000
,
00002000
00000000
00000000
00003000
,
00010000
00000000
00000000
00001000
00000000
00000000
00000100
00000000
,
00000000
00000001
00000000
00000000
00000010
00000000
00000000
00001000
,
00000000
00000000
00010000
00000000
00000000
01000000
00000000
00000000
,
10000000
00000000
00000000
00100000
01000000
00000000
00010000
00000000
,
00100000
00000000
00000000
00000000
,
00000000
00000000
00000000
00000000
;
#NOTES:
     dance-double:
     :
     Medium:
     12:
     :
00000000
00000000
00000000
00000000
,
00000000
00000000
00000000
00000000
,
00000000
00000000
00000000
00000000
,
00000000
00000000
00000000
00000000
,
00000000
00000000
00000000
00000000
,
00001000
00000000
00000000
00010000
00000000
00010000
00000000
00000000
00001000
00000000
00000000
00000000
00001000
00000000
00000000
00000000
,
00100000
00000000
00000000
00010000
00000000
00010000
00000000
00000000
01000000
00000000
00000000
00000000
01000000
00000000
00000000
00000000
,
00001000
00010000
00000100
00000000
00000100
00000000
00001000
00000000
,
00000010
00000100
00000001
00000000
00000011
00000000
00001001
00000000
,
00001000
00000000
00000000
00000010
00000000
00000010
00000000
00000000
00000100
00000000
00000000
00000000
00000001
00000000
00000000
00000000
,
00001000
00000000
00000000
00000010
00000000
00000010
00000000
00000000
00010000
00000000
00000000
00000000
00001000
00000000
00000000
00000000
,
01000000
00000000
00000000
00010000
00000000
00010000
00000000
00000000
00100000
00000000
00000000
00000000
01000000
00000000
00000000
00000000
,
10000000
00000000
00000000
00010000
00000000
00010000
00000000
00000000
01000000
00000000
00000000
00000000
00100000
00000000
00000000
00000000
,
01000000
00000000
00000000
00001000
00000000
00010000
00000000
00000000
00001000
00000000
00000000
00000000
00100000
00000000
00000000
00000000
,
00010000
00000000
00000000
01000000
00000000
00001000
00000000
00000000
00010000
00000000
00000000
00000000
00000100
00000000
00000000
00000000
,
00001000
00000000
00000000
00000010
00000000
00001000
00000000
00000000
00000001
00000000
00000000
00000000
00000100
00000000
00000000
00000000
,
00000001
00000000
00000000
00000010
00000000
00000100
00000000
00000000
00001000
00000000
00000000
00000000
00001010
00000000
00000000
00000000
,
00000020
00000000
00000000
00000030
,
00010000
00000000
00000000
00001000
00000000
00001000
00000000
00000000
01000000
00000000
00100000
00000000
10000000
00000000
00000000
00000000
,
00010000
00000000
00000000
01000000
00000000
01000000
00000000
00000000
00010000
00000000
10000000
00000000
01000000
00000000
00000000
00000000
,
00100000
00000000
00000000
00001000
00000000
00001000
00000000
00000000
00010000
00000000
00000100
00000000
00001000
00000000
00000000
00000000
,
00000010
00000000
00000000
00010000
00000000
00010000
00000000
00000000
00001000
00000000
00000100
00000000
00000010
00000000
00000000
00000000
,
00001000
00000000
00000000
00000001
00000000
00000001
00000000
00000000
00000010
00000000
00000100
00000000
00001000
00000000
00000000
00000000
,
00000010
00000000
00000000
00010000
00000000
00001000
00000000
00000000
00001000
00000000
00010000
00000000
01000000
00000000
00000000
00000000
,
10000000
00000000
00000000
00100000
00000000
01000000
00000000
00000000
01010000
00000000
00000000
00000000
10010000
00000000
00000000
00000000
,
20000000
00100000
00100000
00100000
,
30020000
01000000
01000000
01030000
,
00001000
00000000
00010000
00000000
00001000
00000000
00000000
00000100
00000000
00000000
00000001
00000000
00000000
00000010
00000000
00000000
,
00001000
00000000
00000000
00010000
00000000
00000000
00001000
00000000
01000000
00000000
00100000
00000000
01000000
00000000
00000000
00000000
,
00010000
00000000
00000000
00100000
00000000
00100000
00000000
00000000
00010000
00000000
00000000
10000000
00000000
10000000
00000000
00000000
,
00010000
00000000
00000000
01000000
00000000
01000000
00000000
00001000
00000000
00000000
00010000
00000000
00000000
00001000
00000000
00000000
,
00010000
00000000
00000000
00000100
00000000
00000100
00000000
00000000
00001000
00000000
00000000
00000001
00000000
00000001
00000000
00000000
,
00001000
00000000
00000000
00000010
00000000
00000010
00000000
00010000
00000000
00000000
00001000
00000000
00000000
00010000
00000000
00000000
,
01000000
00000000
00000000
10000000
00000000
00100000
00000000
00000000
01000000
00000000
00000000
00010000
00000000
00100000
00000000
00000000
,
00001000
00000000
00000000
00010000
00000000
00000100
00000000
00001000
00000000
00000000
00000010
00000000
00000000
00000100
00000000
00000000
,
00000001
00000000
00000000
00000010
00000000
00000100
00000000
00000000
00001000
00000000
00000000
00000010
00000000
00010000
00000000
00000000
,
00001000
00000000
00000000
00000100
00000000
00000001
00000000
00000010
00000000
00000000
00000100
00000000
00000000
00010000
00000000
00000000
,
00000000
00001000
00000000
00001000
00000000
00010000
00000000
00010000
,
00000000
00001000
00000000
00001000
00000000
01000000
00000000
01000000
,
00000000
00010000
00000000
00100000
00000000
01000000
00000000
00010000
,
00000000
00001000
00000000
00010000
00000000
00001000
00000000
00000100
,
00000010
00000100
00000000
00000001
00000000
00001000
00000000
00000001
,
00000000
00000100
00000000
00001000
00000000
00010000
00000000
00001000
,
00020000
00000000
00000000
00000000
,
00000000
00000000
00000000
00030000
,
00011000
00000000
00000000
00101000
00000000
00000000
00000000
00000000
00000000
00000000
00000000
00000000
00000000
00000000
00000000
00000000
,
00000000
00000000
00110000
10000000
,
00100000
00000000
00000000
10010000
00000000
00000000
00000000
00000000
00000000
00000000
00000000
00000000
00000000
00000000
00000000
00000000
,
00000000
00000000
10000000
11000000
,
01000000
00000000
00000000
00100000
00000000
00001000
00000000
00000000
00010000
00000000
00000000
00000000
00001000
00000000
00000000
00000000
,
00010000
00000000
00000000
00000010
00000000
00001000
00000000
00000000
00000100
00000000
00000000
00000000
00001000
00000000
00000000
00000000
,
00000001
00000010
00000001
00000010
00000100
00001000
00000010
00000000
,
00010000
00001000
00010000
00001000
01000000
00000000
00010000
00000000
,
20020000
00000000
00000000
30030000
,
10000000
00000000
00000000
00000000
00010000
00000000
00000000
01000000
00000000
00000000
00100000
00000000
00000000
00010000
00000000
00000000
,
00001000
00000000
00000000
00000000
00010000
00000000
00000000
00000010
00000000
00001000
00000000
00000100
00000000
00000000
00000000
00000000
,
00010000
00001000
00000000
00000010
00000000
00000001
00000000
00000100
00000000
00000000
00001000
00000000
00000000
00010000
00000000
00000000
,
01000000
00000000
00000000
00000000
00100000
00000000
00000000
00010000
00000000
00000000
01000000
00000000
00000000
00100000
00000000
10000000
,
00000000
00010000
01000000
00000000
00100000
00000000
00000000
00010000
00000000
00000000
00001000
00000000
00000000
00010000
00000000
00000000
,
00000100
00000000
00000000
00000000
00000010
00000000
00000000
00000001
00000000
00000010
00000000
00000000
00000100
00000000
00010000
00000000
,
00001000
00000000
00010000
00000000
01000000
00000000
00000000
10000000
00000000
00000000
00100000
00000000
01000000
00000000
00010000
00000000
,
10010000
00000000
00000000
00000000
10000000
00000000
00000000
01000000
00000000
00100000
00000000
00000000
00001000
00000000
00010000
00000000
,
00001000
00000000
00000100
00000000
00000010
00000000
00000000
00010000
00000000
00000000
00001000
00000000
00000000
00000010
00000000
00000000
,
00000001
00000000
00000000
00000000
00000100
00000000
00000000
00000010
00000000
00010000
00000000
00000000
00001000
00000000
01000000
00000000
,
00000000
00001000
00000000
00010000
00000000
00100000
00000000
01000000
00000000
00000000
00010000
00000000
00000000
10000000
00000000
00000000
,
10000000
00000000
00000000
01000000
00000000
00000000
00010000
00000000
00000000
00001000
00000000
00000000
00000100
00000000
00000000
00000001
,
00000000
00000000
00000001
00000000
00000000
00000010
00000000
00000000
00001000
00000000
00000000
00010000
00000000
00000000
00100000
00000000
,
00000000
01000000
00000000
00000000
01010000
00000000
00000000
00001000
00000000
00000000
00110000
00000000
00000000
10000000
00000000
00000000
,
01010000
00000000
00000000
00001000
00000000
00000000
00100000
00000000
00110000
00000000
00000000
00000000
10010000
00000000
00000000
00000000
,
02000000
00000000
00000000
03000000
,
11000000
00000000
00000000
00100000
00000000
00000000
00110000
00000000
00000000
00001000
00000000
00000000
00011000
00000000
00000000
00000100
,
00000000
00000000
00000011
00000000
00000000
00000100
00000000
00000000
00001001
00000000
00000000
00000010
00000000
00000000
00011000
00000000
,
00000000
01000000
00000000
00000000
00110000
00000000
00000000
11000000
00000000
00000000
00100000
00000000
00000000
10010000
00000000
00000000
,
01100000
00000000
00000000
10010000
00000000
00000000
10000000
00000000
00100000
00000000
00010000
00000000
00001000
00000000
00000100
00000000
,
00000010
00000000
00000000
00000000
,
00000000
00000000
00000000
00000000
;
#NOTES:
     dance-double:
     :
     Hard:
     15:
     :
00000000
00000000
00000000
00000000
,
00000000
00000000
00000000
00000000
,
00000000
00000000
00000000
00000000
,
00000000
00000000
00000000
00000000
,
00000000
00000000
00000000
00000000
,
00001000
00010000
00000000
00000000
00001000
00000000
00000000
00100000
00010000
00100000
00000000
00000000
10000000
00000000
00000000
00100000
,
00010000
00100000
00000000
00000000
00001000
00000000
00000000
00010000
00001000
00010000
00000000
00000000
00001000
00000000
00000000
00010000
,
00001000
00010000
00001000
00010000
00000100
00001000
00000100
00000000
00001000
00000010
00001000
00000010
00000100
00000001
00000100
00000000
,
00000001
00000010
00000001
00000010
00000100
00001000
00000100
00001000
00000010
00000000
00000000
00000000
00010000
00000000
00000000
00000000
,
00001000
00000000
00000000
00100000
00000000
00010000
00000000
00000000
01000000
00000000
00000000
00000000
10200000
00000000
00000000
00000000
,
00310000
00000000
00000000
00001000
00000000
00010000
00000000
00000000
00012000
00000000
00000000
00000000
00003010
00000000
00000000
00000000
,
00000011
00000000
00000000
00000010
00000000
00000100
00000000
00000000
00001200
00000000
00000000
00000000
00010300
00000000
00000000
00000000
,
00011000
00000000
00000000
00001000
00000000
01000000
00000000
00000000
01200000
00000000
00000000
00000000
00310000
00000000
00000000
00000000
,
10100000
00000000
00000000
10000000
00000000
01000000
00000000
00000000
00210000
00000000
00000000
00000000
00301000
00000000
00000000
00000000
,
00011000
00000000
00000000
00010000
00000000
01000000
00000000
00000000
21000000
00000000
00000000
00000000
30100000
00000000
00000000
00000000
,
01100000
00000000
00000000
00010000
00000000
00001000
00000000
00000000
00000110
00000000
00000000
00000000
00001001
00000000
00000000
00000000
,
00000110
00000000
00000000
00001000
00000000
00010000
00000000
00000000
01100000
00000000
00000000
00000000
10010000
00000000
00000000
00000000
,
10000000
00000000
00000000
01000000
00000000
00010000
00000000
00000000
00001000
00000000
00000000
00000000
00000100
00000000
00000000
00000000
,
00000010
00001000
00000000
00000001
00000000
00000001
00000000
00000100
00000010
00000000
00000000
00010000
00001000
00000000
00100000
00000000
,
01000000
10000000
00000000
10000000
00000000
00100000
00000000
10000000
01000000
00000000
00000000
00100000
00001000
00000000
00010000
00000000
,
00000100
00000010
00000000
00000001
00000000
00000001
00000000
00000100
00000010
00000000
00000000
00010000
00001000
00000000
00010000
00000000
,
01000000
00100000
00000000
00000000
00010000
00000000
00000000
10000000
01000000
00100000
00000000
00000000
00001000
00000000
00000000
00010000
,
00000100
00001000
00000000
00000000
00000001
00000000
00000000
00000100
00000010
00001000
00000000
00000000
00000010
00000000
00000000
00010000
,
00001000
00010000
00001000
00010000
00001000
01000000
00001000
00000000
01000000
00010000
01000000
00010000
01000000
00000000
00100000
00000000
,
10000000
00010000
10000000
00010000
10000000
01000000
00100000
00010000
00100000
00000000
00000000
00000000
00101000
00000000
00000000
00000000
,
00002000
00023000
00032000
00003200
,
00000302
00000023
00000230
00002300
,
00003010
00010000
00001000
00000000
00010000
00001000
00000000
00100000
00010000
00000000
00100000
00010000
00000000
01000000
00100000
00000000
,
00010000
00001000
00000000
00010000
00001000
00000000
00010000
00000100
00001000
00000010
00000100
00000001
00000010
00000000
00000000
00000000
,
00000001
00001000
00000000
00000010
00000000
00000010
00000000
00000100
00000001
00001000
00000000
00000100
00000000
00000100
00000000
00001000
,
00000010
00010000
00000000
00001000
00000000
00001000
00000000
00010000
00000000
00001000
00100000
00000000
00000000
00010000
00000000
01000000
,
00010000
00100000
00000000
01000000
00000000
01000000
00000000
00100000
00010000
01000000
00000000
00100000
00000000
00100000
00000000
01000000
,
00010000
10000000
00000000
01000000
00000000
01000000
00000000
10000000
00100000
01000000
00010000
00100000
00000000
01000000
10000000
00010000
,
01000000
00100000
00000000
10000000
00000000
10000000
00000000
00100000
01000000
00010000
00000000
00100000
00000000
00100000
00000000
00001000
,
00010000
00100000
00000000
01000000
00000000
01000000
00000000
00010000
00000000
00100000
00001000
00000000
00000000
00010000
00000000
00001000
,
00000100
00000010
00000000
00001000
00000000
00001000
00000000
00000100
00010000
00001000
00000000
00000010
00000000
00000010
00000000
00000100
,
00001000
00000010
00000000
00000100
00000000
00000100
00000000
00000010
00001000
00000001
00000010
00000100
00000000
00001000
00000001
00001000
,
00000002
00000023
00000230
00002300
00003020
00020030
00032000
00003200
,
00000320
00002030
00003002
00000023
00000230
00000302
00002003
00003020
,
00000230
00020300
00032000
00023000
00230000
02300000
03020000
00230000
,
02300000
03020000
20030000
30200000
00302000
00023000
00230000
00320000
,
00032000
00003200
00000320
00002030
00003200
00000320
00002030
00023000
,
00230000
00000000
02300000
00000000
03020000
00000000
00230000
00000000
00301000
00010000
00002000
00000000
02003000
00000000
03020000
00000000
,
10030000
00010000
00000000
00010000
00000000
00010000
10000000
00010000
00000000
00010000
10000000
00010000
10000000
00000000
10000000
00010000
,
10000000
00010000
00000000
00010000
10000000
00000000
10000000
00010000
10000000
00010000
00000000
00010000
10000000
00000000
10000000
00010000
,
02000000
00000000
00000000
00000000
,
03000000
00000000
00100000
01010000
,
00001000
00000000
00000000
00011000
00000000
00000000
00000000
00000000
00000000
00000000
00000000
00000000
00000000
00000000
00000000
00000000
,
00000000
00000000
00000000
00000000
00000000
00000000
00000000
00000000
00011000
00000000
00000000
00010000
00000100
00001000
00000000
00000010
,
00000200
00000000
00000000
00000001
00000000
00000001
00000000
00000000
00000001
00000000
00000000
00000000
00000301
00000000
00000000
00000000
,
00001020
00000000
00000000
00001000
00000000
00001000
00000000
00000000
00001000
00000000
00000000
00000000
00001030
00000000
00000000
00000000
,
00000010
00001000
00000010
00001000
00000100
00000000
00010000
00000000
00001000
00100000
00001000
00100000
00010000
00000000
10000000
00000000
,
00010000
00100000
00010000
00100000
01000000
00000000
00010000
00000000
00001000
00000000
00000000
00000000
00000010
00000000
00000000
00000000
,
00000001
00000010
00000100
00000000
00001000
00000100
00000000
00010000
00001000
00000000
00100000
00010000
00000000
01000000
00100000
00000000
,
10000000
00010000
01000000
00000000
00100000
10000000
00000000
00100000
00010000
00000000
00001000
00010000
00000000
00001000
00000010
00000000
,
00000001
00000010
00000100
00000000
00001000
00000000
00000000
00000001
00000000
00000100
00000000
00001000
00010000
00001000
00000000
00000000
,
00010000
01000000
00000000
10000000
00000000
01000000
00000000
00100000
00000000
00000000
00010000
00000000
00000000
10010000
00000000
00000000
,
10000000
00000000
00100000
00000000
01000000
00010000
00000000
00010000
10000000
00000000
10000000
01000000
00000000
00010000
00000000
00001000
,
00000000
00000010
00000001
00000010
00000100
00000000
00001000
00000100
00000000
00000000
00010000
00000000
00001000
00000000
00010000
00000000
,
00100000
00000000
10000000
00010000
10000000
00000000
01000000
00100000
00000000
00001000
00000000
00000000
00010000
00000000
00000100
00000000
,
00000010
00001000
00000000
00010000
00000000
00000010
00000000
00010000
00000000
00001000
00000100
00000000
00000001
00000000
00000010
00000000
,
00000100
00001000
00000010
00000000
00010000
00001000
00000000
00100000
00000000
00010000
00000000
10000000
00100000
00000000
01000000
00000000
,
00100000
00000000
00010000
00000000
00001000
00000000
00000100
00000001
00000000
00000100
00000010
00000000
00010000
00001000
00000000
01000000
,
00010000
00000000
10000000
00000000
00010000
00100000
00000000
00001000
00000000
01000000
00000000
00010000
00100000
00000000
01000000
00000000
,
00100000
00001000
00000000
00010000
00000000
00000010
00000000
00001000
00000000
00000001
00000010
00000000
00000100
00001000
00000000
00000010
,
00001000
00000000
00000001
00000010
00000000
00000100
00010000
00000000
00001000
01000000
00000000
00100000
10000000
00000000
10000000
01000000
,
00000000
00100000
00001000
00000000
00010000
00000100
00000000
00001000
00000001
00000000
00000001
00000100
00000000
00000010
00010000
00000000
,
00001000
00010000
00000000
00100000
01000000
00000000
00010000
10000000
00000000
10000000
01000000
00000000
00010000
00001000
00000000
00000010
,
00000001
00000000
00000001
00000100
00000000
00001000
00010000
00000000
00100000
01000000
00000000
00010000
10000000
01000000
00100000
00020000
,
00000000
00000000
00000000
00000000
00000000
00000000
00000000
00030000
,
10010000
00000000
00000000
11000000
00000000
00000000
01010000
00000000
00000000
00011000
00000000
00000000
00010010
00000000
00000000
00000110
,
00000000
00000000
00001010
00000000
00000000
00001001
00000000
00000000
00000011
00000000
00000000
00001010
00000000
00000000
00011000
00000000
,
00000000
00110000
00000000
00000000
01100000
00000000
00000000
00110000
00000000
00000000
00011000
00000000
00000000
00001010
00000000
00000000
,
00000011
00000000
00000000
00000101
00000000
00000000
00001010
00000000
00001001
00000000
00000001
00000010
00000100
00001000
00000010
00010000
,
00001000
00000000
00000000
00000000
,
00000000
00000000
00000000
00000000
;
