
//----- song ID: mvpp -----//
#TITLE:MVP;
#ARTIST:PRIDASK;
#BANNER:MVP.png;
#BACKGROUND:MVP-bg.png;
#CDTITLE:./CDTitles/bm IIDX 32 Pinky Crush.png;
#MUSIC:MVP.ogg;
#SAMPLESTART:32.394;
#SAMPLELENGTH:15;
#BPMS:0=100;
#NOTES:
     dance-single:
     :
     Beginner:
     2:
     :
0000
0000
0000
0000
,
0000
0000
0000
0000
,
0000
0000
0000
0000
,
0000
0000
0000
0000
,
0000
0000
0000
0000
,
0000
0000
0000
0000
,
1000
0000
0001
0000
,
1000
0000
0001
0000
,
0100
0000
0010
0000
,
0100
0000
0010
0000
,
1000
0000
0010
0000
,
1000
0000
0000
0000
,
0001
0000
1000
0000
,
1001
0000
0000
0000
,
0001
0000
0100
0000
,
0001
0000
0100
0000
,
0010
0000
0100
0000
,
0110
0000
0000
0000
,
0010
0000
1000
0000
,
0010
0000
1000
0000
,
0001
0000
0010
0000
,
0001
0000
1000
0000
,
0010
0000
0100
0000
,
0020
0000
0000
0030
,
1000
0000
0001
0000
,
1001
0000
0000
0000
,
1000
0000
0100
0000
,
0010
0000
0001
0000
,
1000
0000
0001
0000
,
1000
0000
0001
0000
,
2000
0000
0000
3000
,
0020
0000
0000
0030
,
1000
0000
0001
0000
,
1000
0000
0001
0000
,
0010
0000
0100
0000
,
0010
0000
0000
0000
,
0001
0000
1000
0000
,
1001
0000
0000
0000
,
0002
0000
0000
0003
,
2000
0000
0000
3000
,
0100
0000
0010
0000
,
0100
0000
0010
0000
,
0001
0000
1000
0000
,
1001
0000
0000
0000
,
1000
0000
0010
0000
,
1000
0000
0010
0000
,
0100
0000
0001
0000
,
1000
0000
0001
0000
,
1000
0000
0000
0000
,
0000
0000
0000
0000
;
#NOTES:
     dance-single:
     :
     Easy:
     5:
     :
0000
0000
0000
0000
,
0000
0000
0000
0000
,
0000
0000
0000
0000
,
0000
0000
0000
0000
,
0000
0000
0000
0000
,
0000
0000
0000
0000
,
0001
1000
0010
0000
,
1000
0001
0100
0000
,
0001
0100
0001
1000
,
1001
0000
1001
0000
,
1000
0100
1000
0100
,
1000
0000
0001
0000
,
0100
0010
0100
0010
,
1000
0001
1000
0000
,
0001
0010
0100
0000
,
1000
0001
1000
0001
,
1000
0100
0010
0000
,
0001
1000
0001
0000
,
1000
0100
0010
0000
,
0001
1000
0001
0000
,
0100
0010
0100
0010
,
1000
0010
0100
0001
,
1000
0001
1000
0100
,
0020
0000
0230
0000
,
1300
0001
0100
0001
,
1000
0001
1000
0000
,
0001
0100
0001
0100
,
0010
1000
0010
0100
,
0001
0010
0001
0100
,
0110
0000
1001
0000
,
1000
0100
0010
0000
,
0001
0010
0100
0000
,
1000
0000
0001
0000
,
0100
0000
0110
0000
,
0001
0010
0001
0010
,
0100
0000
0010
0000
,
0100
1000
0100
1000
,
0001
1000
0001
0000
,
1000
0000
0010
0000
,
1000
0000
0001
0000
,
0100
0010
0100
0001
,
1000
0010
1000
0001
,
0100
0010
1000
0010
,
1000
0001
1000
0000
,
0001
0010
0100
1000
,
0001
0100
0010
0100
,
0001
0010
0001
0010
,
0100
1000
0001
1000
,
1001
0000
0000
0000
,
0000
0000
0000
0000
;
#NOTES:
     dance-single:
     :
     Medium:
     8:
     :
0000
0000
0000
0000
,
0000
0000
0000
0000
,
0000
0000
0000
0000
,
0000
0000
0000
0000
,
0000
0000
0000
0000
,
0000
0000
0000
0000
,
1000
0100
1000
0000
0001
1000
0001
0000
,
1000
0010
1000
0000
0001
0010
0100
0000
,
0010
0001
0010
0000
0001
0100
0010
0000
,
1010
0000
0101
0000
0001
1000
0010
0100
,
0001
1000
0001
0000
0010
0100
0010
0000
,
0001
0100
0001
0100
0010
1000
0010
0000
,
1000
0100
1000
0100
0010
0001
0010
0001
,
1000
0001
1001
0000
,
1000
0000
0010
0000
0100
0010
0100
0000
,
0001
0000
0010
0000
0100
0010
0100
0010
,
0001
0000
1000
0000
0010
0100
0010
0000
,
1000
0001
1001
0000
,
0001
0000
0100
0000
0010
0100
0010
0000
,
1000
0000
0100
0000
0010
0100
0010
0000
,
0001
0100
0001
0000
1000
0010
1000
0000
,
0001
0010
0001
0000
1000
0100
1000
0000
,
0001
0010
0100
0000
1000
0010
0100
0000
,
0001
0010
0100
1000
,
0001
0100
0010
0000
1000
0100
0010
0000
,
0001
1000
1001
0000
,
1000
0000
0010
0000
0100
0001
0100
0000
,
0001
0000
0010
0000
0100
1000
0100
0000
,
1000
0100
0001
0000
0001
0100
1000
0000
,
0001
0000
1000
0000
0010
0100
0010
0000
,
0000
0000
1000
0000
0100
0000
0010
0000
0001
0000
0000
0000
0000
1000
0000
0000
,
0000
0000
0001
0000
0010
0000
0100
0000
1000
0000
0000
0000
0000
0001
0000
0000
,
0100
0010
0100
0000
0010
1000
0001
0000
,
0010
0000
0000
0000
0100
0000
0000
2002
0000
0000
0000
0000
3003
0000
0000
0000
,
0001
0100
0010
0000
1000
0010
0100
0000
,
0001
0010
0100
1000
0010
0100
0010
0000
,
1000
1000
1000
0000
0001
0001
0001
0000
,
0100
0010
0110
0000
,
1000
0001
1000
0010
,
0100
0010
1000
0001
,
1000
0100
1000
0001
0100
0010
0100
0001
,
0010
0001
0010
0100
1000
0001
1000
0010
,
0100
0010
0100
0001
0010
0001
1000
0010
,
0100
0010
1001
0000
,
0001
0100
0001
1000
0100
0010
0100
1000
,
0010
1000
0010
0100
0001
1000
0100
0010
,
0001
0100
0001
0000
1000
0010
1000
0000
,
0010
0000
0100
0000
0010
1000
0100
1000
,
0001
0000
0000
0000
,
0000
0000
0000
0000
;
#NOTES:
     dance-single:
     :
     Hard:
     13:
     :
0000
0000
0000
0000
,
0000
0000
0000
0000
,
0000
0000
0000
0000
,
0000
0000
0000
0000
,
0000
0000
0000
0000
,
0000
0000
0000
0000
,
0001
0000
0100
0001
0100
0000
0010
0000
1000
0000
0010
0000
1000
0000
0001
0010
,
0100
0000
1000
0100
1000
0000
0001
0000
0100
0010
0100
0000
0010
1000
0001
0000
,
1000
0100
1000
0100
1000
0100
1000
0000
0001
0100
0001
0100
0001
0100
0001
0000
,
1000
0010
1000
0010
0100
0001
0100
0001
1000
0001
1000
0000
0010
0000
0010
0000
,
1000
1000
1000
1000
0001
0001
0001
0001
,
1000
0100
0010
0001
1000
0010
0100
0010
,
1000
0001
1000
0001
1000
0001
1000
0001
1000
0001
1000
0001
1000
0001
1000
0001
,
1000
0000
0001
0000
0010
0010
0100
0010
,
0001
0000
1000
0100
1000
0000
0001
0000
0100
0010
0100
0000
0010
0000
1000
0010
,
0100
0000
0001
0010
0001
0000
0010
0000
0001
1000
0100
0000
0110
0000
1001
0000
,
1000
0000
0001
0010
0001
0000
1000
0000
0100
0010
0100
0000
0010
0000
0001
1000
,
0010
0000
0100
0000
0001
1000
0001
0001
,
0100
0000
0010
0100
0010
0000
1000
0000
0001
1000
0001
0000
1000
0000
0100
0010
,
0001
0000
1000
0100
1000
0000
0001
0000
0010
0100
0010
0000
0001
0000
0010
0001
,
0100
0000
0010
1000
0010
0000
0100
0000
0001
0100
0010
0100
0001
0100
0010
0100
,
0001
0000
0010
0001
0100
0000
0001
0000
0010
0100
1000
0100
0010
0100
1000
0100
,
0010
0000
0001
1000
0001
0000
0100
0000
0010
0000
1000
0001
1000
0000
0100
0000
,
1000
0000
0001
0000
1000
0000
0001
0000
0100
0000
0010
0100
0010
0000
0100
0010
,
0100
0000
0010
1000
0010
0000
0100
0000
0001
0000
0010
0100
0010
0000
0001
1000
,
0010
0000
0100
0000
0001
1000
0001
0001
,
1000
0000
0010
0100
0010
0000
0100
0000
0001
0000
0010
0100
1000
0000
0100
0010
,
0001
0000
0100
0010
0100
0000
0010
1000
0001
0100
0001
0100
0001
0000
1000
0000
,
0001
0000
0100
0010
0100
0000
0001
0000
1000
0100
1000
0100
1000
0000
0001
0010
,
0100
0000
1000
0010
1000
0000
0001
0010
0001
1000
0100
0000
1000
0000
0010
0100
,
0001
0000
0100
0000
0010
0000
1000
0000
0010
0000
0100
0010
0000
0100
0001
0100
,
0001
0000
0010
0000
0100
0000
0010
0100
0010
0100
1000
0100
0000
1000
0001
0100
,
0010
0100
0010
0100
0010
0100
0010
0000
1000
0100
1000
0100
1000
0100
1000
0001
,
0010
0001
1000
0000
0020
0000
0130
0002
0000
1003
0100
0010
0001
0000
1001
0000
,
1000
0000
0100
1000
0100
0000
1000
0000
0001
0000
0010
0001
0010
0000
0001
0000
,
0100
0000
0010
0100
0010
0000
0100
0000
0001
0000
0010
0100
0010
0000
0100
0000
,
1000
0100
1000
0100
0010
0001
0010
0001
1000
0010
0100
0001
0100
0010
1000
0001
,
1000
0000
0001
0000
0010
0100
0010
0010
,
0001
0000
0100
0001
0100
0000
0010
0000
1000
0001
0000
0001
0010
0100
0000
0100
,
1000
0000
0010
0100
0010
0000
1000
0000
0001
1000
0000
1000
0010
0000
0000
0000
,
1000
0000
0001
0100
0010
0000
1000
0000
0100
0010
0100
0000
0010
0000
0001
0010
,
0100
0000
1000
0010
0100
0000
0010
0000
1000
0001
0010
0000
0110
0000
1001
0000
,
0001
0000
1000
0100
0010
0000
0001
0000
0100
0010
0100
0000
0010
0000
1000
0010
,
0100
0010
0100
0010
1000
0001
1000
0001
1000
0000
0001
0000
0010
0000
0010
0000
,
0001
0000
1000
0100
0010
0000
0100
0000
1000
0000
0001
0100
0010
0000
0100
0010
,
1000
0000
0001
0010
0100
0010
0100
0010
0001
0010
0100
1000
0001
0000
1000
0000
,
0010
0100
0010
0100
0010
0000
0100
0000
0001
1000
0001
1000
0001
0000
1000
0001
,
0100
0000
0010
0100
0001
0000
0100
0010
1000
0001
0100
0000
0001
0000
1000
0100
,
0010
0000
0000
0000
,
0000
0000
0000
0000
;
#NOTES:
     dance-double:
     :
     Easy:
     5:
     :
00000000
00000000
00000000
00000000
,
00000000
00000000
00000000
00000000
,
00000000
00000000
00000000
00000000
,
00000000
00000000
00000000
00000000
,
00000000
00000000
00000000
00000000
,
00000000
00000000
00000000
00000000
,
00000001
00001000
00000100
00000000
,
00010000
00001000
01000000
00000000
,
00010000
10000000
00100000
10000000
,
10010000
00000000
01100000
00000000
,
00010000
00100000
00001000
00010000
,
00001000
00000000
00010000
00000000
,
00000010
00001000
00000010
00000100
,
00000001
00001000
00000001
00000000
,
00001000
00000010
00010000
00000000
,
00001000
00100000
00010000
00000000
,
10000000
01000000
00100000
00000000
,
00010000
10000000
00010000
00000000
,
01000000
00001000
00010000
00000000
,
00001000
00010000
00000100
00000000
,
00001000
00000010
00001000
00000001
,
00000010
00000100
00001000
00000100
,
00010000
00001000
00100000
00010000
,
20000000
00000000
30200000
00000000
,
10300000
00010000
01000000
00001000
,
00010000
00001000
00010000
00000000
,
00000010
00001000
00000010
00001000
,
00000001
00000010
00000100
00000010
,
00000001
00001000
00000100
00010000
,
00011000
00000000
10010000
00000000
,
10000000
00100000
00010000
00000000
,
00001000
00000100
00000001
00000000
,
00001000
00000000
00000100
00000000
,
00010000
00000000
00011000
00000000
,
00001000
01000000
00010000
01000000
,
00100000
00000000
01000000
00000000
,
00010000
10000000
01000000
00100000
,
00010000
10000000
00010000
00000000
,
01000000
00000000
00001000
00000000
,
00010000
00000000
00000100
00000000
,
00001000
00000001
00001000
00000010
,
00010000
00001000
00100000
00010000
,
10000000
00010000
01000000
00001000
,
00010000
00001000
00010000
00000000
,
00001000
00000100
00000001
00000100
,
00000010
00001000
00000100
00000000
,
00010000
00001000
00100000
00010000
,
10000000
00010000
01000000
00100000
,
01100000
00000000
00000000
00000000
,
00000000
00000000
00000000
00000000
;
#NOTES:
     dance-double:
     :
     Medium:
     8:
     :
00000000
00000000
00000000
00000000
,
00000000
00000000
00000000
00000000
,
00000000
00000000
00000000
00000000
,
00000000
00000000
00000000
00000000
,
00000000
00000000
00000000
00000000
,
00000000
00000000
00000000
00000000
,
00001000
00010000
00001000
00000000
00010000
00000100
00001000
00000000
,
00000001
00000010
00000001
00000000
00000010
00000100
00001000
00000000
,
00000100
00010000
00001000
00000000
01000000
00010000
10000000
00000000
,
10010000
00000000
01010000
00000000
01000000
00001000
00010000
00000000
,
00000100
00001000
00000100
00000000
00001000
00000001
00001000
00000000
,
00000001
00000010
00000100
00001000
00000100
00010000
00001000
00000000
,
00100000
00010000
10000000
00100000
01000000
00010000
01000000
00001000
,
00010000
00000010
00000110
00000000
,
00000001
00000000
00001000
00000000
00000100
00001000
00000100
00000000
,
00010000
00000000
00001000
00000000
01000000
00010000
01000000
00100000
,
10000000
00000000
00010000
00000000
01000000
00010000
01000000
00000000
,
00001000
00010000
00011000
00000000
,
00010000
00000000
00000010
00000000
00001000
00000010
00001000
00000000
,
00000001
00000000
00000010
00000000
00000100
00001000
00000100
00000000
,
00010000
00001000
00010000
00000000
00001000
00100000
00010000
00000000
,
10000000
00100000
10000000
00000000
00010000
01000000
00001000
00000000
,
00010000
00001000
00000100
00000000
00000001
00000100
00001000
00000000
,
00010000
00100000
10000000
00010000
,
10000000
01000000
00010000
00000000
00001000
00000010
00000001
00000000
,
00001000
00000100
00011000
00000000
,
00001000
00000000
01000000
00000000
00010000
01000000
00010000
00000000
,
10000000
00000000
01000000
00000000
00100000
00010000
10000000
00000000
,
00100000
00010000
00001000
00000000
00010000
00001000
00000100
00000000
,
00000001
00000000
00001000
00000000
00000100
00000010
00000100
00000000
,
00000000
00000000
00000010
00000000
00000001
00000000
00001000
00000000
00000100
00000000
00000000
00000000
00000000
00010000
00000000
00000000
,
00000000
00000000
00001000
00000000
00100000
00000000
00010000
00000000
01000000
00000000
00000000
00000000
00000000
00100000
00000000
00000000
,
10000000
00010000
10000000
00000000
01000000
00100000
01000000
00000000
,
00100000
00000000
00000000
00000000
00001000
00000000
00000000
00022000
00000000
00000000
00000000
00000000
00033000
00000000
00000000
00000000
,
00001000
01000000
00010000
00000000
10000000
00100000
01000000
00000000
,
00010000
00100000
00001000
00000000
00010000
00001000
00010000
00000000
,
00000100
00000010
00000100
00000000
00001000
00000001
00001000
00000000
,
00000100
00010000
00011000
00000000
,
00001000
00100000
00010000
00100000
,
00010000
10000000
00100000
01000000
,
00010000
00100000
00010000
00100000
00001000
00010000
00000100
00001000
,
00000010
00000100
00000010
00000100
00000001
00001000
00000100
00010000
,
00001000
00010000
00001000
00010000
00001000
00100000
00010000
01000000
,
00100000
01000000
10010000
00000000
,
10000000
01000000
10000000
00010000
10000000
01000000
00010000
00001000
,
00010000
00000100
00010000
00001000
00010000
00001000
00000010
00000001
,
00000100
00000010
00001000
00000000
00000100
00010000
00001000
00000000
,
01000000
00000000
00010000
00000000
10000000
01000000
00100000
00010000
,
10000000
00000000
00000000
00000000
,
00000000
00000000
00000000
00000000
;
#NOTES:
     dance-double:
     :
     Hard:
     13:
     :
00000000
00000000
00000000
00000000
,
00000000
00000000
00000000
00000000
,
00000000
00000000
00000000
00000000
,
00000000
00000000
00000000
00000000
,
00000000
00000000
00000000
00000000
,
00000000
00000000
00000000
00000000
,
10000000
00000000
01000000
00100000
01000000
00000000
00100000
00000000
00010000
00000000
00100000
00000000
00001000
00000000
00010000
00000100
,
00001000
00000000
00000001
00000100
00000001
00000000
00000100
00000000
00000010
00001000
00000010
00000000
00010000
00001000
00010000
00000000
,
00001000
01000000
00001000
01000000
00010000
01000000
00010000
00000000
10000000
00100000
10000000
00100000
01000000
00010000
01000000
00000000
,
00001000
00010000
00001000
00010000
00000010
00001000
00000010
00001000
00000001
00000000
00000001
00000000
00001000
00000000
00001000
00000000
,
00000001
00000010
00000100
00001000
00000100
00010000
00001000
00100000
,
00010000
10000000
01000000
00100000
00010000
00100000
00001000
00010000
,
00001000
00010000
00001000
00010000
00001000
00010000
00001000
00010000
00000100
00001000
00000100
00001000
00000100
00001000
00000100
00001000
,
00000001
00000000
00001000
00000000
00000100
00000100
00010000
00001000
,
01000000
00000000
00010000
01000000
00010000
00000000
10000000
00000000
01000000
00100000
01000000
00000000
10000000
00000000
00010000
01000000
,
00001000
00000000
00010000
00001000
00010000
00000000
00000010
00000000
00001000
00000001
00000100
00000000
00000101
00000000
00001001
00000000
,
00001000
00000000
00000100
00010000
00000100
00000000
00010000
00000000
00001000
00100000
00001000
00000000
00100000
00000000
00010000
10000000
,
00100000
00000000
01000000
00000000
00001000
00010000
00001000
00001000
,
00010000
00000000
00000010
00000100
00000010
00000000
00001000
00000000
00000100
00000010
00000100
00000000
00000010
00000000
00000100
00010000
,
00001000
00000000
01000000
00100000
01000000
00000000
00010000
00000000
00100000
01000000
00100000
00000000
00010000
00000000
10000000
01000000
,
00100000
00000000
00010000
01000000
00010000
00000000
01000000
00000000
00001000
00010000
00000100
00010000
00001000
00010000
00000100
00010000
,
00001000
00000000
00010000
00000100
00001000
00000000
00000001
00000000
00000010
00000100
00001000
00000100
00000010
00000000
00000100
00000000
,
00001000
00000000
00000001
00000100
00000001
00000000
00000100
00000000
00001000
00000000
00010000
00001000
00010000
00000000
00001000
00000000
,
00010000
00000000
00100000
00000000
10000000
00000000
00100000
00000000
10000000
00000000
00100000
01000000
00100000
00000000
01000000
00000000
,
00010000
00000000
10000000
01000000
10000000
00000000
01000000
00000000
00010000
00000000
00001000
00010000
00001000
00000000
00010000
00000000
,
00000010
00000000
00001000
00000000
00000001
00001000
00000001
00000001
,
00001000
00000000
00000010
00000100
00000010
00000000
00001000
00000000
00000010
00000000
00010000
00001000
00100000
00000000
00001000
00100000
,
00010000
00000000
01000000
00100000
01000000
00000000
00010000
00000000
01000000
00001000
01000000
00001000
00010000
00000000
00000100
00000000
,
00001000
00000000
00000001
00000100
00000001
00000000
00000100
00000000
00000010
00001000
00000010
00000000
00001000
00000000
00000100
00000000
,
00010000
00000000
00001000
01000000
00010000
00000000
10000000
01000000
10000000
01000000
00100000
00000000
00010000
00000000
01000000
00000000
,
00001000
00000000
00010000
00000000
00001000
00000000
00000100
00000000
00000001
00000000
00001000
00000001
00000000
00001000
00000010
00001000
,
00000001
00000000
00000100
00000000
00001000
00000000
00010000
00001000
00010000
00001000
00100000
00010000
00000000
10000000
00000000
00010000
,
00100000
00001000
00100000
00001000
00010000
00001000
00010000
00000000
00000010
00010000
00000010
00010000
00001000
00010000
00001000
01000000
,
00010000
01000000
00100000
00000000
20000000
00000000
31000000
00020000
00000000
00031000
00010000
00001000
00000100
00000000
00000110
00000000
,
00000010
00000000
00001000
00000010
00001000
00000000
00000001
00000000
00001000
00000000
00000100
00010000
00000100
00000000
00010000
00000000
,
00001000
00000000
00100000
00010000
00100000
00000000
00010000
00000000
10000000
00000000
00010000
01000000
00010000
00000000
01000000
00000000
,
00001000
00010000
00001000
00010000
00000100
00001000
00000100
00000000
00000010
00000001
00001000
00000100
00010000
00001000
00100000
00000000
,
00010000
00000000
10000000
00000000
00100000
01000000
00100000
00100000
,
10000000
00000000
01000000
00000000
00010000
00000000
00001000
00000000
00000010
00000001
00000000
00000001
00001000
00000100
00000000
00000100
,
00000010
00000000
00000001
00000000
00000100
00000000
00001000
00000000
00010000
00100000
00000000
00100000
10000000
00000000
00000000
00000000
,
00010000
00000000
01000000
00001000
00010000
00000000
00000100
00000000
00010000
00001000
00010000
00000000
00000100
00000000
00001000
00000100
,
00000010
00000000
00000001
00001000
00000100
00000000
00010000
00000000
00001000
01000000
00001000
00000000
00010000
00000000
00011000
00000000
,
00010000
00000000
00000010
00001000
00000001
00000000
00001000
00000000
00000100
00010000
00000100
00000000
00010000
00000000
00001000
00100000
,
00010000
00100000
00010000
00100000
01000000
10000000
01000000
10000000
00010000
00000000
00100000
00000000
00001000
00000000
00001000
00000000
,
00010000
00000000
00001000
00000100
00000010
00000000
00001000
00000000
00000001
00000000
00000010
00000100
00001000
00000000
00000010
00010000
,
00001000
00000000
00010000
01000000
00100000
00000000
00010000
00000000
10000000
01000000
00100000
00010000
00100000
00000000
00001000
00000000
,
00010000
00000100
00010000
00000100
00001000
00000000
00000001
00000000
00001000
00000010
00001000
00000010
00010000
00000000
00001000
00010000
,
00001000
00000000
00100000
00010000
01000000
00000000
00001000
00010000
00000100
00001000
00000010
00000000
00000100
00000000
00000001
00000010
,
00000100
00000000
00000000
00000000
,
00000000
00000000
00000000
00000000
;
