
//----- song ID: ft2m -----//
#TITLE:MODEL FT2 Miracle Version;
#ARTIST:Mutsuhiko Izumi;
#BANNER:MODEL FT2 Miracle Version.png;
#BACKGROUND:MODEL FT2 Miracle Version-bg.png;
#CDTITLE:./CDTitles/GFDM V3.png;
#MUSIC:MODEL FT2 Miracle Version.ogg;
#SAMPLESTART:20.107;
#SAMPLELENGTH:15;
#BPMS:0=155;
#NOTES:
     dance-single:
     :
     Beginner:
     3:
     :
0000
0000
0000
0000
,
0000
0000
0000
0000
,
0000
0000
0000
0000
,
0000
0000
0000
0000
,
0000
0000
0000
0000
,
1000
0000
1000
0000
,
0001
0000
0001
0000
,
1000
0000
0001
0000
,
1000
0000
0001
0000
,
1000
0000
1000
0000
,
1000
0000
0000
0000
,
0001
0000
0001
0000
,
0001
0000
0000
0000
,
0010
0000
0010
0000
,
0010
0000
0000
0000
,
0100
0000
0100
0000
,
0100
0000
0000
0000
,
1000
0000
1000
0000
,
1000
0000
0000
0000
,
0001
0000
0001
0000
,
0001
0000
0000
0000
,
0010
0000
0000
0000
,
0010
0010
0010
0000
,
0001
0000
0000
0000
,
1000
0000
1000
0000
,
1000
1000
1000
0000
,
1000
0000
1000
0000
,
0001
0000
0001
0000
,
1000
0000
1000
0000
,
0001
0000
0001
0000
,
0010
0000
0010
0000
,
0010
0000
0010
0000
,
0100
0000
0100
0000
,
0100
0000
0100
0000
,
1000
0000
0000
0000
,
1000
0000
1000
0000
,
0001
0000
0000
0000
,
0001
0000
0001
0000
,
1000
0000
1000
0000
,
1000
0000
1000
0000
,
0001
0000
0001
0000
,
0001
0000
0001
0000
,
0010
0000
0010
0000
,
0010
0000
0010
0000
,
0001
0000
1000
0000
,
0001
0000
1000
0000
,
1000
0000
0000
0000
,
0100
0000
0000
0000
,
0010
0000
0000
0000
,
0001
0000
0001
0000
,
0001
0000
0000
0000
,
0010
0000
0000
0000
,
0100
0000
0000
0000
,
1000
0000
1000
0000
,
1000
0000
1000
0000
,
1000
0000
0000
0000
,
0001
0000
0001
0000
,
0001
0000
0000
0000
,
0010
0000
0000
0000
,
0010
0010
0010
0000
,
0001
0000
1000
0000
,
1000
0000
1000
0000
,
1000
1000
1000
0000
,
0001
0001
0001
0000
,
0000
0000
0000
0000
;
#NOTES:
     dance-single:
     :
     Easy:
     5:
     :
0000
0000
0000
0000
,
0000
0000
0000
0000
,
0000
0000
0000
0000
,
0000
0000
0000
0000
,
0000
0000
0000
0000
,
1000
0100
1000
0000
,
0001
0010
0001
0000
,
1000
0000
0001
0000
,
1000
0001
1001
0000
,
1000
0001
0100
0000
,
0001
1000
0100
0000
,
2000
3000
0001
0010
,
0200
0300
1000
0001
,
1000
0010
0100
0000
,
0001
0010
0100
0000
,
2000
3000
0100
0010
,
0200
0300
1000
0001
,
2000
3000
1000
0100
,
1000
0000
0001
1000
,
0002
0003
0001
0100
,
0001
0000
0010
0100
,
0020
0000
0030
0000
,
0001
0010
0200
0300
,
1000
0001
0010
0100
,
1000
1000
0001
0001
,
1000
0001
1001
0000
,
1000
0100
1000
0010
,
0100
0001
0010
0001
,
1000
0010
1000
0000
,
0001
0010
0001
0000
,
0001
0100
0001
0010
,
0100
1000
0010
1000
,
0001
0010
0001
0000
,
1000
0010
1000
0000
,
1000
0100
1000
0100
,
0010
0000
0001
0000
,
0001
0100
0001
0100
,
0010
0000
1000
0000
,
1000
1000
0001
0001
,
0010
0010
0100
0100
,
1000
1000
0001
0001
,
0010
0010
0100
0000
,
1000
0001
1000
0000
,
0010
0100
0010
0000
,
1000
0100
0010
0001
,
1000
0100
1001
0000
,
2000
3000
0100
0010
,
0002
0003
0010
0100
,
2000
3000
0002
0003
,
2000
3000
0001
0001
,
2000
3000
0010
0100
,
0002
0003
0100
0010
,
2000
3000
0002
0003
,
2000
3000
0001
0001
,
1000
1000
0100
1000
,
0001
0001
0010
0000
,
0001
0001
0010
0001
,
1000
1000
0100
0000
,
1000
1000
0001
0001
,
0010
0100
0110
0000
,
0001
0001
1000
1000
,
0001
1000
0010
0100
,
0001
1000
1001
0000
,
0010
0100
1001
0000
,
0000
0000
0000
0000
;
#NOTES:
     dance-single:
     :
     Medium:
     11:
     :
0000
0000
0000
0000
,
0000
0000
0000
0000
,
0000
0000
0000
0000
,
0000
0000
0000
0000
,
0000
0000
0000
0000
,
1000
0100
1000
0000
0001
0010
0001
0000
,
1000
0001
0010
0000
0001
1000
0010
0000
,
1000
0100
1000
0100
0010
0001
0010
0000
,
0001
1000
0100
0000
1000
1001
0000
0000
,
2000
0000
3000
0001
0010
0100
1000
0000
,
0100
1000
0001
0010
0200
0000
0320
0000
,
0032
0000
0003
0000
1000
0100
0010
0001
,
0020
0000
0030
0000
0002
0003
2000
3000
,
0002
0000
0003
1000
0100
0010
0100
0000
,
1000
0001
0010
0100
2000
0000
3020
0000
,
0230
0000
0300
0000
0001
0100
0001
0010
,
0200
0000
0300
0000
2000
3000
0002
0003
,
2000
0000
0000
3000
0010
0100
0000
0100
,
0020
0000
0000
0030
1000
0100
0010
0001
,
0020
0000
0000
0030
0001
1000
0000
1000
,
0200
0000
0000
0300
1000
0100
0010
0001
,
0020
0000
0001
0130
,
1001
0110
2002
3003
,
0001
0000
0000
0010
0000
0000
0100
0000
0000
0010
0000
0000
0001
0000
0000
0000
,
1000
0010
1000
0000
0001
0010
0001
0000
,
1000
0000
0000
0001
0000
0000
1000
0000
1001
0000
0000
0000
0000
0000
0000
0000
,
1000
0001
0100
0000
0100
0001
1000
0000
,
1000
0100
0001
0000
0001
0100
1000
0000
,
0001
0100
0010
1000
0100
0010
0001
0100
,
0010
1000
0100
0010
0001
0000
1000
0000
,
0001
0100
0010
0000
0010
0100
0001
0000
,
0001
0100
1000
0000
1000
0100
0001
0000
,
1000
0100
0010
0001
0100
0010
1000
0100
,
0010
0001
0100
0010
1000
0000
0001
0000
,
1000
1000
0000
0000
0001
0000
0100
0000
,
0010
0000
0000
1000
0000
0000
0000
0000
0001
0000
0000
0100
0000
0000
0000
0000
,
0001
0001
0000
0000
1000
0000
0100
0000
,
0010
0001
1000
0100
,
2000
3200
0302
0203
,
1300
0100
1000
0000
0001
0100
0001
0000
,
0002
0203
2300
3200
,
0301
0100
0001
0000
1000
0100
1000
0000
,
1000
0010
0100
0000
0001
0010
0100
0000
,
2000
3001
0002
1003
,
2000
3200
0320
0032
,
2003
0000
3002
0000
1003
1001
0000
0000
,
2000
0000
3000
0001
0010
0100
1000
0000
,
0100
1000
0001
0010
0200
0000
0320
0000
,
0032
0000
0003
0000
1000
0100
0010
0001
,
0020
0000
0030
0000
0002
0003
2000
3000
,
0002
0000
0003
1000
0100
0010
0100
0000
,
1000
0001
0010
0100
2000
0000
3020
0000
,
0230
0000
0300
0000
0001
0100
0001
0010
,
0200
0000
0300
0000
2000
3000
0002
0003
,
0020
0000
0000
0030
0001
1000
0000
1000
,
0100
0000
0000
0010
0000
0000
0001
0000
0000
1000
0000
0000
0000
0000
0000
0000
,
2000
0000
0000
3000
0010
0100
0000
0100
,
0001
0000
0000
0010
0000
0000
0001
0000
0000
0100
0000
0000
0000
0000
0000
0000
,
0020
0000
0100
0130
,
1001
0110
2002
3003
,
0001
0000
0000
0010
0000
0000
0100
0000
0000
1000
0000
0000
0100
0000
0000
0000
,
1000
0010
1000
0000
0001
0100
0001
0000
,
1000
0000
0000
0010
0000
0000
1000
0000
1001
0000
0000
0000
0000
0000
0000
0000
,
0001
0000
0000
0100
0000
0000
0001
0000
1001
0000
0000
0000
0000
0000
0000
0000
,
0000
0000
0000
0000
;
#NOTES:
     dance-single:
     :
     Hard:
     15:
     :
0000
0000
0000
0000
,
0000
0000
0000
0000
,
0000
0000
0000
0000
,
0000
0000
0000
0000
,
0000
0000
0000
0000
,
1000
0000
0001
0010
0001
0000
1000
0000
0001
0000
1000
0010
1000
0000
0001
0000
,
1000
0000
0010
0100
0010
0000
1000
0000
0001
0000
0010
0100
0010
0000
0001
0000
,
0100
0000
0010
0100
0001
0000
0010
0100
1000
0000
0001
0010
0001
0010
0001
0000
,
1000
0100
1000
0100
1000
0000
0001
0010
0100
0000
1100
0000
0000
0000
1000
0100
,
2000
0000
0000
0000
3001
0000
1000
0000
0001
0010
0001
0000
1000
0000
0001
0000
,
0100
0000
0010
0000
1000
0000
0100
1000
0200
0000
0000
0000
0320
0000
0000
0000
,
0032
0000
0000
0000
0000
0000
0003
0000
0001
0100
0001
0100
0010
1000
0010
1000
,
0020
0000
0000
0000
0000
0000
0030
0000
2000
0000
0000
0000
3200
0000
0310
0100
,
0010
0000
0001
0000
0100
0000
0010
0000
1000
0010
1000
0000
0010
0000
0100
0000
,
0001
0000
0100
0000
1000
0000
0100
0010
0200
0000
0000
0000
0320
0000
0000
0000
,
2030
0000
0000
0000
0000
0000
3000
0000
1000
0100
1000
0100
0010
0001
0010
0001
,
0020
0000
0000
0030
1001
0000
0110
0000
,
1000
0000
0000
1000
0100
0000
0010
0000
0001
0000
0000
0001
0010
0000
0100
0000
,
1000
0010
0000
0100
0010
0000
1000
0100
0000
0010
0001
0000
1000
0100
0010
0001
,
1000
0000
0000
1000
0010
0000
0100
0000
0001
0000
0000
0001
0100
0000
0010
0000
,
1000
0100
0000
0010
0100
0000
1000
0010
0000
0100
0001
0000
1000
0010
0100
0001
,
2000
0000
0000
3000
,
2000
0000
3010
0100
0002
0000
0013
0100
2000
0000
0000
0000
0000
0000
3000
0000
,
0001
0010
0000
0100
1000
0000
0010
0100
0000
0001
1000
0000
0010
0000
1000
0000
,
0001
0010
0001
0010
0100
0000
1000
0000
0001
0100
0001
0100
0010
0000
1000
0000
,
0010
0100
0000
0001
0100
0000
0010
1000
0001
0000
0000
0000
0000
0000
0000
0000
,
2000
0000
0000
3000
,
1000
0001
0010
1000
0001
0100
1000
0010
,
0001
1000
0010
1000
0100
0001
1000
0100
,
0001
0010
0001
0100
1000
0001
1000
0001
,
2000
0000
0000
0000
3001
0100
0001
0100
,
0001
1000
0010
0001
1000
0100
0001
0010
,
1000
0001
0010
0001
0100
1000
0001
0100
,
0001
0100
0001
0000
1000
0010
1000
0000
0002
0000
0000
0000
2003
0000
0000
0000
,
3001
0000
1000
0000
0001
0100
0001
0000
1000
0100
1000
0000
0001
0010
0100
0000
,
0110
0000
0000
1001
0000
0000
0000
0000
1010
0000
0000
0011
0000
0000
0000
0000
,
1000
0000
0001
0000
1000
0000
0010
0100
0010
0100
0010
0000
1000
0000
0100
0010
,
0001
0110
1001
1001
,
0002
1000
1003
2000
0100
3100
0200
0310
,
0002
0000
1000
1003
2000
0000
0010
3010
,
0020
1000
1030
2000
0100
3100
0200
0310
,
0002
0000
1000
1003
2000
0000
0001
3001
,
1000
0100
0001
0100
1000
0010
0001
0010
,
2000
0000
0000
3000
0002
0000
0000
0003
,
1000
0000
0100
1000
0010
0000
0100
0010
1000
0000
0001
0010
0100
0000
0010
0100
,
1000
0000
0010
0100
0001
0000
1000
0100
1000
0000
1001
0000
0000
0000
1000
0100
,
2000
0000
0000
0000
3000
0000
0001
0000
0100
0010
0100
0000
0001
0000
1000
0000
,
0100
0000
0010
0000
0001
0000
0100
0010
0200
0000
0000
0000
0320
0000
0000
0000
,
2030
0000
0000
0000
0000
0000
3000
0000
0001
0100
0001
0100
0010
1000
0010
1000
,
0020
0000
0000
0000
0000
0000
0030
0000
2000
0000
0000
0000
3100
0000
0010
0100
,
2000
0000
0000
0000
3000
0000
0001
0000
1000
0010
0100
0000
0010
0000
0100
0000
,
0001
0000
1000
0000
0100
0000
0010
0100
0020
0000
0000
0000
0032
0000
0000
0000
,
2003
0000
0000
0000
0000
0000
3000
0000
0001
0010
0001
0010
0100
1000
0100
1000
,
0002
0000
0000
0003
1001
0000
0110
0000
,
2002
0000
0000
0000
3003
0000
0000
0000
1000
0000
0200
0000
0000
0000
1300
0100
,
0010
0100
0000
1000
0100
0000
0010
0001
0000
1000
0100
0000
1000
0100
0010
0001
,
2000
0000
0000
0000
0000
0000
3000
0000
0001
0000
0200
0000
0000
0000
0301
0100
,
0010
0100
0000
0001
0100
0000
0010
1000
0000
0001
0100
0000
0001
0100
0010
1000
,
0002
0100
1000
0013
,
0002
0000
0013
0100
2000
0000
3010
0100
0002
0000
0000
0000
1000
0000
0003
0000
,
1000
0100
0000
0010
0100
0000
1000
0001
0000
0100
0010
0000
1000
0000
0001
0000
,
1000
0100
1000
0100
0010
0000
0001
0000
1000
0010
1000
0010
0100
0000
0001
0000
,
1000
0100
0000
1000
0100
0000
0010
0001
0010
0000
0000
0000
0000
0000
0000
0000
,
0100
1000
0000
0100
1000
0000
0010
1000
0001
0000
0000
0000
0000
0000
0000
0000
,
0000
0000
0000
0000
;
#NOTES:
     dance-single:
     :
     Challenge:
     18:
     :
0000
0000
0000
0000
,
0000
0000
0000
0000
,
0000
0000
0000
0000
,
0000
0000
0000
0000
,
0000
0000
0000
0000
0000
0000
0000
0000
0000
0000
0000
0000
0010
0001
0010
0001
,
1000
0000
0100
1000
0100
0000
1000
0100
1000
0100
1000
0000
0100
0000
1000
0100
,
0010
0000
0001
0010
0001
0000
0010
0001
0010
0001
0010
0000
0001
0000
0010
0001
,
0100
0000
0010
0100
0010
0000
0100
0010
0100
0010
0100
0000
0010
0000
1000
0001
,
0100
0010
0001
0000
0010
0000
0100
0010
1000
0000
1001
0000
0000
0000
1000
0010
,
0100
0000
0001
0010
0100
0000
1000
0100
1000
0010
0001
0010
1000
0000
0010
0100
,
0001
0000
0010
0100
1000
0000
0001
0100
0001
0010
1000
0010
0001
0000
1000
0100
,
1000
0000
0001
0010
0001
0000
1000
0100
1000
0010
0001
1000
0100
0001
1000
0010
,
0002
0000
0010
0000
0013
0000
0010
0100
0002
0000
0000
0000
2003
0000
0001
0000
,
3001
0000
1000
0100
1000
0000
0001
0010
0001
0000
0010
0001
0010
0100
1000
0010
,
0100
0000
1000
0100
1000
0000
0100
0001
0100
0000
0010
0100
1000
0100
0010
0100
,
0001
0000
1000
0100
0010
0000
0100
0010
0001
0100
0001
1000
0010
0100
1000
0100
,
0001
0010
0001
1000
0010
0100
0000
0100
0020
0000
0000
0000
0230
0000
0000
0000
,
0301
0000
1000
0010
1000
0001
0100
0001
0020
0000
0032
0000
0000
0000
0003
0000
,
0001
0010
0001
0000
0000
0000
1000
0100
1000
0000
0000
0000
0001
0010
0001
0000
0000
0000
1000
0000
0100
0000
0010
0000
0001
0000
1000
0000
0100
0000
0010
0000
,
0002
1000
1003
0001
0002
2003
0000
3000
,
0001
0010
0001
0000
0000
0000
1000
0100
1000
0000
0000
0000
0001
0010
0001
0000
0000
0000
1000
0000
0100
0000
0010
0000
0001
0000
1000
0000
0100
0000
0010
0000
,
0002
0000
0000
0000
0000
0000
0003
0000
1000
0010
0001
1000
0001
1000
0001
0010
,
2000
0000
0000
0000
0000
0000
0000
0000
0000
0000
0000
0000
3002
0000
0000
0000
0000
0000
0000
0000
0000
0003
0000
0000
0001
0000
0010
0000
0100
0000
1000
0000
0001
0000
0010
0000
0100
0000
1000
0000
0001
0000
0010
0000
0100
0000
1000
0000
,
0001
0001
0000
1000
1000
0000
0010
0010
0000
0100
0100
0000
0010
0000
0010
0000
,
1000
0100
0001
1000
0001
0100
1000
0001
1000
0010
0001
1000
0001
0010
1000
0001
,
1000
1000
0000
0001
0001
0000
1000
0001
1001
0000
1000
0100
1000
0100
1000
0200
,
0000
0000
0310
0100
0010
0000
0100
0000
0001
0000
0100
0000
0010
0100
1000
0000
,
0010
0000
0100
0010
0001
0000
1000
0000
0100
0000
0010
0000
1000
0100
0010
0001
,
1000
0000
0001
0100
0001
0000
1000
0010
1000
0000
0001
0100
0001
0100
0010
1000
,
0001
0100
0010
1000
0001
0100
0010
1000
0001
0010
0100
1000
0001
0010
0100
1000
,
0002
0000
0000
0000
1003
0000
0010
0100
0010
0000
0001
0000
0010
0100
0010
0000
,
2000
0000
3010
0100
0001
0010
0200
0000
0000
0000
0310
0000
0001
0000
0100
0010
,
0100
0010
0100
0000
0001
0000
1000
0010
0100
0000
1000
0000
0100
0010
0100
0000
,
0001
0010
0001
0100
0001
1000
0001
0010
0001
0000
0000
0000
0001
0000
0000
0000
,
1000
0000
0010
0000
0001
0000
0010
0000
0100
0000
0001
0000
1000
0000
0100
0000
0010
0000
0001
0010
0001
0000
1000
0100
1000
0000
0000
0000
0000
0000
0000
0000
,
1000
0000
0000
0000
0020
0030
0000
0000
0000
0000
0000
0000
0020
0030
0000
0000
0001
0000
0000
0000
0000
0000
0000
0000
0000
0000
0000
0000
0000
0000
0000
0000
0001
0000
0000
0000
0200
0300
0000
0000
0000
0000
0000
0000
0200
0300
0000
0000
1000
0000
0000
0000
0000
0000
0000
0000
0000
0000
0000
0000
0000
0000
0000
0000
,
1000
0000
0100
0000
0001
0000
0100
0000
0010
0000
0001
0000
1000
0000
0010
0000
0100
0000
0001
0100
0001
0000
1000
0010
1000
0000
0000
0000
0000
0000
0000
0000
,
0001
0000
0000
0000
0020
0030
0000
0000
0000
0000
0000
0000
0020
0030
0000
0000
1000
0000
0000
0000
0000
0000
0000
0000
0000
0000
0000
0000
0000
0000
0000
0000
1000
0000
0000
0000
0200
0300
0000
0000
0000
0000
0000
0000
0200
0300
0000
0000
0001
0000
0000
0000
0000
0000
0000
0000
0000
0000
0000
0000
0000
0000
0000
0000
,
1000
0000
1000
0000
0001
0000
1000
0100
1000
0100
1000
0000
0001
0000
1000
0000
,
0002
1000
2003
0010
3020
0100
0230
0301
,
1000
0000
1000
0000
0001
0000
1000
0100
1000
0100
1000
0000
0001
0000
1000
0000
,
0200
1000
2300
0001
3002
0010
0023
0130
,
1000
0000
0100
1000
0001
0000
1000
0000
0100
1000
0100
0000
0001
0000
0100
0000
,
1000
0100
0010
0000
0001
0010
0100
0000
1000
0100
0010
0001
1000
0100
0010
0001
,
1000
0000
1000
0100
0010
0000
0010
0001
0100
0000
0100
0010
1000
0000
1000
0010
,
0100
0000
0100
0001
0010
0000
0010
0001
1000
0000
1001
0000
0000
0000
0001
0010
,
0100
0000
1000
0010
0100
0000
0001
0100
0001
0010
1000
0010
0001
0000
0010
0100
,
1000
0000
0010
0100
0001
0000
1000
0100
1000
0010
0001
0010
1000
0000
0001
0100
,
0001
0000
1000
0010
1000
0000
0001
0100
0001
0010
1000
0001
0100
1000
0001
0010
,
2000
0000
0010
0000
3010
0000
0010
0100
2000
0000
0000
0000
3001
0000
0000
0000
,
2000
0000
0000
0100
0100
0000
0000
0010
0010
0000
0000
0001
0001
0000
0000
0001
,
3002
0000
0000
0010
0010
0000
0000
0100
0100
0000
0000
1000
1000
0000
0000
1000
,
2003
0000
0000
0010
0010
0000
0000
0100
0100
0000
0000
0001
3001
0000
0000
0000
,
1000
0100
1000
0001
0010
0001
1000
0100
1000
0001
0010
0001
2000
0000
0000
0000
0000
0000
3002
0000
0000
0000
0000
0000
,
1003
0000
1000
0100
1000
0001
0010
0001
0200
0000
0302
0000
0000
0000
0003
0000
,
0001
0100
0001
0000
0000
0000
1000
0010
1000
0000
0000
0000
0001
0100
0001
0000
0000
0000
1000
0000
0100
0000
0010
0000
0001
0000
1000
0000
0100
0000
0010
0000
,
0002
1000
1003
0001
0002
2003
0000
3000
,
0001
0100
0001
0000
0000
0000
1000
0010
1000
0000
0000
0000
0001
0100
0001
0000
0000
0000
1000
0000
0100
0000
0010
0000
0001
0000
1000
0000
0100
0000
0010
0000
,
0002
0000
0000
0000
0000
0000
0003
0000
1000
0010
0001
1000
0001
1000
0001
0010
,
2000
0000
0000
0000
0000
0000
0000
0000
0000
0000
0000
0000
3002
0000
0000
0000
0000
0000
0000
0000
0000
0003
0000
0000
0001
0000
0010
0000
0100
0000
1000
0000
0001
0000
0010
0000
0100
0000
1000
0000
0001
0000
0010
0000
0100
0000
1000
0000
,
0001
0001
0000
1000
1000
0000
0010
0010
0000
0100
0100
0000
0010
0000
0010
0000
,
1000
0100
1000
0010
1000
0001
1000
0100
1000
0001
0100
0001
0010
0001
1000
0001
,
1000
1100
0000
0001
0011
0000
0100
0010
0110
0000
0100
0100
0100
0100
0100
0100
,
0010
0100
0000
0010
0100
0000
1000
0001
1001
0000
0000
0000
0000
0000
0000
0000
,
0000
0000
0000
0000
;
#NOTES:
     dance-double:
     :
     Easy:
     6:
     :
00000000
00000000
00000000
00000000
,
00000000
00000000
00000000
00000000
,
00000000
00000000
00000000
00000000
,
00000000
00000000
00000000
00000000
,
00000000
00000000
00000000
00000000
,
10000000
01000000
00100000
00000000
,
00010000
00100000
00001000
00000000
,
00010000
00000000
00001000
00000000
,
00000010
00000001
00001001
00000000
,
00000001
00001000
00000100
00000000
,
00001000
00000001
00000100
00000000
,
00000020
00000030
00000100
00001000
,
00020000
00030000
00001000
00010000
,
00001000
00100000
00010000
00000000
,
10000000
01000000
00100000
00000000
,
02000000
03000000
00100000
00001000
,
00020000
00030000
00001000
00000010
,
00000200
00000300
00001000
00000100
,
00010000
00000000
00010000
00001000
,
02000000
03000000
00010000
01000000
,
00010000
00000000
10000000
01000000
,
00020000
00000000
00030000
00000000
,
00001000
00010000
00002000
00000000
,
00000000
00010000
00000000
00003100
,
00000010
00000010
00001000
00001000
,
00000001
00001000
00001001
00000000
,
00000002
00000010
00000000
00000103
,
00000100
00000010
00001000
00000100
,
00010000
00001000
00100000
00000000
,
00010000
00100000
01000000
00000000
,
20000000
00100000
00000000
31000000
,
01000000
00100000
00010000
01000000
,
00001000
00010000
00000010
00000000
,
00001000
00000010
00000100
00000000
,
00000001
00000100
00000001
00000100
,
00001000
00000000
00010000
00000000
,
00100000
10000000
00100000
10000000
,
01000000
00000000
00010000
00000000
,
00001000
00001000
00010000
00010000
,
00001000
00000010
00000100
00010000
,
00010000
00010000
00001000
00001000
,
00010000
00100000
01000000
00000000
,
00010000
10000000
00010000
00000000
,
00100000
00001000
00100000
00000000
,
00001000
00010000
00000100
00000010
,
00000001
00001000
00001001
00000000
,
00000002
00000003
00000100
00000010
,
00020000
00030000
00001000
00100000
,
02000000
03000000
20000000
30000000
,
00020000
00030000
10000000
10000000
,
20000000
30000000
01000000
00100000
,
00002000
00003000
00010000
00000010
,
00000200
00000300
00000002
00000003
,
00002000
00003000
00000001
00001000
,
00000200
00000300
00001000
00000100
,
00010000
00000000
00010000
00001000
,
02000000
03000000
00010000
01000000
,
00010000
00000000
10000000
01000000
,
00020000
00000000
00030000
00000000
,
00001000
00010000
00002000
00000000
,
00000000
00010000
00000000
00003100
,
00000010
00000010
00010000
00010000
,
00001000
00010000
00011000
00000000
,
00100000
01000000
10010000
00000000
,
00000000
00000000
00000000
00000000
;
#NOTES:
     dance-double:
     :
     Medium:
     12:
     :
00000000
00000000
00000000
00000000
,
00000000
00000000
00000000
00000000
,
00000000
00000000
00000000
00000000
,
00000000
00000000
00000000
00000000
,
00000000
00000000
00000000
00000000
,
00000001
00000010
00000001
00000000
00000010
00000001
00000010
00000000
,
00000100
00010000
00001000
00000000
00001000
00010000
00000100
00000000
,
00010000
00001000
00010000
00100000
01000000
00010000
10000000
00000000
,
00010000
10000000
01000000
00000000
10000000
10010000
00000000
00000000
,
20000000
00000000
30000000
00010000
00100000
01000000
00100000
00000000
,
00100000
00001000
00010000
00001000
00020000
00000000
00030020
00000000
,
00002030
00000000
00003000
00000000
00001000
00000100
00000010
00000001
,
00000020
00000000
00000030
00000000
00000002
00000003
00002000
00003000
,
00000002
00000000
00000003
00001000
00000010
00000100
00000010
00000000
,
00000010
00010000
00001000
00010000
00002000
00000000
00203000
00000000
,
00320000
00000000
00030000
00000000
10000000
01000000
00100000
00010000
,
00200000
00000000
00300000
00000000
00002000
00003000
00020000
00030000
,
00002000
00000000
00000000
00003000
00000010
00000100
00000000
00000100
,
00000020
00000000
00000000
00000030
00000100
00001000
00000100
00010000
,
00002000
00000000
00000000
00003000
00100000
01000000
00000000
01000000
,
00200000
00000000
00000000
00300000
01000000
00100000
00010000
00001000
,
00000200
00000000
00000000
00000300
,
00001001
00001100
00020200
00030300
,
00010000
00000000
00000000
00000010
00000000
00000000
00000100
00000000
00000000
00001000
00000000
00000000
00010000
00000000
00000000
00000000
,
00001000
00100000
00001000
00000000
00100000
00010000
00100000
00000000
,
00010000
00000000
00000000
10000000
00000000
00000000
00010000
00000000
10010000
00000000
00000000
00000000
00000000
00000000
00000000
00000000
,
10000000
00010000
01000000
00000000
01000000
00010000
10000000
00000000
,
10000000
01000000
00010000
00000000
00010000
01000000
10000000
00000000
,
10000000
01000000
00100000
00010000
00001000
00000100
00001000
00010000
,
00001000
00000100
00000010
00000001
00001000
00000000
00000001
00000000
,
00000001
00001000
00000100
00000000
00000100
00001000
00000001
00000000
,
00000001
00000100
00001000
00000000
00001000
00000100
00000001
00000000
,
00000001
00000100
00000010
00001000
00010000
01000000
00010000
00001000
,
00010000
01000000
00100000
10000000
00010000
00000000
10000000
00000000
,
01000000
01000000
00000000
00000000
00100000
00000000
01000000
00000000
,
00100000
00000000
00000000
00010000
00000000
00000000
00000000
00000000
00001000
00000000
00000000
00000100
00000000
00000000
00000000
00000000
,
00000010
00000010
00000000
00000000
00000001
00000000
00000100
00000000
,
00001000
00010000
00100000
10000000
,
02000000
03020000
00032000
00003020
,
00000031
00000010
00000001
00000000
00001000
00000100
00001000
00000000
,
00000020
00002030
00023000
02030000
,
03010000
01000000
00010000
00000000
10000000
00100000
10000000
00000000
,
00100000
01000000
00010000
00000000
00100000
00001000
00010000
00000000
,
00002000
00003010
00000020
00000031
,
00000002
00000023
00000230
00002300
,
00023000
00000000
02030000
00000000
03010000
10010000
00000000
00000000
,
20000000
00000000
30000000
00010000
00100000
01000000
00100000
00000000
,
00100000
00001000
00010000
00001000
00020000
00000000
00030020
00000000
,
00002030
00000000
00003000
00000000
00001000
00000100
00000010
00000001
,
00000020
00000000
00000030
00000000
00000002
00000003
00002000
00003000
,
00000002
00000000
00000003
00001000
00000010
00000100
00000010
00000000
,
00000010
00010000
00001000
00010000
00002000
00000000
00203000
00000000
,
00320000
00000000
00030000
00000000
10000000
01000000
00100000
00010000
,
00200000
00000000
00300000
00000000
00002000
00003000
00020000
00030000
,
00002000
00000000
00000000
00003000
00000100
00000010
00000000
00000010
,
00001000
00000000
00000000
00010000
00000000
00000000
01000000
00000000
00000000
00100000
00000000
00000000
00000000
00000000
00000000
00000000
,
20000000
00000000
00000000
30000000
01000000
00100000
00000000
00100000
,
00010000
00000000
00000000
00001000
00000000
00000000
00000100
00000000
00000000
00000010
00000000
00000000
00000000
00000000
00000000
00000000
,
00000002
00000000
00001000
00001003
,
00001010
00011000
00220000
00330000
,
10000000
00000000
00000000
01000000
00000000
00000000
00010000
00000000
00000000
00001000
00000000
00000000
00000010
00000000
00000000
00000000
,
00000001
00000010
00000001
00000000
00001000
00000100
00010000
00000000
,
00001000
00000000
00000000
00100000
00000000
00000000
00010000
00000000
10010000
00000000
00000000
00000000
00000000
00000000
00000000
00000000
,
00010000
00000000
00000000
00100000
00000000
00000000
00001000
00000000
00011000
00000000
00000000
00000000
00000000
00000000
00000000
00000000
,
00000000
00000000
00000000
00000000
;
#NOTES:
     dance-double:
     :
     Hard:
     15:
     :
00000000
00000000
00000000
00000000
,
00000000
00000000
00000000
00000000
,
00000000
00000000
00000000
00000000
,
00000000
00000000
00000000
00000000
,
00000000
00000000
00000000
00000000
,
10000000
00000000
00010000
00100000
00010000
00000000
00100000
00000000
00001000
00000000
00010000
00001000
00010000
00000000
00000100
00000000
,
00001000
00000000
00000010
00001000
00000010
00000000
00000100
00000000
00000001
00000000
00001000
00000100
00001000
00000000
00000010
00000000
,
00010000
00000000
00000100
00010000
00001000
00000000
00100000
00010000
01000000
00000000
00010000
00100000
00010000
00100000
00010000
00000000
,
10000000
01000000
10000000
01000000
10000000
00000000
00010000
00100000
00001000
00000000
00011000
00000000
00000000
00000000
00010000
00000100
,
00002000
00000000
00000000
00000000
00003010
00000000
00001000
00000000
00000001
00000010
00000001
00000000
00000100
00000000
00001000
00000000
,
00010000
00000000
00100000
00000000
10000000
00000000
01000000
10000000
02000000
00000000
00000000
00000000
03200000
00000000
00000000
00000000
,
00302000
00000000
00000000
00000000
00000000
00000000
00003000
00000000
00001000
00010000
00001000
00010000
00000010
00001000
00000010
00001000
,
00000020
00000000
00000000
00000000
00000000
00000000
00000030
00000000
00002000
00000000
00000000
00000000
00003200
00000000
00010300
00001000
,
00010000
00000000
00001000
00000000
00100000
00000000
00010000
00000000
10000000
00100000
10000000
00000000
01000000
00000000
00010000
00000000
,
00001000
00000000
00000010
00000000
00000001
00000000
00000100
00000001
00000200
00000000
00000000
00000000
00000320
00000000
00000000
00000000
,
00020030
00000000
00000000
00000000
00000000
00000000
00030000
00000000
00010000
00001000
00010000
00001000
00100000
00010000
00100000
00010000
,
00200000
00000000
00000000
00300000
10010000
00000000
00110000
00000000
,
00100000
00000000
00000000
00100000
01000000
00000000
00010000
00000000
01000000
00000000
00000000
01000000
00010000
00000000
00001000
00000000
,
00010000
00001000
00000000
00000010
00000100
00000000
00001000
00000100
00000000
00000010
00000001
00000000
00001000
00000100
00000010
00000001
,
00000100
00000000
00000000
00000100
00000010
00000000
00001000
00000000
00000010
00000000
00000000
00000010
00001000
00000000
00010000
00000000
,
01000000
00010000
00000000
00100000
00010000
00000000
10000000
00100000
00000000
01000000
00010000
00000000
10000000
00100000
01000000
00010000
,
20000000
00000000
00000000
30000000
,
20000000
00000000
31000000
00100000
02000000
00000000
03010000
00001000
00020000
00000000
00000000
00000000
00000000
00000000
00030000
00000000
,
00000100
00001000
00000000
00000010
00000100
00000000
00000001
00001000
00000000
00000010
00001000
00000000
00000001
00000000
00000100
00000000
,
00000010
00000100
00000010
00000100
00001000
00000000
00010000
00000000
00100000
01000000
00100000
01000000
00010000
00000000
10000000
00000000
,
00100000
01000000
00000000
00010000
00100000
00000000
00001000
00010000
00001000
00000000
00000000
00000000
00000000
00000000
00000000
00000000
,
00020000
00000000
00000000
00030000
,
00001000
00010000
00000100
00000010
00001000
00010000
01000000
00010000
,
00001000
01000000
00100000
10000000
00010000
01000000
10000000
01000000
,
00010000
00001000
00000010
00000001
00000010
00000100
00001000
00010000
,
00002000
00000000
00000000
00000000
00000000
00000000
00000000
00003000
,
00010000
00001000
01000000
00100000
00010000
00001000
00000100
00001000
,
00010000
00000100
00000010
00000001
00001000
00000100
00000001
00000100
,
00001000
00010000
00100000
10000000
00200000
00000000
00320000
00000000
,
10030000
00000000
10000000
00000000
00010000
00100000
01000000
00000000
00100000
00000000
00100000
00000000
00001000
00010000
00001000
00000000
,
00011000
00000000
00000000
00001010
00000000
00000000
00000000
00000000
00000110
00000000
00000000
00000011
00000000
00000000
00000000
00000000
,
00000001
00000000
00000010
00000000
00000001
00000000
00000100
00000010
00000100
00000010
00000100
00000000
00000010
00000000
00001000
00000100
,
00010000
00011000
00110000
11000000
,
20000000
00010000
30010000
00020000
00100000
00130000
00200000
00301000
,
00020000
00000000
00000100
00030100
00000200
00000000
00000010
00000310
,
00000020
00000001
00000031
00000002
00000100
00000103
00000200
00001300
,
00020000
00000000
00100000
00130000
00200000
00000000
10000000
10300000
,
10000000
01000000
00010000
00001000
00100000
00001000
00010000
00000100
,
00000020
00000000
00000000
00000030
00000002
00000000
00000000
00000003
,
00001000
00000000
00000010
00001000
00000100
00000000
00010000
00001000
00100000
00000000
00010000
00100000
01000000
00000000
00100000
01000000
,
10000000
00000000
00100000
01000000
00001000
00000000
00100000
00001000
00010000
00000000
00011000
00000000
00000000
00000000
00010000
00000100
,
00002000
00000000
00000000
00000000
00003000
00000000
00000001
00000000
00000100
00000010
00000100
00000000
00000010
00000000
00001000
00000000
,
00010000
00000000
01000000
00000000
10000000
00000000
01000000
00100000
02000000
00000000
00000000
00000000
03002000
00000000
00000000
00000000
,
00023000
00000000
00000000
00000000
00000000
00000000
00030000
00000000
00001000
00010000
00001000
00010000
00000010
00001000
00000010
00001000
,
00000020
00000000
00000000
00000000
00000000
00000000
00000030
00000000
00002000
00000000
00000000
00000000
00003200
00000000
00010300
00001000
,
00020000
00000000
00000000
00000000
00030000
00000000
00100000
00000000
10000000
00100000
10000000
00000000
00010000
00000000
00100000
00000000
,
00001000
00000000
00010000
00000000
00000100
00000000
00000010
00000001
00000020
00000000
00000000
00000000
00000230
00000000
00000000
00000000
,
00020300
00000000
00000000
00000000
00000000
00000000
00030000
00000000
00010000
00001000
00010000
00001000
00100000
00010000
00100000
00010000
,
00200000
00000000
00000000
00300000
10010000
00000000
01001000
00000000
,
00020200
00000000
00000000
00000000
00030300
00000000
00000000
00000000
00000100
00000000
00002000
00000000
00000000
00000000
00003001
00000100
,
00000010
00001000
00000000
00000010
00000100
00000000
00000001
00000100
00000000
00000010
00001000
00000000
00000001
00000010
00000100
00001000
,
00000002
00000000
00000000
00000000
00000000
00000000
00000003
00000000
00000100
00000000
00002000
00000000
00000000
00000000
00013000
00001000
,
00010000
00001000
00000000
00100000
00010000
00000000
10000000
00100000
00000000
01000000
00010000
00000000
10000000
00100000
01000000
00010000
,
20000000
01000000
00010000
30100000
,
20000000
00000000
31000000
00100000
02000000
00000000
03010000
00001000
00020000
00000000
00000000
00000000
00000000
00000000
00030000
00000000
,
00000100
00001000
00000000
00000010
00000100
00000000
00000001
00001000
00000000
00000010
00001000
00000000
00000001
00000000
00000100
00000000
,
00000010
00000100
00000010
00000100
00001000
00000000
00010000
00000000
00100000
01000000
00100000
01000000
00010000
00000000
10000000
00000000
,
00100000
01000000
00000000
00010000
00100000
00000000
00001000
00010000
00001000
00000000
00000000
00000000
00000000
00000000
00000000
00000000
,
00001000
00010000
00000000
00000100
00001000
00000000
00000010
00001000
00000001
00000000
00000000
00000000
00000000
00000000
00000000
00000000
,
00000000
00000000
00000000
00000000
;
#NOTES:
     dance-double:
     :
     Challenge:
     18:
     :
00000000
00000000
00000000
00000000
,
00000000
00000000
00000000
00000000
,
00000000
00000000
00000000
00000000
,
00000000
00000000
00000000
00000000
,
00000000
00000000
00000000
00000000
00000000
00000000
00000000
00000000
00000000
00000000
00000000
00000000
10000000
00100000
10000000
00100000
,
10000000
00000000
01000000
10000000
01000000
00000000
10000000
01000000
10000000
01000000
10000000
00000000
01000000
00000000
10000000
01000000
,
00100000
00000000
00010000
00100000
00010000
00000000
00100000
00010000
00100000
00010000
00100000
00000000
00010000
00000000
00100000
00010000
,
00001000
00000000
00000100
00001000
00000100
00000000
00001000
00000100
00001000
00000100
00001000
00000000
00000100
00000000
00001000
00000001
,
00000100
00000010
00000001
00000000
00000010
00000000
00000100
00000010
00001000
00000000
00001001
00000000
00000000
00000000
00000001
00000100
,
00000010
00000000
00001000
00000010
00000100
00000000
00000010
00000100
00001000
00010000
00001000
00100000
00010000
00000000
10000000
01000000
,
00100000
00000000
00010000
00100000
01000000
00000000
00100000
01000000
00010000
00001000
00010000
00000100
00000010
00000000
00000001
00000100
,
00000001
00000000
00001000
00000010
00001000
00000000
00000010
00000100
00000001
00000100
00001000
00010000
00100000
10000000
00100000
01000000
,
00200000
00000000
20300000
30020000
,
10030000
00000000
01000000
00100000
01000000
00000000
00100000
00010000
00100000
00000000
00010000
00100000
00001000
00010000
00000100
00000010
,
00000100
00000000
00001000
00000100
00001000
00000000
00000001
00000010
00000001
00000000
00001000
00000010
00010000
00001000
00100000
00010000
,
01000000
00000000
00100000
01000000
10000000
00000000
01000000
00100000
10000000
01000000
00010000
00001000
00000010
00000001
00000010
00000100
,
00002000
00000000
00000000
00000000
00003001
00000100
00000000
00000100
00002000
00000000
00000000
00000000
00023000
00000000
00000000
00000000
,
00030010
00000000
00001000
00000010
00000100
00000001
00001000
00000100
00020000
00000000
00030200
00000000
00000000
00000000
00000300
00000000
,
00000010
00000100
00000000
00010000
00001000
00000000
01000000
00100000
00000000
10000000
01000000
00100000
00010000
00001000
00000100
00000010
,
00000002
00000000
00000000
00000000
00001003
00000000
00000100
00010000
00001000
00000000
00200000
00000000
00000000
00000000
00300000
00000000
,
01000000
00100000
00000000
00001000
00010000
00000000
00000010
00000100
00000000
00000001
00000010
00000100
00001000
00010000
00100000
01000000
,
20000000
00000000
00000000
00000000
00000000
00000000
30000000
00000000
10000000
00100000
00010000
10000000
01000000
00010000
10000000
00010000
,
20000000
00000000
00000000
00000000
30020000
00000000
00000000
00030000
10000000
00100000
10000000
00010000
01000000
00100000
10000000
01000000
,
00010000
00001000
00000000
00010000
00100000
00000000
00010000
00001000
00000000
00010000
00000100
00000000
00001000
00000000
00001000
00000000
,
00000001
00000100
00001000
00000100
00000001
00000100
00001000
00000000
00010000
00100000
10000000
00100000
00010000
00100000
10000000
00000000
,
00100000
00010000
00000000
00001000
00000100
00000000
00000001
00000100
00001000
00000000
00010000
00001000
00010000
00001000
00010000
00000020
,
00000000
00000000
00000000
00000000
00000030
00000000
00001000
00000000
00010000
00000000
01000000
00000000
00100000
00010000
00001000
00000000
,
00010000
00000000
00000100
00000010
00001000
00000000
00010000
00000000
01000000
00000000
00100000
00000000
00010000
00001000
00000100
00000010
,
00000001
00000000
00001000
00000100
00001000
00000000
00000010
00000100
00000010
00000000
00010000
00001000
00010000
00001000
00100000
00010000
,
10000000
01000000
00100000
00001000
00100000
00010000
10000000
00100000
01000000
00001000
00010000
00100000
10000000
01000000
00100000
01000000
,
20000000
00000000
00000000
00000000
30010000
00000000
00100000
00001000
00010000
00000000
00001000
00000000
00000100
00000010
00000100
00000000
,
00000002
00000000
00000013
00000100
00001000
00000100
00020000
00000000
00000000
00000000
00031000
00000000
00100000
00000000
01000000
00100000
,
01000000
00100000
01000000
00000000
10000000
00000000
00010000
00100000
01000000
00000000
10000000
00000000
00100000
01000000
00010000
00000000
,
01000000
00100000
01000000
00010000
01000000
00001000
00010000
00000100
00001000
00000000
00000000
00000000
00000001
00000000
00000000
00000000
,
00000001
00000010
00001000
00000010
00000100
00010000
00001000
00000100
00000010
00000000
00010000
00000010
00000100
00000000
00000000
00000000
,
00000001
00000000
00000000
00000000
00000200
00000300
00000000
00000000
00000000
00000000
00000000
00000000
00000200
00000300
00000000
00000000
00001000
00000000
00000000
00000000
00000000
00000000
00000000
00000000
00000000
00000000
00000000
00000000
00000000
00000000
00000000
00000000
00010000
00000000
00000000
00000000
02000000
03000000
00000000
00000000
00000000
00000000
00000000
00000000
02000000
03000000
00000000
00000000
10000000
00000000
00000000
00000000
00000000
00000000
00000000
00000000
00000000
00000000
00000000
00000000
00000000
00000000
00000000
00000000
,
10000000
01000000
00010000
01000000
00100000
00001000
00010000
00100000
01000000
00000000
00001000
01000000
00100000
00000000
00000000
00000000
,
10000000
00000000
00000000
00000000
00200000
00300000
00000000
00000000
00000000
00000000
00000000
00000000
00200000
00300000
00000000
00000000
00010000
00000000
00000000
00000000
00000000
00000000
00000000
00000000
00000000
00000000
00000000
00000000
00000000
00000000
00000000
00000000
00001000
00000000
00000000
00000000
00000020
00000030
00000000
00000000
00000000
00000000
00000000
00000000
00000020
00000030
00000000
00000000
00000001
00000000
00000000
00000000
00000000
00000000
00000000
00000000
00000000
00000000
00000000
00000000
00000000
00000000
00000000
00000000
,
00001000
00000000
00000001
00000000
00000001
00000000
00001000
00000100
00001000
00000100
00001000
00000000
00000001
00000000
00001000
00000000
,
00000020
00001000
00002030
00010000
00023000
01000000
02030000
03000000
,
00010000
00000000
10000000
00000000
10000000
00000000
00010000
01000000
00010000
01000000
00010000
00000000
10000000
00000000
00010000
00000000
,
00200000
00010000
00320000
00001000
00032000
00000100
00003200
00000300
,
00001000
00000000
00000001
00000100
00000001
00000000
00000010
00000000
00000100
00001000
00000100
00000000
00010000
00000000
00001000
00000000
,
00000100
00000010
00000001
00000000
00000001
00000010
00000100
00000000
00000100
00001000
00010000
00000000
00010000
00100000
01000000
00000000
,
00010000
00000000
10000000
01000000
00010000
00000000
00001000
00000010
00000001
00000000
00000001
00000100
00001000
00000000
00010000
00100000
,
10000000
00000000
10000000
00100000
00010000
00000000
00001000
00000100
00000001
00000000
00001001
00000000
00000000
00000000
00000001
00000010
,
00000100
00000000
00001000
00000100
00000010
00000000
00000100
00000010
00001000
00010000
00001000
01000000
00010000
00000000
10000000
00100000
,
01000000
00000000
00010000
01000000
00100000
00000000
01000000
00100000
00010000
00001000
00010000
00000010
00000100
00000000
00000001
00000010
,
00000001
00000000
00001000
00000100
00001000
00000000
00000100
00000010
00000001
00000010
00001000
00010000
01000000
10000000
01000000
00100000
,
02000000
00000000
03200000
00320000
,
00130000
00000000
00000000
00100000
00001000
00000000
00000000
00001000
01000000
00000000
00000000
01000000
10000000
00000000
00000000
10000000
,
01000000
00000000
00000000
01000000
00010000
00000000
00000000
00010000
00000100
00000000
00000000
00000100
00000001
00000000
00000000
00000001
,
00001000
00000000
00000000
00001000
00000010
00000000
00000000
00000010
00010000
00000000
00000000
00010000
00001000
00000000
00000000
00000000
,
00010000
00001000
00010000
00000100
00001000
00000100
00010000
00001000
00010000
00000100
00001000
00000100
00002000
00000000
00000000
00000000
00000000
00000000
00023000
00000000
00000000
00000000
00000000
00000000
,
00130000
00000000
01000000
00100000
01000000
10000000
00010000
01000000
00002000
00000000
02003000
00000000
00000000
00000000
03000000
00000000
,
00100000
01000000
00000000
00001000
00010000
00000000
00000100
00000010
00000000
00000001
00000010
00000100
00001000
00010000
00100000
01000000
,
20000000
00000000
00000000
00000000
30010000
00000000
01000000
00001000
00010000
00000000
00000020
00000000
00000000
00000000
00000030
00000000
,
00000100
00000010
00000000
00010000
00001000
00000000
00100000
01000000
00000000
10000000
01000000
00100000
00010000
00001000
00000100
00000010
,
00000002
00000000
00000000
00000000
00000000
00000000
00000003
00000000
00000001
00000010
00001000
00000001
00000100
00001000
00000001
00001000
,
00000002
00000000
00000000
00000000
00002003
00000000
00000000
00003000
00000001
00000010
00000001
00001000
00000100
00000010
00000001
00000100
,
00001000
00010000
00000000
00001000
00000010
00000000
00001000
00010000
00000000
00001000
01000000
00000000
00010000
00000000
00010000
00000000
,
10000000
01000000
00010000
01000000
10000000
01000000
00010000
00000000
00001000
00000010
00000001
00000010
00001000
00000010
00000001
00000000
,
00000010
00001000
00000000
00010000
01000000
00000000
10000000
00100000
00010000
00000000
00000000
00000000
00000000
00000000
00000000
00000000
,
00100000
00010000
00000000
00001000
00000010
00000000
00000001
00000010
00001000
00000000
00000000
00000000
00000000
00000000
00000000
00000000
,
00000000
00000000
00000000
00000000
;
