
//----- song ID: lucy -----//
#TITLE:Lucy;
#ARTIST:ELE BLOCK;
#BANNER:Lucy.png;
#BACKGROUND:Lucy-bg.png;
#CDTITLE:./CDTitles/bm IIDX 10th style.png;
#MUSIC:Lucy.ogg;
#SAMPLESTART:66.154;
#SAMPLELENGTH:15;
#BPMS:0=156;
#NOTES:
     dance-single:
     :
     Beginner:
     2:
     :
0000
0000
0000
0000
,
0000
0000
0000
0000
,
0000
0000
0000
0000
,
0000
0000
0000
0000
,
0000
0000
0000
0000
,
1000
0000
0000
0000
,
1000
0000
0000
0000
,
0000
0000
0000
0000
,
1001
0000
0000
0000
,
0001
0000
0000
0000
,
0001
0000
0000
0000
,
0001
0000
0000
0000
,
0000
0000
0000
0000
,
1000
0000
0000
0000
,
1000
0000
0000
0000
,
1000
0000
0000
0000
,
0000
0000
0000
0000
,
0001
0000
0000
0000
,
0001
0000
0000
0000
,
0001
0000
0000
0000
,
0000
0000
0000
0000
,
1000
0000
0000
0000
,
1000
0000
0000
0000
,
1000
0000
0000
0000
,
0000
0000
0000
0000
,
0001
0000
0000
0000
,
0001
0000
0000
0000
,
0001
0000
0000
0000
,
0000
0000
0000
0000
,
1000
0000
0000
0000
,
1000
0000
0000
0000
,
1000
0000
0000
0000
,
0000
0000
0000
0000
,
0010
0000
0000
0000
,
0000
0000
0000
0000
,
0010
0000
0000
0000
,
0000
0000
0000
0000
,
0100
0000
0000
0000
,
0000
0000
0000
0000
,
0100
0000
0000
0000
,
0000
0000
0000
0000
,
1001
0000
0000
0000
,
1000
0000
0000
0000
,
1000
0000
0000
0000
,
1000
0000
0000
0000
,
0001
0000
0000
0000
,
0001
0000
0000
0000
,
1000
0000
0000
0000
,
1000
0000
0000
0000
,
0001
0000
0000
0000
,
0001
0000
0000
0000
,
0001
0000
0000
0000
,
0001
0000
0000
0000
,
1000
0000
0000
0000
,
1000
0000
0000
0000
,
0000
0000
0000
0000
,
1001
0000
0000
0000
,
0001
0000
0000
0000
,
0001
0000
0000
0000
,
1000
0000
0000
0000
,
1000
0000
0000
0000
,
0001
0000
0000
0000
,
0000
0000
0000
0000
,
0001
0000
0000
0000
,
0001
0000
0000
0000
,
1000
0000
0000
0000
,
0000
0000
0000
0000
,
0001
0000
0000
0000
,
0001
0000
0000
0000
,
1000
0000
0000
0000
,
0000
0000
0000
0000
,
0010
0000
0000
0000
,
0010
0000
0000
0000
,
0010
0000
0000
0000
,
0000
0000
0000
0000
,
0010
0000
0000
0000
,
0000
0000
0000
0000
;
#NOTES:
     dance-single:
     :
     Easy:
     7:
     :
0000
0000
0000
0000
,
0000
0000
0000
0000
,
0000
0000
0000
0000
,
0000
0000
0000
0000
,
0000
0000
0000
0000
,
1000
1000
0001
0001
,
0010
0010
0100
0100
,
1000
1000
0001
0001
,
1000
0001
1001
0000
,
1000
0100
1000
0000
,
0001
0010
0001
0000
,
1000
0001
0100
0000
,
0001
1000
0010
0100
,
0001
0010
0001
0000
,
1000
0100
1000
0000
,
0001
1000
0100
0000
,
1000
0001
0010
0100
,
1000
0010
1000
1000
,
0001
0100
0001
0001
,
2000
3000
0002
0003
,
1000
0100
0010
0001
,
1000
0100
1000
1000
,
0001
0010
0001
0001
,
0020
0030
0200
0300
,
1000
0010
0100
0001
,
1000
0000
1000
0010
,
0100
0000
0100
0001
,
0010
0000
0010
0100
,
1000
0100
0010
0001
,
1000
0000
0001
0100
,
0010
0010
1000
0001
,
0100
0000
0010
1000
,
0001
0000
1000
0000
,
0010
0000
1000
0010
,
1000
0100
0010
0001
,
0100
0000
0010
0000
,
1000
0100
0010
0001
,
0100
0000
0001
0100
,
0010
1000
0001
0000
,
1000
0000
0010
0100
,
0010
1000
0100
0010
,
0001
0000
1000
0000
,
0010
0100
0010
0100
,
0001
0010
0001
0010
,
0100
1000
0100
1000
,
0001
0000
1000
0000
,
0010
0100
0010
1000
,
0001
0000
0010
0001
,
1000
0000
0001
0010
,
0100
1000
0100
1000
,
0001
0010
0001
0000
,
1000
0010
1000
0010
,
0100
0001
0100
0001
,
1000
0000
0001
0000
,
0010
0100
0010
0001
,
1000
0100
1000
0010
,
0100
0000
0001
1000
,
0010
0000
1000
0001
,
0010
0000
0100
0000
,
1000
0010
1000
1000
,
0001
0100
0001
0001
,
2000
3000
0002
0003
,
1000
0100
0010
0001
,
1000
0100
1000
1000
,
0001
0010
0001
0001
,
0020
0030
0200
0300
,
1000
0010
0100
0001
,
1000
0001
0100
0100
,
0001
1000
0010
0010
,
2000
3000
0002
0003
,
1000
0010
0100
0001
,
0010
0100
1000
1000
,
0010
0100
0001
0001
,
0020
0030
0200
0300
,
1000
0001
0100
0010
,
1000
0000
0000
0000
,
0000
0000
0000
0000
;
#NOTES:
     dance-single:
     :
     Medium:
     11:
     :
0000
0000
0000
0000
,
0000
0000
0000
0000
,
0000
0000
0000
0000
,
0000
0000
0000
0000
,
0000
0000
0000
0000
,
1000
1000
0010
0010
,
0100
0100
0001
0001
,
1000
0000
0001
0000
0010
0000
0100
2000
,
0000
3100
0010
0002
0000
0000
1003
0000
,
1000
0100
1000
0002
0000
0013
0001
2000
,
0000
3010
1000
0002
0000
0103
0001
2000
,
0000
3010
0100
0002
0000
0013
0100
2000
,
0000
3100
0010
0002
0000
1003
0100
0000
,
1000
0010
0100
0002
0000
0013
0100
2000
,
0000
3001
0010
0002
0000
1003
0010
2000
,
0000
3001
0100
0020
0000
1030
0100
2000
,
0000
3001
0010
0002
0000
0000
1003
0000
,
0001
1000
0010
0200
0000
0301
0100
0020
,
0000
1030
0001
0200
0000
0301
1000
0200
,
0000
0310
0001
2000
0000
0000
3001
0000
,
1000
0100
1000
0100
0010
0001
0010
0001
,
1000
0100
1000
0002
0000
0103
0010
2000
,
0000
3010
0100
0002
0000
1003
0001
0200
,
0000
0301
1000
0020
0000
0000
0030
1000
,
0000
0001
0100
0001
1000
0100
0010
0001
,
1000
0000
0000
0000
1000
0000
0010
0100
,
0001
0000
0010
0000
0100
0000
1000
0100
,
0000
1000
0100
0000
0000
0000
0010
0001
,
0010
0000
0100
0000
1000
0000
0001
0100
,
0000
0000
0010
0000
1000
0100
1000
0001
,
0000
0100
1000
0100
,
0001
0000
0010
0000
0001
0000
0100
0010
,
0000
1000
0100
0010
,
0001
0000
0000
0100
0010
0000
0100
0010
,
0000
0000
1000
0000
0010
0000
0100
0001
,
0000
0000
0100
0000
0010
0000
1000
0001
,
0010
0000
0100
0000
1000
0000
0010
0100
,
0000
0000
0010
1000
0100
1000
0100
0010
,
0001
0000
1000
1000
0000
0000
0001
0000
,
0100
0000
0010
0100
0010
1000
0100
0010
,
0001
0000
0010
0000
1000
0000
0010
0001
,
0000
0000
1000
0000
0100
1000
0100
0010
,
0001
0010
0001
1000
0000
1000
0100
0000
,
0020
0000
0000
0000
0130
1000
0001
0020
,
0000
0000
0230
0000
2300
0000
3010
0100
,
1000
0000
1000
0200
0000
0000
0300
0000
,
0010
0000
0010
0200
0300
0020
0030
2000
,
0000
0000
3000
0000
0001
0000
1000
0200
,
0000
0000
0300
0000
1000
0000
0001
0010
,
0100
0000
0100
0010
0000
0100
0010
0001
,
1000
0100
1000
0020
0000
0000
0030
0000
,
0200
0000
0000
0000
0310
1000
0001
0200
,
0000
0000
0320
0000
2030
0000
3100
0010
,
1000
0000
1000
0020
0000
0000
0030
0000
,
0001
0000
0001
0200
0300
0001
0010
0100
,
1000
0000
0010
0000
0001
0000
0010
0200
,
0000
0000
0300
0000
0001
0000
1000
0010
,
2000
0000
0000
0000
3001
0010
0100
0010
,
0100
0000
0000
1000
0100
0000
1000
0002
,
0000
0010
0010
0013
,
0001
0010
0100
1000
0001
0000
1000
0000
,
0010
0000
0010
0100
0000
0001
0010
0001
,
1000
0100
0001
0100
,
0000
0100
1000
0100
1000
0010
0100
0010
,
1000
0010
0100
0001
1000
0000
0001
0000
,
0010
0000
0010
0100
0000
1000
0010
1000
,
0001
0100
1000
0100
,
0001
0100
0001
2000
0000
3010
1000
0002
,
0000
0013
0001
2000
0000
3100
1000
0002
,
0000
0013
0100
2000
0000
3010
0100
0001
,
1000
0100
0001
0100
,
1000
0001
0100
2000
0000
3100
0001
0020
,
0000
0130
0001
0200
0000
1300
0001
0020
,
0000
0130
1000
0002
0000
1003
0100
0010
,
0001
0100
1000
0100
,
0001
0000
0000
0000
,
0000
0000
0000
0000
;
#NOTES:
     dance-single:
     :
     Hard:
     15:
     :
0000
0000
0000
0000
,
0000
0000
0000
0000
,
0000
0000
0000
0000
,
0000
0000
0000
0000
,
0000
0000
0000
0000
,
1000
1000
0001
0001
,
0100
0100
0010
0010
,
1000
0100
1000
0100
0010
0001
0010
0002
,
0000
0000
0103
0000
0010
0000
2000
0000
0000
0000
3001
0000
0100
0010
0000
0100
,
0000
0001
0100
0002
0000
1003
0100
2000
,
0000
3001
0100
2000
0000
3100
0001
0020
,
0000
0130
1000
0200
0000
0301
0100
2000
,
0000
3010
0001
0020
0000
1030
0001
0000
,
0001
1000
0100
2000
0000
3001
0100
0002
,
0000
1003
0100
0002
0000
0103
1000
0020
,
0000
0130
0001
0200
0000
1300
0100
0010
,
1000
0000
0100
0000
0010
0000
0001
0000
0100
0010
0100
0000
0001
0010
0001
0000
,
0000
0000
1000
0100
1000
0000
0001
0010
0001
0000
0100
0010
0100
0000
0001
1000
,
0001
0000
1000
0100
0010
0001
0010
0100
1000
0100
0010
0000
0001
0000
1000
0000
,
0200
0000
0000
0310
0000
0001
0010
0100
,
1000
0100
1000
0000
0001
0100
0001
0000
0010
0100
1000
0000
0100
0010
0001
0000
,
0000
0000
0001
0100
0001
0000
1000
0010
1000
0000
0100
0010
0100
0000
1000
0001
,
1000
0000
0001
0100
0010
1000
0010
0100
0001
0100
0010
0000
1000
0000
0001
0000
,
0200
0000
0000
0000
0000
0000
0310
0000
0000
0000
0100
0010
0100
0000
0001
0000
,
0010
0001
0010
0000
0100
1000
0100
1000
0100
0000
0020
0000
0100
0000
0130
0000
,
1000
0010
1000
0010
0100
0001
0100
0001
,
2000
3100
0020
0130
2000
3001
0200
0302
,
0000
0010
0013
0000
0010
0001
0010
0001
,
2000
0000
0010
0000
0001
0000
0010
3100
,
0000
0000
0011
0000
1000
0100
1000
0020
,
0000
1030
0100
0010
,
0002
0000
0010
0000
0010
0000
0103
0010
,
1000
0100
1000
0000
0100
0010
0100
0000
0010
0001
0010
0000
0001
0100
0001
0000
,
1000
0010
0001
0010
1000
0100
0001
0100
,
0000
0000
1100
0000
0110
0000
0001
0200
,
0000
0000
0300
0000
0010
0000
0010
1000
,
0001
1000
0010
1000
0100
1000
0001
1001
,
1000
0100
1000
0100
0010
0001
0011
0000
,
0001
0100
0001
0100
0010
1000
1010
0000
,
0010
0100
0010
0100
0001
1000
1001
0000
,
1100
0000
0110
0000
0011
0000
0001
1001
,
0000
0000
0000
0000
0000
0000
0000
0000
0000
0001
0010
0100
1000
0000
0000
0000
0000
0000
1000
0000
0000
0100
0000
0000
,
0010
0000
0001
0000
0010
0000
0001
0100
0001
0100
0001
0000
0101
0000
0000
0000
,
1000
0100
0010
0100
0010
0001
0100
1000
,
0100
0010
0001
0010
1000
0100
0001
0100
,
1000
0001
0100
1000
0100
0010
0100
0001
,
0010
1000
0010
0001
0100
0010
0001
0010
,
1000
0100
0010
0100
0001
0100
1000
0001
,
1000
0010
0100
0010
0001
0010
1000
0001
,
1000
0010
1000
0000
0001
0100
0001
0000
0010
0100
0010
0000
0100
0010
0100
0000
,
1000
0100
0010
0000
0100
0010
0001
0000
1000
0100
0010
0001
1000
0100
0010
0001
,
1000
0000
0100
0000
0010
0100
0010
0100
0010
0000
0001
0000
0010
0000
1000
0000
,
0010
0000
0001
0000
0100
0010
0100
0010
0100
0000
0001
0000
0100
0000
1000
0000
,
0100
0000
0001
0000
1000
0100
1000
0100
1000
0000
0010
0000
0100
0000
0001
0000
,
1000
0000
0001
0000
0010
0001
0010
0001
1000
0100
1000
0000
0001
0000
0100
0000
,
0002
0003
0020
0030
0200
0300
1000
0200
,
0000
0000
1300
0000
0010
0100
1000
0100
,
0020
0000
0000
0000
0000
1030
0100
0010
,
0001
0010
0100
1000
0001
0010
0100
1000
0001
0000
2002
0000
0000
0000
3003
0000
,
0000
0000
1000
0100
1000
0000
0001
0010
0001
0000
0100
0010
0100
0000
0001
1000
,
0001
0000
1000
0100
0010
0001
0010
0100
1000
0100
0010
0000
0001
0000
1000
0000
,
0200
0000
0000
0310
0000
0001
0010
0100
,
1000
0100
1000
0000
0001
0100
0001
0000
0010
0100
1000
0000
0100
0010
0001
0000
,
0000
0000
0001
0100
0001
0000
1000
0010
1000
0000
0100
0010
0100
0000
1000
0001
,
1000
0000
0001
0100
0010
1000
0010
0100
0001
0100
0010
0000
1000
0000
0001
0000
,
0200
0000
0000
0310
0000
1000
0010
0100
,
0001
0100
0001
0000
1000
0100
1000
0000
0010
0100
0001
0000
0100
0010
1000
0000
,
0000
0000
1000
0010
1000
0000
0001
0100
0001
0000
0010
0100
0010
0000
0001
1000
,
0001
0000
1000
0010
0100
0001
0010
0001
1000
0100
1000
0000
0001
0000
1000
0000
,
0020
0000
0000
0130
0000
0001
0100
0010
,
1000
0010
1000
0000
0001
0010
0001
0000
0100
0010
1000
0000
0010
0100
0001
0000
,
0000
0000
0001
0010
0001
0000
1000
0100
1000
0000
0010
0100
0010
0000
1000
0001
,
1000
0000
0001
0100
0010
1000
0100
1000
0001
0010
0001
0000
1000
0000
0001
0000
,
0020
0000
0000
0130
0000
1000
0100
0010
,
0001
0010
0001
0000
1000
0010
1000
0000
0100
0010
0001
0000
0010
0100
1000
0000
,
1001
0000
0000
0000
,
0000
0000
0000
0000
;
#NOTES:
     dance-double:
     :
     Easy:
     7:
     :
00000000
00000000
00000000
00000000
,
00000000
00000000
00000000
00000000
,
00000000
00000000
00000000
00000000
,
00000000
00000000
00000000
00000000
,
00000000
00000000
00000000
00000000
,
10000000
01000000
00100000
00010000
,
00001000
00000100
00000010
00000001
,
00000100
00000010
00001000
00000100
,
00010000
00001000
00011000
00000000
,
00001000
00100000
00010000
00000000
,
00100000
00010000
01000000
00000000
,
00010000
01000000
00100000
00000000
,
10000000
00100000
01000000
00010000
,
00100000
00001000
00010000
00000000
,
00000100
00001000
00000010
00000000
,
00000100
00000001
00001000
00000000
,
00000001
00000100
00000010
00001000
,
00000100
00010000
00001000
00000000
,
00010000
00001000
00100000
00010000
,
02000000
03000000
00200000
00300000
,
10000000
01000000
00100000
00001000
,
00010000
00000100
00000010
00000000
,
00000001
00000100
00000010
00001000
,
00000200
00000300
00020000
00030000
,
00001000
00100000
00010000
01000000
,
00100000
00000000
10000000
01000000
,
10000000
00000000
01000000
00100000
,
01000000
00000000
00100000
00010000
,
00100000
00001000
00010000
00000100
,
00000010
00000000
00000001
00000100
,
00000010
00000010
00001000
00000100
,
00010000
00000000
00001000
00010000
,
00001000
00000000
00100000
00000000
,
00001000
00000000
00100000
00010000
,
01000000
00010000
00100000
00001000
,
00010000
00000000
00000100
00000000
,
00001000
00000010
00010000
00001000
,
00010000
00000000
00001000
00100000
,
00010000
01000000
00100000
00000000
,
10000000
00000000
01000000
00100000
,
00001000
00010000
00000010
00000100
,
00000001
00000000
00001000
00000000
,
00000010
00000100
00000001
00000000
,
00000001
00001000
00000001
00001000
,
00000100
00010000
00000100
00010000
,
00001000
00000000
01000000
00000000
,
00100000
01000000
00100000
10000000
,
01000000
00000000
00100000
00001000
,
00010000
00000000
00000100
00001000
,
00000010
00001000
00000100
00010000
,
00001000
00100000
00010000
00000000
,
10000000
00010000
10000000
00010000
,
01000000
00001000
01000000
00001000
,
00010000
00000000
00000100
00000000
,
00000010
00000100
00000010
00000001
,
00000100
00000010
00001000
00000100
,
00010000
00000000
00001000
00100000
,
00010000
00000000
10000000
00010000
,
01000000
00000000
00010000
00000000
,
01000000
00001000
00010000
00000000
,
00001000
00010000
00000010
00001000
,
00000200
00000300
00000020
00000030
,
00000001
00000100
00000010
00010000
,
00001000
01000000
00100000
00000000
,
10000000
01000000
00100000
00010000
,
02000000
03000000
00002000
00003000
,
00010000
00000010
00001000
00000100
,
00010000
00001000
00010000
00010000
,
00001000
00100000
00010000
00010000
,
00200000
00300000
02000000
03000000
,
10000000
00100000
01000000
00001000
,
00010000
00000010
00000100
00000100
,
00000001
00001000
00000100
00000100
,
00020000
00030000
00002000
00003000
,
00100000
00001000
00010000
00100000
,
01000000
00000000
00000000
00000000
,
00000000
00000000
00000000
00000000
;
#NOTES:
     dance-double:
     :
     Medium:
     11:
     :
00000000
00000000
00000000
00000000
,
00000000
00000000
00000000
00000000
,
00000000
00000000
00000000
00000000
,
00000000
00000000
00000000
00000000
,
00000000
00000000
00000000
00000000
,
10000000
10000000
00100000
00100000
,
01000000
01000000
00001000
00001000
,
00010000
00000000
00001000
00000000
00000010
00000000
00000100
00002000
,
00000000
00003100
00000010
00000002
00000000
00000000
00001003
00000000
,
00000001
00000010
00000001
00002000
00000000
00003010
00000100
00000020
,
00000000
00001030
00000100
00020000
00000000
00031000
00100000
00002000
,
00000000
01003000
00010000
00200000
00000000
00310000
10000000
02000000
,
00000000
03100000
00010000
00200000
00000000
00310000
10000000
00000000
,
10000000
00100000
10000000
00020000
00000000
00130000
01000000
00200000
,
00000000
00310000
01000000
00002000
00000000
00013000
00000010
00020000
,
00000000
00030100
00001000
00000020
00000000
00001030
00000001
00000200
,
00000000
00000310
00001000
00000020
00000000
00001030
00000001
00000000
,
00000000
00000001
00000010
00000100
00001000
00000100
00001000
00000000
,
00000100
00010000
00001000
00100000
00010000
01000000
00100000
10000000
,
02000000
00000000
00000000
23000000
00000000
30010000
00100000
00010000
,
00100000
00010000
00001000
00000100
,
00000000
00000010
00000001
00001000
00000100
00010000
00001000
00000000
,
00001000
00100000
00010000
00100000
01000000
10000000
00010000
01000000
,
00020000
00000000
00000000
00230000
00000000
00301000
00010000
00000200
,
00000000
00001300
00000000
00002000
00000000
00000000
00003001
00000000
,
00000001
00000000
00000000
00000000
00001000
00000000
00000100
00010000
,
00001000
00000000
00100000
00000000
00010000
00000000
10000000
01000000
,
00000000
10000000
01000000
00000000
00000000
00000000
00100000
00001000
,
00010000
00000000
00000100
00000000
00001000
00000000
00000001
00000100
,
00000000
00000000
00000001
00000000
00001000
00000100
00001000
00000010
,
00000000
00001000
00010000
01000000
,
00010000
00000000
10000000
00000000
01000000
00000000
00010000
00001000
,
00000000
00010000
00000100
00000010
,
00000001
00000000
00000000
00000100
00000010
00000000
00000100
00000010
,
00000000
00000000
00010000
00000000
00001000
00000000
00100000
00010000
,
00000000
00000000
01000000
00000000
00001000
00000000
00010000
00000010
,
00000100
00000000
00001000
00000000
00010000
00000000
00100000
01000000
,
00000000
00000000
00000000
00100000
10000000
01000000
00100000
00010000
,
00100000
00000000
00001000
00001000
00000000
00000000
00010000
00000000
,
00000100
00000000
00000000
00000010
00000001
00000100
00000010
00001000
,
00000100
00000000
00010000
00000000
00001000
00000000
00100000
00010000
,
00000000
00000000
10000000
00000000
01000000
10000000
01000000
00100000
,
00010000
00100000
00001000
00010000
00000000
00010000
00001000
00000000
,
00020000
00000000
00000000
00000000
00030000
00000010
00000100
00000002
,
00000000
00000000
00000203
00000000
00002300
00000000
00013000
00001000
,
00100000
00000000
00100000
00020000
00000000
00000000
00030000
00000000
,
10000000
00000000
10000000
02000000
03000000
00200000
00300000
00020000
,
00000000
00000000
00030000
00000000
00100000
00000000
00001000
00020000
,
00000000
00000000
00030000
00000000
00000100
00000000
00001000
00000010
,
00000100
00000000
00000100
00000001
00000000
00000100
00000010
00001000
,
00000100
00010000
00001000
00020000
00000000
00000000
00030000
00000000
,
00002000
00000000
00000000
00000000
00003000
00100000
01000000
20000000
,
00000000
00000000
32000000
00000000
03020000
00000000
00031000
00010000
,
00000010
00000000
00000010
00002000
00000000
00000000
00003000
00000000
,
00000001
00000000
00000001
00000200
00000300
00000010
00000100
00001000
,
00010000
00000000
00100000
00000000
10000000
00000000
01000000
00200000
,
00000000
00000000
00300000
00000000
00000000
00000000
00001000
00010000
,
00002000
00000000
00000000
00000000
00003000
00010000
00000100
00001000
,
00000100
00000000
00000000
00001000
00000001
00000000
00000010
00000200
,
00000000
00000010
00000010
00000310
,
00000100
00010000
00001000
00100000
00010000
01000000
00100000
10000000
,
02000000
00000000
00000000
23000000
00000000
30010000
00100000
00010000
,
00100000
00010000
00001000
00000100
,
00000000
00000010
00000001
00001000
00000100
00010000
00001000
00000000
,
00001000
00100000
00010000
00100000
01000000
10000000
00010000
01000000
,
00020000
00000000
00000000
00230000
00000000
00301000
00010000
00000100
,
00001000
00010000
00100000
01000000
,
10000000
00100000
10000000
00020000
00000000
00130000
01000000
00200000
,
00000000
00310000
01000000
00002000
00000000
00013000
00000010
00020000
,
00000000
00030100
00001000
00000020
00000000
00001030
00000001
00000100
,
00000010
00001000
00000010
00000100
,
00000001
00000010
00000001
00002000
00000000
00003010
00000100
00000020
,
00000000
00001030
00000100
00020000
00000000
00031000
00100000
00002000
,
00000000
01003000
00010000
00200000
00000000
00310000
10000000
01000000
,
00100000
00010000
00001000
00000100
,
00000010
00000000
00000000
00000000
,
00000000
00000000
00000000
00000000
;
#NOTES:
     dance-double:
     :
     Hard:
     15:
     :
00000000
00000000
00000000
00000000
,
00000000
00000000
00000000
00000000
,
00000000
00000000
00000000
00000000
,
00000000
00000000
00000000
00000000
,
00000000
00000000
00000000
00000000
,
10000000
01000000
00010000
00001000
,
00000010
00000001
00000100
00001000
,
00010000
00000000
00100000
00000000
10000000
01000000
10000000
00020000
,
00000000
00000000
00130000
00000000
01000000
00000000
20000000
00000000
00000000
00000000
30010000
00000000
00100000
00001000
00000000
00010000
,
00000000
00001000
00000010
00000002
00000000
00000013
00000001
00000200
,
00000000
00000310
00001000
00020000
00000000
01030000
00010000
00200000
,
00000000
10300000
00100000
02000000
00000000
03100000
00001000
00020000
,
00000000
00030100
00001000
00000020
00000000
00001030
00000001
00000000
,
00000001
00000100
00001000
00000200
00000000
00000310
00010000
00002000
,
00000000
00103000
00010000
20000000
00000000
31000000
00100000
00020000
,
00000000
01030000
10000000
02000000
00000000
03010000
00100000
00010000
,
00001000
00000000
00000100
00000000
00000010
00000000
00000001
00000000
00001000
00000100
00001000
00000000
00000001
00000010
00000001
00000000
,
00000000
00000000
00001000
00000100
00001000
00000000
00000100
00010000
00000100
00000000
00010000
00001000
00010000
00000000
00001000
00100000
,
00001000
00000000
00100000
00010000
00100000
00010000
00100000
00010000
10000000
01000000
10000000
00000000
00010000
00000000
10000000
00000000
,
00200000
00000000
00000000
01300000
00000000
00010000
01000000
00100000
,
10000000
01000000
10000000
00000000
00010000
00100000
00010000
00000000
10000000
00100000
10000000
00000000
00010000
01000000
00010000
00000000
,
00000000
00000000
00010000
00100000
00010000
00000000
00100000
00001000
00100000
00000000
00001000
00010000
00001000
00000000
00010000
00000100
,
00010000
00000000
00000100
00001000
00000100
00001000
00000100
00001000
00000001
00000010
00000001
00000000
00001000
00000000
00000001
00000000
,
00000200
00000000
00000000
00000310
00000000
00001000
00000010
00010000
,
00001000
00010000
00001000
00000000
00100000
00010000
00100000
00000000
01000000
00000000
00100000
00000000
00010000
00000000
00001000
00000000
,
00000100
00001000
00000100
00001000
00000001
00000100
00000001
00000100
,
00000020
00001030
00000200
00010300
00002000
00103000
00020000
20030000
,
00000000
00100000
30100000
00000000
10000000
01000000
10000000
01000000
,
00200000
00000000
01000000
00000000
00010000
00000000
00001000
00310000
,
00000000
00000000
00110000
00000000
00100000
00010000
00100000
00002000
,
00000000
00013000
00000100
00000010
,
00000002
00000000
00000010
00000000
00000010
00000000
00000100
00000013
,
00000001
00000100
00000001
00000000
00000100
00000010
00000100
00000000
00000010
00001000
00000010
00000000
00001000
00000100
00001000
00000000
,
00000100
00010000
00001000
00100000
00010000
01000000
00100000
10000000
,
00000000
00000000
10100000
00000000
01010000
00000000
00010000
00200000
,
00000000
00000000
00300000
00000000
00001000
00000000
00001000
00010000
,
00001000
00010000
00000100
00010000
00000010
00010000
00001000
00011000
,
00010000
00001000
00010000
00001000
00000010
00000100
00000110
00000000
,
00000001
00000100
00000001
00000100
00000010
00001000
00001010
00000000
,
00001000
00000100
00010000
00000100
00001000
00000100
00001100
00000000
,
00011000
00000000
00110000
00000000
01100000
00000000
10000000
10010000
,
00000000
00000000
00000000
00000000
00000000
00000000
00000000
00000000
00000000
00010000
00100000
01000000
10000000
00000000
00000000
00000000
00000000
00000000
10000000
00000000
00000000
01000000
00000000
00000000
,
00100000
00000000
00001000
00000000
00010000
00000000
00001000
00010000
00001000
00010000
00001000
00000000
00011000
00000000
00000000
00000000
,
00001000
00010000
01000000
00100000
00001000
00010000
00000010
00000100
,
00001000
00000100
00000001
00000010
00000100
00010000
00001000
00100000
,
00010000
01000000
10000000
01000000
00010000
00100000
00001000
00010000
,
00000010
00000100
00001000
00010000
00000100
00000010
00000001
00000100
,
00000010
00001000
00000100
00001000
00010000
00100000
00010000
01000000
,
00100000
10000000
01000000
00010000
00001000
00100000
00001000
00010000
,
00000010
00000100
00000010
00000000
00001000
00000100
00001000
00000000
00000100
00010000
00000100
00000000
00010000
00001000
00010000
00000000
,
00001000
00100000
00001000
00000000
00100000
01000000
00100000
00000000
00010000
00100000
00010000
00100000
01000000
10000000
01000000
10000000
,
00010000
00000000
01000000
00000000
00001000
00010000
00001000
00010000
00001000
00000000
00010000
00000000
00000100
00000000
00000010
00000000
,
00000100
00000000
00010000
00000000
00001000
00010000
00001000
00010000
00001000
00000000
01000000
00000000
00100000
00000000
10000000
00000000
,
01000000
00000000
00100000
00000000
00010000
00100000
00010000
00100000
00010000
00000000
00100000
00000000
00001000
00000000
00010000
00000000
,
00000010
00000000
00000100
00000000
00000001
00000010
00000001
00000010
00000100
00001000
00000100
00000000
00001000
00000000
00000010
00000000
,
00000200
00000300
00002000
00003000
00020000
00030000
00100000
02000000
,
00000000
00000000
03000000
00000000
00100000
01000000
00010000
00100000
,
00020000
00000000
00000000
00000000
00000000
00130000
00010000
00001000
,
00000100
00001000
00000100
00001000
00000001
00000010
00000001
00000010
00000001
00000000
00002002
00000000
00000000
00000000
00003003
00000000
,
00000000
00000000
00001000
00000100
00001000
00000000
00000100
00010000
00000100
00000000
00010000
00001000
00010000
00000000
00001000
00100000
,
00001000
00000000
00100000
00010000
00100000
00010000
00100000
00010000
10000000
01000000
10000000
00000000
00010000
00000000
10000000
00000000
,
00200000
00000000
00000000
01300000
00000000
00010000
00100000
01000000
,
10000000
01000000
10000000
00000000
00010000
00100000
00010000
00000000
10000000
00100000
10000000
00000000
00010000
01000000
00010000
00000000
,
00000000
00000000
00010000
01000000
00010000
00000000
01000000
00001000
01000000
00000000
00001000
00010000
00001000
00000000
00010000
00000010
,
00010000
00000000
00000010
00001000
00000010
00001000
00000010
00001000
00000001
00000100
00000001
00000000
00001000
00000000
00000001
00000000
,
00000200
00000000
00000000
00000310
00000000
00001000
00000010
00000100
,
00000001
00000100
00000001
00000000
00001000
00000010
00001000
00000000
00000001
00000010
00000001
00000000
00001000
00000100
00001000
00000000
,
00000000
00000000
00000001
00000010
00000001
00000000
00000100
00000010
00000100
00000000
00000010
00000100
00000010
00000000
00001000
00000100
,
00001000
00000000
00000100
00010000
00000100
00010000
00000100
00010000
00001000
00100000
00001000
00000000
00010000
00000000
01000000
00000000
,
00200000
00000000
00000000
00310000
00000000
10000000
01000000
00010000
,
00001000
00010000
00000100
00000000
00001000
00000010
00000100
00000000
00000010
00000100
00000001
00000000
00000010
00000100
00001000
00000000
,
00000000
00000000
00000001
00000100
00000001
00000000
00000010
00000100
00000010
00000000
00000100
00000010
00000100
00000000
00001000
00000010
,
00001000
00000000
00000010
00010000
00000010
00010000
00000010
00010000
00001000
01000000
00001000
00000000
00010000
00000000
00100000
00000000
,
02000000
00000000
00000000
03010000
00000000
10000000
01000000
00100000
,
00010000
00100000
00001000
00000000
00010000
00000100
00001000
00000000
00000010
00000100
00000001
00000000
00001000
00000100
00001000
00000000
,
00001001
00000000
00000000
00000000
,
00000000
00000000
00000000
00000000
;
