
//----- song ID: lube -----//
#TITLE:LubedeR;
#ARTIST:C-Show;
#BANNER:LubedeR.png;
#BACKGROUND:LubedeR-bg.png;
#CDTITLE:./CDTitles/SDVX VIVID WAVE.png;
#MUSIC:LubedeR.ogg;
#SAMPLESTART:8.405;
#SAMPLELENGTH:15;
#BPMS:0=256;
#NOTES:
     dance-single:
     :
     Beginner:
     3:
     :
0000
0000
0000
0000
,
0000
0000
0000
0000
,
0000
0000
0000
0000
,
0000
0000
0000
0000
,
0000
0000
0000
0000
,
0000
0000
0000
0000
,
0000
0000
0000
0000
,
0000
0000
0000
0000
,
0000
0000
0000
0000
,
0001
0000
0000
0000
,
0001
0000
0000
0000
,
0010
0000
0000
0000
,
0000
0000
0000
0000
,
0001
0000
0000
0000
,
0010
0000
0000
0000
,
0001
0000
0000
0000
,
0000
0000
0000
0000
,
0010
0000
0000
0000
,
0010
0000
0000
0000
,
1000
0000
0000
0000
,
0000
0000
0000
0000
,
0010
0000
0000
0000
,
1000
0000
0000
0000
,
0010
0000
0000
0000
,
0000
0000
0000
0000
,
1000
0000
0000
0000
,
1000
0000
0000
0000
,
0100
0000
0000
0000
,
0000
0000
0000
0000
,
1001
0000
0000
0000
,
0000
0000
0000
0000
,
0000
0000
0000
0000
,
0000
0000
0000
0000
,
1000
0000
0000
0000
,
0010
0000
0000
0000
,
0001
0000
0000
0000
,
0000
0000
0000
0000
,
1001
0000
0000
0000
,
0000
0000
0000
0000
,
0010
0000
0000
0000
,
0000
0000
0000
0000
,
0001
0000
0000
0000
,
0001
0000
0000
0000
,
0010
0000
0000
0000
,
0000
0000
0000
0000
,
1001
0000
0000
0000
,
0000
0000
0000
0000
,
0000
0000
0000
0000
,
0000
0000
0000
0000
,
1001
0000
0000
0000
,
0000
0000
0000
0000
,
0000
0000
0000
0000
,
0000
0000
0000
0000
,
0002
0000
0000
0000
,
0000
0000
0000
0000
,
0003
0000
0000
0000
,
0000
0000
0000
0000
,
0020
0000
0000
0000
,
0000
0000
0000
0000
,
0030
0000
0000
0000
,
0000
0000
0000
0000
,
2000
0000
0000
0000
,
0000
0000
0000
0000
,
3000
0000
0000
0000
,
0000
0000
0000
0000
,
0020
0000
0000
0000
,
0000
0000
0000
0000
,
0030
0000
0000
0000
,
0000
0000
0000
0000
,
0001
0000
0000
0000
,
0001
0000
0000
0000
,
0010
0000
0000
0000
,
0010
0000
0000
0000
,
1000
0000
0000
0000
,
1000
0000
0000
0000
,
0010
0000
0000
0000
,
0000
0000
0000
0000
,
1000
0000
0000
0000
,
0100
0000
0000
0000
,
0001
0000
0000
0000
,
0000
0000
0000
0000
,
0001
0000
0000
0000
,
0010
0000
0000
0000
,
1000
0000
0000
0000
,
0000
0000
0000
0000
,
2000
0000
0000
0000
,
0000
0000
0000
0000
,
3000
0000
0000
0000
,
0000
0000
0000
0000
,
0002
0000
0000
0000
,
0000
0000
0000
0000
,
0003
0000
0000
0000
,
0000
0000
0000
0000
,
0001
0000
0000
0000
,
0010
0000
0000
0000
,
0001
0000
0000
0000
,
0000
0000
0000
0000
,
0010
0000
0000
0000
,
0010
0000
0000
0000
,
1000
0000
0000
0000
,
0000
0000
0000
0000
,
1000
0000
0000
0000
,
0010
0000
0000
0000
,
1000
0000
0000
0000
,
0000
0000
0000
0000
,
0010
0000
0000
0000
,
0010
0000
0000
0000
,
0001
0000
0000
0000
,
0000
0000
0000
0000
,
0001
0000
0000
0000
,
0100
0000
0000
0000
,
0010
0000
0000
0000
,
0000
0000
0000
0000
,
1000
0000
0000
0000
,
0100
0000
0000
0000
,
0010
0000
0000
0000
,
0000
0000
0000
0000
,
1001
0000
0000
0000
,
0000
0000
0000
0000
,
0000
0000
0000
0000
,
0000
0000
0000
0000
0000
0000
0000
1001
,
0000
0000
0000
0000
;
#NOTES:
     dance-single:
     :
     Easy:
     8:
     :
0000
0000
0000
0000
,
0000
0000
0000
0000
,
0000
0000
0000
0000
,
0000
0000
0000
0000
,
0000
0000
0000
0000
,
0000
0000
0000
0000
,
0000
0000
0000
0000
,
0000
0000
0000
0000
,
0000
0000
0000
0000
,
0001
0000
0010
0000
,
0001
0000
0100
0000
,
0001
0000
0010
0000
,
0001
0000
0000
0000
,
1000
0000
0010
0000
,
1000
0000
0100
0000
,
1000
0000
0010
0000
,
1000
0000
0000
0000
,
0001
0010
0001
0000
,
1000
0010
1000
0000
,
0001
0100
0001
0000
,
1000
0010
1000
0000
,
0001
1000
0001
1000
,
0001
0000
1000
0000
,
1001
0000
0000
0000
,
0000
0000
0000
0000
,
0010
0000
0010
0000
,
0100
0000
0100
0000
,
1001
0000
0000
0000
,
0000
0000
0000
0000
,
1000
0001
1000
0000
,
0100
0000
1000
0000
,
0001
1000
0001
0000
,
0100
0000
0001
0000
,
1000
0001
1000
0000
,
0010
0000
1000
0000
,
0001
1000
0001
0000
,
0010
0000
0001
0000
,
1001
0000
1000
0000
,
0100
0000
0001
0000
,
0100
0000
1000
0000
,
0001
1000
0001
0000
,
1001
0000
1000
0000
,
0010
0000
0001
0000
,
0010
0000
1000
0000
,
0001
1000
0001
0000
,
1001
0000
0000
0000
,
0000
0000
0000
0000
,
0000
0000
0000
0000
,
0000
0000
0000
0000
,
1001
0000
0000
0000
,
0000
0000
0000
0000
,
1001
0000
0000
0000
,
0000
0000
0000
0000
,
1000
0000
0100
0000
,
1000
0000
1000
0000
,
0001
0000
0010
0000
,
0100
0000
1000
0000
,
0001
0000
0100
0000
,
0001
0000
0001
0000
,
1000
0000
0010
0000
,
0100
0000
0001
0000
,
1001
0000
1000
0000
,
0100
0000
0010
0000
,
0001
0000
0100
0000
,
0010
0000
0000
0000
,
1001
0000
0001
0000
,
0100
0000
0010
0000
,
1000
0000
0100
0000
,
0010
0000
0000
0000
,
1001
0000
0000
0000
,
0100
0000
0010
0000
,
1001
0000
0000
0000
,
0010
0000
0100
0000
,
1001
0000
0000
0000
,
0001
0000
1000
0000
,
0110
0000
0000
0000
,
1000
0000
0001
0000
,
0110
0000
0000
0000
,
1001
0000
0000
0000
,
0110
0000
0000
0000
,
1001
0000
0000
0000
,
1000
0000
0100
0000
,
0010
0000
0001
0000
,
1000
0100
0010
0001
,
1000
1000
1000
0000
,
0002
0000
0000
0000
,
0000
0000
0003
0000
,
2000
0000
0000
0000
,
0000
0000
3000
0000
,
2002
0000
0000
0000
,
0000
0000
0000
0000
,
3003
0000
0000
0000
,
0000
0000
0000
0000
,
0001
0010
0100
0000
,
0010
0000
0001
0000
,
1000
0010
0100
0000
,
0010
0000
1000
0000
,
0001
0100
0010
0000
,
1000
0000
0001
0000
,
1000
0100
0010
0000
,
0001
0000
1000
0000
,
0001
1000
0001
1000
,
0001
0000
0000
0000
,
1000
0001
1000
0001
,
1000
0000
0000
0000
,
0100
0010
0100
0010
,
0100
0000
0000
0000
,
0010
0100
0010
0100
,
0010
0000
0000
0000
,
0001
0010
0001
0010
,
0001
1000
0001
0000
,
1000
0100
1000
0100
,
1000
0001
1000
0000
,
0001
0100
0010
0000
,
1000
0100
0010
0000
,
0001
0010
0100
0010
,
0100
1000
0001
0000
,
1000
0000
0000
0000
,
0000
0000
0000
0000
,
0000
0000
0000
0000
,
0000
0000
0000
0000
0000
0000
0000
1001
,
0000
0000
0000
0000
;
#NOTES:
     dance-single:
     :
     Medium:
     12:
     :
0000
0000
0000
0000
,
0000
0000
0000
0000
,
0000
0000
0000
0000
,
0000
0000
0000
0000
,
0000
0000
0000
0000
,
0000
0000
0000
0000
,
0000
0000
0000
0000
,
0000
0000
0000
0000
,
0000
0000
0000
0000
,
0001
0000
0100
0000
,
0001
1000
0001
0000
,
1000
0000
0100
0000
,
1000
0001
1000
0000
,
0001
0000
0010
0000
,
0001
1000
0001
0000
,
1001
0000
0000
0000
,
0110
0000
0000
0000
,
1000
0100
1000
0100
,
0010
0001
0010
0000
,
0001
0100
0001
0100
,
0010
1000
0010
0000
,
1000
0100
0010
0001
,
0100
0010
1000
0000
,
1001
0000
0000
0000
,
0000
0000
0000
0000
,
0010
0000
0010
0000
,
1001
0000
1001
0000
,
1001
0000
0000
0000
,
0000
0000
0000
0000
,
1000
0100
0010
0001
,
1000
0100
0010
0000
,
0001
0100
0010
1000
,
0001
0100
0010
0000
,
1000
0010
0100
0001
,
1000
0010
0100
0000
,
0001
0010
0100
1000
,
0001
0010
0100
1000
,
0001
0000
0001
0010
,
1000
0010
0001
0000
,
1000
0000
0100
0000
0001
0000
0100
1000
,
0000
0000
0000
0000
0000
0000
0000
1001
,
0000
1000
0100
0010
,
0001
0100
0010
1000
,
0100
0100
0010
0010
,
0000
0000
0000
0000
,
1001
0000
0000
0000
,
0000
0000
0000
0000
,
0000
0000
0000
0000
,
0000
0000
0000
0000
,
1001
0000
0000
0000
,
0000
0000
0000
0000
,
1001
0000
0000
0000
,
0000
0000
0000
0000
,
1001
0000
0000
0001
0000
0001
0000
0100
,
0000
0100
0000
0010
0000
0010
0000
1000
,
0000
1000
0100
0001
,
0100
1000
0001
0000
,
1001
0000
0000
1000
0000
1000
0000
0010
,
0000
0010
0000
0100
0000
0100
0000
0001
,
0000
0000
0001
0000
0010
0000
0000
0010
,
0000
0100
0000
0100
0000
0100
0000
0100
,
0000
0000
0000
1000
0100
0000
0000
0100
,
0010
0000
0000
0010
0001
0000
0000
0000
,
1001
0000
0000
0001
0100
0000
0000
0100
,
0010
0000
0000
0010
1000
0000
0000
0000
,
1001
0000
0000
1000
0010
0000
0000
0100
,
0001
0000
0000
1000
0010
0000
0000
0100
,
0001
1000
0010
0100
,
0000
0000
0000
0000
,
1001
0000
1000
0100
,
0001
0100
1000
0000
,
1001
0000
0001
0100
,
1000
0100
0001
0000
,
1001
0000
1000
0010
,
0001
0010
1000
0000
,
1001
0000
0001
0010
,
1000
0010
0001
0000
,
1000
0100
0010
0000
,
0100
0010
0001
0000
,
0001
0100
0010
0000
,
0100
0010
1000
0000
,
1000
0001
0100
0010
,
1000
0001
0100
0000
,
0001
1000
0100
0010
,
0001
1000
0100
0000
,
1000
1000
1000
0000
,
0001
0001
0001
0000
,
0010
0010
0010
0000
,
0100
0100
0100
0000
,
1000
0100
0010
0001
,
1000
0100
0010
0001
,
1000
0000
0000
0000
,
0000
0000
0000
0000
,
0001
0100
0010
0100
,
0001
0010
0100
1000
,
0001
0100
1000
0100
,
0001
0010
0100
0000
,
1000
1000
0100
1000
,
0001
0001
0010
0001
,
1000
0010
0100
0001
,
1000
0000
0000
0000
,
0000
1000
0000
0010
0000
0100
0000
0010
,
0000
1000
0000
0100
0000
0010
0000
0001
,
0000
1000
0000
0010
0000
0001
0000
0010
,
0000
1000
0000
0100
0000
0010
0000
0000
,
0001
0001
0010
0001
,
1000
1000
0100
1000
,
0001
0100
0010
1000
,
0001
0000
0000
0000
,
1000
0100
0010
0000
0001
0000
1000
0000
,
0001
0010
0100
0000
1000
0000
0001
0000
,
1000
0100
1000
0000
0001
0100
0001
0000
,
0010
0100
0010
0000
,
0001
0010
0100
0000
1000
0000
0001
0000
,
1000
0100
0010
0000
0001
0000
1000
0000
,
0001
0010
0001
0000
1000
0010
1000
0000
,
0100
0000
0100
0010
,
1001
0000
0000
0000
,
0000
0000
0000
0000
,
0000
0000
0000
0000
0000
0000
0000
0001
,
0000
1000
0000
1000
0000
0001
1000
0001
,
0000
0000
0000
0000
;
#NOTES:
     dance-single:
     :
     Hard:
     15:
     :
0000
0000
0000
0000
,
0000
0000
0000
0000
,
0000
0000
0000
0000
,
0000
0000
0000
0000
,
0000
0000
0000
0000
,
0000
0000
0000
0000
,
0000
0000
0000
0000
,
0000
0000
0000
0000
,
0000
0000
0000
0000
,
1001
0000
0000
0001
0100
0010
0000
1000
,
0000
0001
1000
0000
0001
0000
0000
0000
,
1001
0000
0000
1000
0100
0010
0000
0001
,
0000
1000
0001
0000
1000
0000
0000
0000
,
1001
0000
0000
0001
0010
0100
0000
1000
,
0000
0010
0100
0000
0010
0000
0000
0000
,
1010
0000
0000
0000
,
0101
0000
0001
0010
0001
0000
0001
0000
,
0011
0010
0010
0010
,
0010
0000
0010
0000
0100
0010
0100
0000
,
1000
1000
1000
1000
,
0001
0100
1000
0100
0001
0000
0000
0000
,
1000
0100
0010
0001
1000
0100
0010
0001
,
1000
0100
0010
0001
1000
0100
0010
0001
,
1000
0000
1100
0000
,
0110
0000
1001
0000
,
0011
0000
1100
0000
,
1010
0000
0101
0000
,
1001
0000
0000
0000
,
0000
0000
0000
0000
,
0001
0000
0100
0000
0010
1000
0000
0100
,
1000
0000
0001
0000
0100
0010
0000
0010
,
1000
0010
0000
0010
0001
0010
0000
0010
,
0100
0010
0000
0010
1000
0001
1000
0000
,
1001
0000
0000
0000
0001
0001
0000
0010
,
0000
0100
0100
0010
0010
0000
0100
0010
,
0000
0001
0010
0001
1000
0001
1000
0001
,
1000
0000
0000
0000
0001
0100
0001
1000
,
0001
0000
1000
0000
0100
0010
0001
1000
,
0000
0010
0000
0100
0000
0001
1000
0001
,
0000
1000
0100
0010
0100
0010
0100
0010
,
0000
0001
0000
0001
0000
1000
0000
1001
,
0000
0000
1001
0000
1000
0010
0100
0001
,
0000
0010
0100
0010
0000
0010
0001
0010
,
0100
0100
1000
1000
0001
0001
0010
0010
,
0000
0000
0000
0000
,
1001
0000
0000
0000
,
0000
0000
0000
0000
,
0000
0000
0000
0000
,
0000
0000
0000
0000
,
1001
0000
0000
0000
,
0000
0000
0000
0000
,
1001
0000
0100
0000
,
0100
0000
0100
0000
,
1001
0000
0000
1000
0100
1000
0000
1000
,
0001
1000
0000
1000
0010
1000
0000
0000
,
1001
0000
0000
0001
0100
0001
0000
0001
,
1000
0001
0000
0001
0010
0001
0000
0000
,
1001
0000
0000
0010
1000
0100
0000
0100
,
1000
0001
0000
0001
1000
0010
0000
0000
,
1001
0000
0000
0010
0001
0100
0000
0100
,
0001
1000
0000
1000
0001
0010
0000
0110
,
0000
0000
0000
1000
0100
0010
0000
0010
,
0100
1000
0000
1000
0100
0010
0000
0000
,
1001
0000
0000
0001
0100
0010
0000
0010
,
0100
0001
0000
0001
0100
0010
0000
0000
,
0110
0000
0000
1000
0010
0100
0000
0100
,
0001
1000
0000
1000
0001
0010
0000
0000
,
0110
0000
1001
0000
0001
1000
0001
1000
,
0001
0001
1000
1000
0000
0001
0000
1000
,
0001
0000
0000
0001
0010
0100
0000
0100
,
1000
0001
0000
1000
0001
0000
0000
0000
,
1001
0000
0000
1000
0010
0100
0000
0100
,
0001
1000
0000
0001
1000
0000
0000
0000
,
0110
0000
0000
0001
1000
0010
0000
0010
,
1000
0001
0000
0010
0001
1000
0000
0000
,
0110
0000
0000
1000
0001
0100
0000
0100
,
0001
1000
0000
0100
1000
0000
0001
0000
,
1001
0000
0000
0001
0010
0100
0000
1000
,
1000
0000
0000
1000
0010
0100
0000
0001
,
0001
0000
0000
0001
0100
0010
0000
1000
,
1000
0000
0000
1000
0100
0010
0000
0001
,
0001
0000
0000
0001
0010
0000
0000
0010
,
0100
0000
0000
0100
1000
0000
0000
1000
,
0010
0000
0100
0010
0100
0000
0001
1000
,
0001
1001
0000
0000
,
1000
1000
1000
1000
,
1000
1000
0000
0000
,
0001
0001
0001
0001
,
0001
0001
0000
0000
,
1000
0010
0100
0001
1000
0010
0100
0001
,
1000
0010
0100
0001
1000
0010
0100
0001
,
1000
0000
0000
0000
,
0000
0000
0000
0000
,
1000
0100
1000
0100
0001
0100
1000
0100
,
0010
0001
0100
0010
1000
0100
0010
0001
,
0100
0001
0100
0001
0100
1000
0100
0001
,
0010
0100
1000
0001
0100
0000
0001
0001
,
1000
0010
0100
0010
0001
0010
0100
0010
,
0000
0010
0100
0010
1000
0001
1000
0100
,
0010
0100
0001
0100
0010
0100
0001
0100
,
0010
0000
0000
0000
0001
1000
0001
1000
,
0001
0010
0001
0010
1000
0010
0001
0010
,
0100
1000
0010
0100
0001
0010
0100
1000
,
0010
1000
0010
1000
0010
0001
0010
1000
,
0100
0010
0001
1000
0010
0000
1000
1000
,
0001
0100
0010
0100
1000
0100
0010
0100
,
0000
0100
0010
0100
0001
1000
0001
0010
,
0100
0010
1000
0010
0100
0010
1000
0010
,
0100
0000
0000
0000
,
1000
1000
0100
0100
0010
0010
0001
0000
,
0001
0001
0100
0100
0010
0010
1000
0000
,
0001
0001
1000
1000
0010
0010
0100
0100
,
0001
1000
0010
0100
0001
0001
1000
0000
,
1000
1000
0100
1000
0001
0001
0100
0001
,
1000
1000
0010
1000
0001
0001
0010
0001
,
1000
0010
0100
0100
0001
0010
0100
0100
,
1000
0000
0000
0000
0001
1000
0001
1000
,
0001
0000
0000
0000
,
0000
0000
0000
0000
,
0000
0000
0000
0000
0000
0000
0000
0010
,
0000
0100
0000
0100
0000
0010
0100
0010
,
0000
0000
0000
0000
;
#NOTES:
     dance-double:
     :
     Easy:
     8:
     :
00000000
00000000
00000000
00000000
,
00000000
00000000
00000000
00000000
,
00000000
00000000
00000000
00000000
,
00000000
00000000
00000000
00000000
,
00000000
00000000
00000000
00000000
,
00000000
00000000
00000000
00000000
,
00000000
00000000
00000000
00000000
,
00000000
00000000
00000000
00000000
,
00000000
00000000
00000000
00000000
,
00001000
00000000
00010000
00000000
,
00001000
00000000
00001000
00000000
,
00010000
00000000
00001000
00000000
,
00010000
00000000
00000000
00000000
,
00001000
00000000
01000000
00000000
,
00010000
00000000
01000000
00000000
,
00100000
00000000
10000000
00000000
,
00010000
00000000
00000000
00000000
,
10000000
00010000
10000000
00000000
,
01000000
00000000
00100000
00000000
,
00010000
00100000
00010000
00000000
,
00100000
00000000
00001000
00000000
,
00010000
00001000
00010000
00000000
,
00001000
00010000
00000100
00000000
,
00000010
00000000
00000000
00000000
,
00000000
00000000
00000000
00000000
,
00000010
00000000
00000010
00000000
,
00000100
00000000
00000100
00000000
,
00001001
00000000
00000000
00000000
,
00000000
00000000
00000000
00000000
,
00000001
00001000
00000001
00000000
,
00000010
00000000
00000100
00000000
,
00001000
00000100
00010000
00000000
,
00001000
00000000
00010000
00000000
,
00001000
01000000
00001000
00000000
,
01000000
00000000
00010000
00000000
,
00100000
01000000
00100000
00000000
,
01000000
00000000
00000000
00000000
,
10010000
00000000
10000000
00000000
,
01000000
00000000
00010000
00000000
,
00001000
00000000
00000010
00000000
,
00000001
00001000
00000001
00000000
,
00001001
00000000
00000001
00000000
,
00000100
00000000
00001000
00000000
,
00010000
00000000
00100000
00000000
,
10000000
00010000
10000000
00000000
,
10010000
00000000
00000000
00000000
,
00000000
00000000
00000000
00000000
,
00000000
00000000
00000000
00000000
,
00000000
00000000
00000000
00000000
,
10010000
00000000
00000000
00000000
,
00000000
00000000
00000000
00000000
,
10010000
00000000
00000000
00000000
,
00000000
00000000
00000000
00000000
,
10000000
00000000
00100000
00000000
,
01000000
00000000
01000000
00000000
,
00010000
00000000
00100000
00000000
,
00001000
00000000
00000000
00000000
,
00001000
00000000
00010000
00000000
,
00000100
00000000
00000100
00000000
,
00001000
00000000
00000010
00000000
,
00000100
00000000
00000000
00000000
,
00001001
00000000
00000001
00000000
,
00000100
00000000
00001000
00000000
,
00010000
00000000
00100000
00000000
,
10000000
00000000
00000000
00000000
,
10010000
00000000
10000000
00000000
,
01000000
00000000
00010000
00000000
,
00001000
00000000
00000010
00000000
,
00000001
00000000
00000000
00000000
,
00001001
00000000
00000000
00000000
,
00000001
00000000
00000100
00000000
,
00001000
00000000
00000000
00000000
,
00010000
00000000
00100000
00000000
,
10000000
00000000
00000000
00000000
,
10000000
00000000
01000000
00000000
,
00010000
00000000
00000000
00000000
,
00001000
00000000
00000010
00000000
,
00000001
00000000
00000000
00000000
,
00000110
00000000
00000000
00000000
,
00011000
00000000
00000000
00000000
,
01100000
00000000
00000000
00000000
,
10000000
00010000
10000000
00000000
,
01000000
00000000
00100000
00000000
,
00001000
00010000
00001000
00010000
,
00001000
00001000
00000000
00000000
,
00020000
00000000
00000000
00000000
,
00000000
00000000
00030000
00000000
,
00002000
00000000
00000000
00000000
,
00000000
00000000
00003000
00000000
,
00022000
00000000
00000000
00000000
,
00000000
00000000
00000000
00000000
,
00033000
00000000
00000000
00000000
,
00000000
00000000
00000000
00000000
,
00001000
00010000
00000100
00000000
,
00001000
00000000
00000010
00000000
,
00000100
00000001
00001000
00000000
,
00000100
00000000
00010000
00000000
,
00001000
00100000
00010000
00000000
,
00100000
01000000
00100000
00000000
,
00010000
10000000
01000000
00000000
,
00100000
00000000
00001000
00000000
,
00010000
00001000
00010000
00001000
,
00010000
00000000
00000000
00000000
,
00001000
00010000
00001000
00010000
,
00001000
00000000
00000000
00000000
,
00010000
00000100
00001000
00000000
,
00000010
00000100
00000001
00000000
,
00000100
00000010
00000100
00000010
,
00000100
00000000
00000000
00000000
,
00000001
00000100
00000001
00000100
,
00000010
00001000
00000010
00000000
,
00010000
00000100
00010000
00000100
,
00010000
00001000
00010000
00000000
,
00001000
01000000
00010000
00000000
,
10000000
01000000
00100000
00000000
,
00010000
00100000
01000000
00100000
,
00010000
00100000
00001000
00000000
,
00010000
00000000
00000000
00000000
,
00000000
00000000
00000000
00000000
,
00000000
00000000
00000000
00000000
,
00000000
00000000
00000000
00000000
00000000
00000000
00000000
00011000
,
00000000
00000000
00000000
00000000
;
#NOTES:
     dance-double:
     :
     Medium:
     12:
     :
00000000
00000000
00000000
00000000
,
00000000
00000000
00000000
00000000
,
00000000
00000000
00000000
00000000
,
00000000
00000000
00000000
00000000
,
00000000
00000000
00000000
00000000
,
00000000
00000000
00000000
00000000
,
00000000
00000000
00000000
00000000
,
00000000
00000000
00000000
00000000
,
00000000
00000000
00000000
00000000
,
00001000
00000000
00010000
00000000
,
00001000
00010000
00000100
00000000
,
00001000
00000000
00000100
00000000
,
00000010
00000100
00000010
00000000
,
00000001
00000000
00000010
00000000
,
00000001
00001000
00000001
00000000
,
00001001
00000000
00000000
00000000
,
00000110
00000000
00000000
00000000
,
00000001
00000010
00000001
00000010
,
00000100
00001000
00000100
00000000
,
00010000
00000100
00010000
00000100
,
00010000
00001000
00010000
00000000
,
00001000
01000000
00010000
01000000
,
00100000
10000000
00010000
00000000
,
10010000
00000000
00000000
00000000
,
00000000
00000000
00000000
00000000
,
00100000
00000000
00100000
00000000
,
01000000
00000000
01000000
00000000
,
10010000
00000000
00000000
00000000
,
00000000
00000000
00000000
00000000
,
10000000
01000000
00100000
00000000
,
00010000
10000000
01000000
00000000
,
00100000
00010000
00100000
00001000
,
00010000
00000100
00001000
00000000
,
00000100
00000010
00000001
00000000
,
00000100
00000010
00001000
00000000
,
00000001
00000100
00001000
00010000
,
00001000
00000000
00010000
00001000
,
00011000
00000000
00001000
00010000
,
01000000
10000000
00010000
00000000
,
10000000
00000000
00100000
00000000
01000000
00000000
00001000
00010000
,
00000000
00000000
00000000
00000000
00000000
00000000
00000000
00011000
,
00000000
00010000
00000100
00001000
,
00000010
00000100
00000001
00000010
,
00000100
00000100
00000010
00000010
,
00000000
00000000
00000000
00000000
,
00000110
00000000
00000000
00000000
,
00000000
00000000
00000000
00000000
,
00000000
00000000
00000000
00000000
,
00000000
00000000
00000000
00000000
,
00001001
00000000
00000000
00000000
,
00000000
00000000
00000000
00000000
,
00001001
00000000
00000000
00000000
,
00000000
00000000
00000000
00000000
,
00001001
00000000
00000000
00000001
00000000
00000001
00000000
00001000
,
00000000
00001000
00000000
00000100
00000000
00000100
00000000
00010000
,
00000000
00010000
00001000
00010000
,
00100000
00010000
00001000
00000000
,
00011000
00000000
00000000
00010000
00000000
00010000
00000000
00001000
,
00000000
00001000
00000000
00100000
00000000
00100000
00000000
00010000
,
00000000
00000000
00010000
00000000
00100000
00000000
00000000
01000000
,
00000000
00100000
00000000
00100000
00000000
00100000
00000000
00100000
,
00000000
00000000
00000000
00100000
00001000
00000000
00000000
00001000
,
00010000
00000000
00000000
00010000
00000100
00000000
00001000
00000000
,
00000001
00000000
00000000
00000001
00000100
00000000
00000000
00000100
,
00001000
00000000
00000000
00001000
00010000
00000000
00000000
00000000
,
00011000
00000000
00000000
00001000
01000000
00000000
00000000
01000000
,
00010000
00000000
00000000
00010000
10000000
00000000
00000000
10000000
,
00100000
01000000
00010000
10000000
,
00000000
00000000
00000000
00000000
,
10010000
00000000
10000000
01000000
,
00010000
00001000
00010000
00000000
,
00011000
00000000
00010000
00001000
,
00000010
00000001
00000010
00000000
,
00001001
00000000
00000001
00000100
,
00001000
00010000
00001000
00000000
,
00011000
00000000
00001000
00010000
,
00100000
10000000
00100000
00000000
,
10000000
01000000
00100000
00000000
,
01000000
00100000
00010000
00000000
,
00100000
00010000
00001000
00000000
,
00000100
00000010
00000001
00000000
,
00000001
00000100
00000010
00001000
,
00010000
01000000
00100000
00000000
,
10000000
01000000
00100000
00010000
,
00100000
00001000
00010000
00000000
,
00001000
00001000
00001000
00000000
,
00010000
00010000
00010000
00000000
,
00000100
00000100
00000100
00000000
,
00001000
00001000
00001000
00000000
,
00000001
00000100
00000010
00001000
,
00000100
00010000
00001000
00010000
,
00001000
00000000
00000000
00000000
,
00000000
00000000
00000000
00000000
,
00001000
00010000
00100000
00010000
,
00001000
00100000
00010000
01000000
,
00100000
10000000
01000000
00010000
,
01000000
10000000
00010000
00000000
,
10000000
10000000
01000000
10000000
,
00010000
00010000
00100000
00010000
,
01000000
00100000
00010000
00001000
,
00010000
00000000
00000000
00000000
,
00000000
00010000
00000000
00001000
00000000
00000010
00000000
00001000
,
00000000
00010000
00000000
00000010
00000000
00001000
00000000
00000100
,
00000000
00000010
00000000
00000001
00000000
00000100
00000000
00001000
,
00000000
00000100
00000000
00000001
00000000
00001000
00000000
00000000
,
00000001
00000001
00000100
00000001
,
00001000
00001000
00000010
00001000
,
00000100
00000010
00001000
00010000
,
00001000
00000000
00000000
00000000
,
00010000
00001000
00010000
00000000
00001000
00000000
01000000
00000000
,
00010000
00100000
00010000
00000000
10000000
00000000
01000000
00000000
,
00100000
00010000
00100000
00000000
00001000
00010000
00001000
00000000
,
00010000
00000100
00001000
00000000
,
00000001
00000010
00000100
00000000
00001000
00000000
00000010
00000000
,
00001000
00000100
00010000
00000000
00001000
00000000
00100000
00000000
,
00010000
01000000
00100000
00000000
10000000
01000000
00100000
00000000
,
00010000
00000000
00100000
01000000
,
10010000
00000000
00000000
00000000
,
00000000
00000000
00000000
00000000
,
00000000
00000000
00000000
00000000
00000000
00000000
00000000
10000000
,
00000000
00100000
00000000
00010000
00000000
00001000
00010000
00001000
,
00000000
00000000
00000000
00000000
;
#NOTES:
     dance-double:
     :
     Hard:
     16:
     :
00000000
00000000
00000000
00000000
,
00000000
00000000
00000000
00000000
,
00000000
00000000
00000000
00000000
,
00000000
00000000
00000000
00000000
,
00000000
00000000
00000000
00000000
,
00000000
00000000
00000000
00000000
,
00000000
00000000
00000000
00000000
,
00000000
00000000
00000000
00000000
,
00000000
00000000
00000000
00000000
,
00011000
00000000
00000000
00001000
00010000
00000010
00000000
00001000
,
00000000
00000100
00000010
00000000
00000100
00000000
00000000
00000000
,
00000110
00000000
00000000
00000010
00000001
00001000
00000000
00000100
,
00000000
00010000
00001000
00000000
00010000
00000000
00000000
00000000
,
00011000
00000000
00000000
00001000
01000000
00010000
00000000
00100000
,
00000000
01000000
00100000
00000000
01000000
00000000
00000000
00000000
,
01100000
00000000
00000000
00000000
,
10010000
00000000
10000000
00100000
10000000
00000000
00010000
00000000
,
00110000
00100000
00100000
00100000
,
00100000
00000000
00100000
00000000
00001000
00010000
00001000
00000000
,
00010000
00010000
00010000
00010000
,
00001000
00010000
00000100
00001000
00000100
00000000
00000000
00000000
,
00001000
00000100
00000010
00000001
00001000
00000100
00000010
00000001
,
00001000
00000100
00010000
00000010
00001000
00000100
00010000
00001000
,
00010000
00000000
00011000
00000000
,
01001000
00000000
01010000
00000000
,
00110000
00000000
11000000
00000000
,
10100000
00000000
01010000
00000000
,
10010000
00000000
00000000
00000000
,
00000000
00000000
00000000
00000000
,
10000000
00000000
00100000
00000000
10000000
01000000
00000000
00100000
,
00010000
00000000
00100000
00000000
00001000
00010000
00000000
00010000
,
00100000
00010000
00000000
00001000
00010000
00001000
00000000
00000010
,
00001000
00000010
00000000
00001000
00010000
00001000
00010000
00000000
,
00011000
00000000
00000000
00000000
00001000
00001000
00000000
00010000
,
00000000
00000010
00000010
00001000
00001000
00000000
00000100
00000010
,
00000000
00000001
00000010
00000001
00001000
00000001
00001000
00000001
,
00001000
00000000
00000000
00000000
00000001
00000100
00000001
00001000
,
00000001
00000000
00001000
00000000
00000100
00010000
00000100
00010000
,
00000000
00001000
00000000
00010000
00000000
00001000
01000000
00001000
,
00000000
01000000
00010000
01000000
00100000
01000000
00010000
01000000
,
00000000
00010000
00000000
00010000
00000000
10000000
00000000
10010000
,
00000000
00000000
10010000
00000000
10000000
01000000
00100000
00010000
,
00000000
00100000
01000000
00100000
00000000
00100000
00010000
00100000
,
00001000
00001000
00010000
00010000
00000100
00000100
00001000
00001000
,
00000000
00000000
00000000
00000000
,
00001001
00000000
00000000
00000000
,
00000000
00000000
00000000
00000000
,
00000000
00000000
00000000
00000000
,
00000000
00000000
00000000
00000000
,
00011000
00000000
00000000
00000000
,
00000000
00000000
00000000
00000000
,
10010000
00000000
01000000
00000000
,
01000000
00000000
01000000
00000000
,
10010000
00000000
00000000
10000000
00100000
10000000
00000000
10000000
,
00100000
01000000
00000000
01000000
00010000
01000000
00000000
01000000
,
00001000
00000000
00000000
00001000
00010000
00001000
00000000
00001000
,
00010000
00000010
00000000
00000010
00001000
00000001
00000000
00000001
,
00001000
00000000
00000000
00000001
00000010
00000100
00000000
00000100
,
00010000
00001000
00000000
00001000
01000000
00010000
00000000
00010000
,
00100000
00000000
00000000
00100000
00010000
10000000
00000000
10000000
,
01000000
00100000
00000000
00100000
00001000
00010000
00000000
00011000
,
00000000
00000000
00000000
00001000
00010000
00000100
00000000
00000100
,
00010000
00001000
00000000
00001000
00010000
00000100
00000000
00000100
,
00010000
00000000
00000000
00010000
00001000
01000000
00000000
01000000
,
00001000
00010000
00000000
00010000
00001000
01000000
00000000
01000000
,
00001000
00000000
00000000
00001000
00010000
00000010
00000000
00000010
,
00010000
00001000
00000000
00001000
00010000
00000010
00000000
00000010
,
00010000
00000000
00011000
00000000
00001000
00010000
00001000
00010000
,
00001000
00001000
00010000
00010000
00000000
00001000
00000000
00010000
,
00001000
00000000
00000000
00001000
01000000
00010000
00000000
00010000
,
00100000
00001000
00000000
00001000
00010000
00000000
00000000
00000000
,
00011000
00000000
00000000
00010000
00000100
00001000
00000000
00001000
,
00000010
00010000
00000000
00010000
00001000
00000000
00000000
00000000
,
00011000
00000000
00000000
00001000
01000000
00010000
00000000
00010000
,
01000000
00100000
00000000
00100000
00010000
00001000
00000000
00000000
,
00011000
00000000
00000000
00010000
00000100
00001000
00000000
00001000
,
00000100
00000010
00000000
00000010
00001000
00000000
00010000
00000000
,
00011000
00000000
00000000
00001000
00010000
00100000
00000000
01000000
,
01000000
00000000
00000000
00100000
00010000
00001000
00000000
00010000
,
00010000
00000000
00000000
00001000
00000010
00000100
00000000
00001000
,
00001000
00000000
00000000
00000100
00000010
00001000
00000000
00010000
,
00010000
00000000
00000000
00100000
01000000
00000000
00000000
00001000
,
00010000
00000000
00000000
00000100
00000010
00000000
00000000
00001000
,
00010000
00000000
00001000
00010000
00001000
00000000
00010000
00001000
,
00010000
00011000
00000000
00000000
,
00001000
00001000
00001000
00001000
,
00001000
00001000
00000000
00000000
,
00010000
00010000
00010000
00010000
,
00010000
00010000
00000000
00000000
,
00001000
00100000
00010000
01000000
00100000
10000000
01000000
00100000
,
00010000
00100000
00001000
00010000
00000100
00001000
00000010
00000100
,
00000001
00000000
00000000
00000000
,
00000000
00000000
00000000
00000000
,
00000001
00000100
00000001
00000100
00001000
00000100
00000001
00000010
,
00000100
00010000
00001000
00000100
00000010
00010000
00001000
00100000
,
00010000
01000000
00010000
00100000
00010000
01000000
00100000
10000000
,
01000000
00010000
01000000
10000000
00010000
00000000
10000000
10000000
,
01000000
00100000
01000000
00010000
01000000
00100000
00001000
00010000
,
00000000
00010000
00100000
00010000
00001000
00000100
00000010
00010000
,
00000100
00001000
00000100
00000010
00000100
00001000
00000100
00010000
,
00000100
00000000
00000000
00000000
00000010
00000100
00000010
00000100
,
00000010
00000001
00000010
00000001
00000010
00001000
00000010
00001000
,
00010000
00001000
00010000
01000000
00010000
01000000
10000000
00010000
,
10000000
00100000
10000000
00100000
00010000
00100000
00010000
00100000
,
00010000
00001000
00000100
00001000
00000100
00000000
00000001
00000001
,
00000010
00000100
00001000
00000100
00010000
00000100
00001000
00000100
,
00000000
00000100
00000010
00001000
00010000
01000000
10000000
00010000
,
01000000
00100000
01000000
10000000
01000000
00100000
01000000
00010000
,
10000000
00000000
00000000
00000000
,
10000000
10000000
01000000
01000000
00100000
00100000
00010000
00000000
,
00010000
00010000
00100000
00100000
00001000
00001000
00010000
00000000
,
00010000
00010000
00000100
00000100
00001000
00001000
00000010
00000010
,
00000100
00000001
00001000
00000010
00000100
00000100
00000001
00000000
,
00001000
00001000
00000100
00010000
00001000
00001000
00100000
01000000
,
00010000
00010000
00001000
00000010
00000100
00000100
00010000
00001000
,
00100000
01000000
00010000
00001000
00000010
00000100
00010000
00001000
,
00010000
00000000
00000000
00000000
00001000
00010000
00001000
00010000
,
00001000
00000000
00000000
00000000
,
00000000
00000000
00000000
00000000
,
00000000
00000000
00000000
00000000
00000000
00000000
00000000
00001000
,
00000000
00010000
00000000
00010000
00000000
00001000
00010000
00001000
,
00000000
00000000
00000000
00000000
;
