
//----- song ID: loyo -----//
#TITLE:Love You;
#ARTIST:BEMANI Sound Team "KE!JU";
#BANNER:Love You.png;
#BACKGROUND:Love You-bg.png;
#CDTITLE:./CDTitles/DANCERUSH STARDOM.png;
#MUSIC:Love You.ogg;
#SAMPLESTART:17.5;
#SAMPLELENGTH:15;
#BPMS:0=128;
#BGSTAGE:2;
#NOTES:
     dance-single:
     :
     Beginner:
     2:
     :
0000
0000
0000
0000
,
0000
0000
0000
0000
,
0000
0000
0000
0000
,
0000
0000
0000
0000
,
0000
0000
0000
0000
,
0000
0000
0000
0000
,
0010
0000
0000
0000
,
0010
0000
0000
0000
,
0010
0010
0010
0010
,
0010
0000
0000
0000
,
1000
0000
0001
0000
,
1000
0000
0000
0000
,
0010
0000
0000
0000
,
0100
0000
0000
0000
,
0001
0000
1000
0000
,
0001
0000
0000
0000
,
0010
0000
0000
0000
,
0010
0000
1000
1000
,
1000
0000
0001
0000
,
1000
0000
0000
0000
,
0010
0000
0000
0000
,
0100
0000
0000
0000
,
0001
0000
1000
0000
,
0001
0000
0000
0000
,
0010
0000
0000
0000
,
1000
0000
0010
0010
,
0010
0000
0000
0000
,
0001
0000
0000
0000
,
0100
0000
0000
0000
,
0001
0000
0010
0010
,
0010
0000
0000
0000
,
0001
0001
0001
0000
,
1000
1000
1000
2000
,
0000
3000
0000
0000
,
0010
0000
0000
0000
,
0001
0000
0000
0000
,
0010
0000
0000
0000
,
1000
0000
0000
0000
,
0100
0000
0000
0000
,
0100
0000
0000
0000
,
0010
0010
0010
0010
,
0010
0000
0000
0000
,
1000
0000
0001
0000
,
1000
0000
0000
0000
,
0010
0010
0000
0000
,
0100
0000
0000
0000
,
0001
0000
1000
0000
,
0001
0000
0000
0000
,
0010
0010
0000
0000
,
0100
0000
0000
0000
,
1000
1000
0000
0001
,
0000
1000
0000
0001
,
0000
1000
0000
0001
,
0000
1000
0000
0001
,
0000
1000
0000
0001
,
0000
1000
0000
0001
,
0000
1000
0000
0001
,
0000
1000
0000
0001
,
2002
0000
0000
3003
,
0000
0000
0000
0000
;
#NOTES:
     dance-single:
     :
     Easy:
     6:
     :
0000
0000
0000
0000
,
0000
0000
0000
0000
,
0000
0000
0000
0000
,
0000
0000
0000
0000
,
0000
0000
0000
0000
,
0000
0000
0000
0000
,
1000
0000
0000
0000
,
0010
0000
0010
0000
,
0100
0100
0100
0100
,
0000
0000
0001
0001
,
1000
0000
0001
1000
,
0001
0001
0010
0001
,
1000
1000
0010
0100
,
0001
0001
2000
3000
,
0001
0001
1000
0001
,
1000
1000
0010
1000
,
0001
0001
0010
0100
,
2000
3000
0110
0110
,
1000
0000
0001
0000
,
1000
0001
0010
0001
,
1000
1000
0010
0100
,
0001
0001
2000
3000
,
0001
0001
1000
0001
,
1000
1000
0010
1000
,
0001
0001
0010
0100
,
1000
1000
0001
0001
,
0002
0000
0000
0003
,
0200
0000
0000
0300
,
2000
0000
0000
3000
,
0200
0300
0100
0100
,
0010
0000
0000
0000
,
0010
0000
0000
0010
0000
0000
0000
0000
,
0010
0000
0000
0010
0000
0000
0200
0000
,
0000
0300
0000
0001
,
0001
0010
1000
0010
,
0001
0010
1000
0010
,
0001
0010
1000
0010
,
0001
0010
1000
0010
,
0001
0001
0001
0001
,
1000
1000
1000
1000
,
0010
0010
0010
0010
,
0100
0000
0001
0001
,
1000
0000
0001
0001
,
1000
0001
1000
1000
,
0010
1000
0001
0001
,
0010
0100
2000
3000
,
0001
0001
1000
1000
,
0001
1000
0001
0001
,
0010
0001
1000
1000
,
0020
0030
1000
1000
,
0110
0000
0001
0000
,
1000
0000
0001
1000
,
0110
0000
0001
0000
,
1000
0000
0001
1000
,
0110
0000
1000
0000
,
0001
0000
1000
0001
,
0110
0000
1000
0000
,
0001
0000
1000
1000
,
2002
0000
0000
3003
,
0000
0000
0000
0000
;
#NOTES:
     dance-single:
     :
     Medium:
     10:
     :
0000
0000
0000
0000
,
0000
0000
0000
0000
,
0000
0000
0000
0000
,
0000
0000
0000
0000
,
0000
0000
0000
0000
,
0000
0000
0000
0000
,
1000
0100
0010
0001
,
0010
0100
1000
0100
,
1000
0001
1000
0001
1000
0001
1000
0001
,
0100
0000
0001
1000
,
1100
0000
0100
1000
0100
0010
0100
2000
,
0000
3100
0000
2000
0000
3100
0000
0000
,
1001
0000
1000
0001
0100
0010
0100
0002
,
0000
0103
0000
0010
0000
1000
0001
0000
,
0101
0000
0100
0001
0100
0010
0100
0002
,
0000
0103
0000
0002
0000
0103
0000
0000
,
1001
0000
0001
1000
0100
0010
0100
2000
,
0000
3100
0000
0000
1000
0000
0001
0000
,
0101
0000
0100
0000
0100
0000
0100
0002
,
0000
0103
0000
0002
0000
0103
0000
0000
,
1001
0000
0001
1000
0100
0010
0100
2000
,
0000
3100
0000
0010
0000
0001
1000
0000
,
1100
0000
0100
1000
0100
0010
0100
2000
,
0000
3100
0000
2000
0000
3100
0000
0000
,
1001
0000
1000
0001
0100
0010
0100
0002
,
0000
0103
0000
0000
0011
0000
1100
0000
,
0011
0010
1000
0010
,
0001
0100
1000
0100
,
0001
0010
1000
0010
,
0002
0000
1003
0001
,
1001
0000
0000
0000
,
0101
0000
0000
1100
0000
0000
0000
0000
,
0110
0000
0000
0110
0000
0000
2002
0000
,
0000
0000
3003
0001
,
0001
0000
0000
1000
0100
1000
0001
0010
,
0000
0001
0000
1000
0000
0001
1000
0000
,
1000
0000
0000
0001
0100
0001
1000
0010
,
0000
1000
0000
0010
0000
1000
0100
0000
,
0010
0001
0010
0000
0010
0001
0010
0000
,
0100
1000
0100
0000
0100
1000
0100
0000
,
1000
0100
0001
0100
1000
0010
0001
0020
,
0000
0000
1030
0001
,
0101
0000
0100
0001
0100
0000
0100
0002
,
0000
0103
0000
0002
0000
0000
0103
0000
,
1001
0000
0001
1000
0100
0010
0100
2000
,
0000
3100
0000
0000
0010
0000
1001
0000
,
1100
0000
0100
1000
0100
0010
0100
2000
,
0000
3100
0000
2000
0000
0000
3001
0000
,
1001
0000
1000
0001
0100
0010
0100
0002
,
0000
0103
0000
0000
0001
0000
1000
0000
,
1100
0000
0000
1000
0000
0000
0100
0000
0000
1000
0001
1000
,
0010
0000
0000
1000
0000
0000
0001
0000
0100
0000
0001
0000
,
0101
0000
0000
0001
0000
0000
0100
0000
0000
0001
1000
0001
,
0010
0000
0000
0001
0000
0000
1000
0000
0100
0000
1000
0000
,
0001
0000
0000
0001
0000
0000
0100
0000
0000
0001
1000
0001
,
0010
0000
0000
0001
0000
0000
1000
0000
0100
0000
1000
0000
,
1100
0000
0000
1000
0000
0000
0100
0000
0000
1000
0001
1000
,
0010
1000
0001
1000
,
0220
0000
0000
0330
,
0000
0000
0000
0000
;
#NOTES:
     dance-single:
     :
     Hard:
     12:
     :
0000
0000
0000
0000
,
0000
0000
0000
0000
,
0000
0000
0000
0000
,
0000
0000
0000
0000
,
0000
0000
0000
0000
,
0000
0000
0000
0000
,
0001
0010
0100
1000
0100
0010
0001
1000
,
0100
0010
0001
1000
0100
0010
0100
1000
,
0100
0001
0100
1000
0010
0001
0010
1000
,
0000
0000
0000
1000
0100
0000
0101
0000
,
1100
0000
0100
1000
0100
0010
0100
1000
,
0010
0001
0000
1000
0100
0001
1000
0000
,
1001
0000
1000
0001
0100
0010
0100
0001
,
0100
1000
0100
0001
0000
1000
0001
0000
,
0101
0000
0100
0001
0100
0010
0100
0001
,
0010
1000
0000
0001
0100
1000
0001
0000
,
1001
0000
0001
1000
0100
0010
0100
1000
,
0100
0001
0000
0001
0100
0000
1100
0000
,
1001
0000
1000
0010
0100
0010
0100
0001
,
0010
1000
0000
0001
0100
1000
0001
0000
,
1001
0000
0001
1000
0100
0010
0100
1000
,
0100
0001
0000
0001
0100
1000
0100
0000
,
1100
0000
0100
1000
0100
0010
0100
1000
,
0010
0001
0000
1000
0100
0001
1000
0000
,
1001
0000
1000
0001
0100
0010
0100
0001
,
0100
1000
0000
1000
0100
0000
0101
0000
,
0001
0010
0100
1000
0100
0010
0001
0010
,
0100
0010
0001
1000
0100
1000
0001
0010
,
0001
0100
1000
0100
0010
0001
0010
0100
,
0010
0100
0001
1000
0100
0000
0101
0000
,
1100
0001
1000
0010
,
0101
0000
0100
1100
1000
0000
1000
0000
,
0110
0000
0100
0110
0010
0000
2000
0000
,
0001
0001
3001
0001
,
1000
0000
0000
0000
0000
0000
0000
0000
0100
0010
0000
0001
0000
0000
0100
0010
,
0000
0000
1000
0000
0000
0000
0000
0000
0100
0010
1000
0000
0010
0000
0100
0000
,
0000
0000
0010
0000
0000
0000
0100
0000
1000
0010
0000
0100
0000
0000
0001
0100
,
0000
0000
0010
0000
0000
0000
0000
0000
1000
0100
1000
0000
1001
0000
0000
0000
,
1000
0010
0001
0010
1000
0010
1000
0100
,
0001
0100
0010
1000
0010
0100
0001
1000
,
0001
0100
1000
0001
0010
1000
0001
0200
,
0000
0000
1300
0001
,
0101
0000
0100
0001
0100
0010
0100
0001
,
0010
1000
0000
0001
0100
1000
0001
0000
,
1001
0000
0001
1000
0100
0010
0100
1000
,
1000
0100
0000
0010
0000
0001
1000
0000
,
1100
0000
0100
1000
0100
0010
0100
1000
,
0100
0001
0000
1000
0010
0001
1000
0000
,
1001
0000
1000
0001
0100
0010
0100
1000
,
0100
0001
0000
1000
0001
0010
0100
0000
,
1100
0000
0000
1000
0001
1000
0100
0000
0000
1000
0001
0100
,
0010
0000
0000
1000
0001
1000
0100
1000
0010
0001
0010
0100
,
0001
0000
0000
0001
1000
0001
0010
0000
0000
0001
1000
0001
,
0010
0000
0000
0001
0100
1000
0100
0000
0001
0000
1000
0000
,
1001
0000
0000
0001
1000
0001
0100
0000
0000
0001
0100
1000
,
0100
0000
0000
1000
0001
1000
0100
0010
0001
0010
1000
0100
,
1000
0000
0000
1000
0001
1000
0100
0000
0000
0001
1000
0001
,
0100
0000
0000
0001
1000
0010
0001
0000
0000
1100
0000
0000
,
2002
0000
0000
3003
,
0000
0000
0000
0000
;
#NOTES:
     dance-double:
     :
     Easy:
     6:
     :
00000000
00000000
00000000
00000000
,
00000000
00000000
00000000
00000000
,
00000000
00000000
00000000
00000000
,
00000000
00000000
00000000
00000000
,
00000000
00000000
00000000
00000000
,
00000000
00000000
00000000
00000000
,
10000000
00000000
00000000
00000000
,
01000000
00000000
00010000
00000000
,
00001000
00000010
00000001
00000100
,
00000000
00000000
00001000
00001000
,
00010000
00000000
01000000
10000000
,
00010000
00010000
00100000
00001000
,
00010000
00010000
00001000
00000010
,
00000001
00000100
00000200
00000300
,
00001000
00010000
00100000
10000000
,
01000000
00010000
00001000
00000010
,
00000001
00000001
00000100
00000100
,
00002000
00003000
00011000
00011000
,
00001000
00000000
00010000
00001000
,
00001000
00000010
00000001
00000100
,
00001000
00001000
00010000
00100000
,
10000000
01000000
02000000
03000000
,
00010000
00001000
00000010
00000001
,
00000100
00001000
00010000
00100000
,
10000000
10000000
01000000
01000000
,
00020000
00030000
00011000
00011000
,
00002000
00000000
00000000
00003000
,
00000020
00000000
00000000
00000030
,
00000002
00000000
00000000
00000003
,
00000200
00000000
00000000
00000300
,
00002000
00000000
00000000
00003000
,
00010000
00000000
00000000
00010000
00000000
00000000
00000000
00000000
,
00001000
00000000
00000000
00001000
00000000
00000000
00020000
00000000
,
00000000
00030000
00000000
00010000
,
00001000
00000010
00000001
00000010
,
00000001
00000010
00001000
00010000
,
00100000
10000000
00100000
10000000
,
00100000
00010000
00001000
00000010
,
00000001
00000001
00000001
00000000
,
00000100
00000100
00000100
00000000
,
00001000
00001000
00010000
00010000
,
00010000
00000000
00010000
00010000
,
00001000
00000000
00010000
00001000
,
00001000
00000010
00000001
00000100
,
00001000
00001000
00010000
00100000
,
10000000
01000000
02000000
03000000
,
00010000
00001000
00000010
00000001
,
00000100
00001000
00010000
00100000
,
10000000
10000000
01000000
01000000
,
00020000
00030000
00011000
00011000
,
00000110
00000000
00000001
00000000
,
00001000
00000000
00000001
00000100
,
00001000
00000000
00010000
00000000
,
00100000
00000000
10000000
00010000
,
01100000
00000000
10000000
00000000
,
01000000
00000000
00010000
00001000
,
00000110
00000000
00000001
00000000
,
00000100
00000000
00001000
00010000
,
00022000
00000000
00000000
00033000
,
00000000
00000000
00000000
00000000
;
#NOTES:
     dance-double:
     :
     Medium:
     10:
     :
00000000
00000000
00000000
00000000
,
00000000
00000000
00000000
00000000
,
00000000
00000000
00000000
00000000
,
00000000
00000000
00000000
00000000
,
00000000
00000000
00000000
00000000
,
00000000
00000000
00000000
00000000
,
10000000
01000000
00100000
10000000
,
00100000
01000000
00010000
00001000
,
00010000
00001000
00010000
00001000
00010000
00001000
00000010
00000001
,
00000100
00000000
00000100
00000001
,
00001001
00001001
00000010
00001001
,
00000100
00001000
00000100
00010000
,
01000000
10010000
00100000
10010000
,
00100000
10000000
01000000
00000000
,
00100000
10010000
01000000
10010000
,
01000000
00100000
00010000
00001000
,
00000100
00001001
00000100
00001001
,
00000010
00000001
00000100
00001000
,
00010000
00100000
10000000
10010000
,
10000000
01000000
00010000
00001000
,
00000100
00001001
00000010
00001001
,
00000100
00000001
00000100
00000000
,
00000010
00001001
00000010
00001001
,
00000100
00000010
00001000
00010000
,
01000000
10010000
00100000
10010000
,
00100000
10000000
01000000
00000000
,
20000000
00000000
00000000
30000000
,
00020000
00000000
00000000
00030000
,
00002000
00000000
00000000
00003000
,
00000001
00000000
00000001
00001000
,
00000101
00000000
00000000
00000000
,
00001100
00000000
00000000
00011000
00000000
00000000
00000000
00000000
,
00110000
00000000
00000000
10100000
00000000
00000000
20020000
00000000
,
00000000
00000000
30030000
10000000
,
10000000
00000000
10000000
00010000
01000000
00010000
10000000
00000000
,
01000000
00000000
00010000
00000000
00001000
00000010
00000001
00000000
,
00000001
00000000
00000001
00001000
00000100
00001000
00000001
00000000
,
00000100
00000000
00001000
00000000
00010000
00001000
00010000
00000000
,
00100000
10000000
00100000
00000000
10000000
01000000
00010000
00000000
,
00001000
00000010
00000001
00000000
00000100
00000001
00000100
00000000
,
00000001
00000100
00001000
00010000
00100000
10000000
01000000
20000000
,
00000000
00000000
31000000
00010000
,
00001000
00000110
00000010
00001001
,
00000100
00001000
00000100
00010000
,
01000000
10010000
00100000
10010000
,
00100000
10000000
01000000
00000000
,
00100000
10010000
01000000
10010000
,
01000000
00100000
00010000
00001000
,
00000100
00001001
00000100
00001001
,
00000010
00000001
00000100
00001000
,
00011000
00000000
00000000
00010000
00000000
00000000
01000000
00000000
00000000
10000000
00010000
10000000
,
00100000
00000000
00000000
10000000
00000000
00000000
01000000
00000000
00010000
00000000
00001000
00000000
,
00011000
00000000
00000000
00001000
00000000
00000000
00000010
00000000
00000000
00000001
00001000
00000001
,
00000010
00000000
00000000
00000001
00000000
00000000
00000100
00000000
00001000
00000000
00010000
00000000
,
00011000
00000000
00000000
00010000
00000000
00000000
01000000
00000000
00000000
10000000
00010000
10000000
,
00100000
00000000
00000000
00010000
00000000
00000000
00100000
00000000
01000000
00000000
10000000
00000000
,
01000000
00000000
00000000
00100000
00000000
00000000
00010000
00000000
00000000
00001000
00000100
00000010
,
00000100
00000000
00000000
00000001
00000100
00001000
00010000
00000000
00000000
00100000
00000000
00000000
,
20020000
00000000
00000000
30030000
,
00000000
00000000
00000000
00000000
;
#NOTES:
     dance-double:
     :
     Hard:
     12:
     :
00000000
00000000
00000000
00000000
,
00000000
00000000
00000000
00000000
,
00000000
00000000
00000000
00000000
,
00000000
00000000
00000000
00000000
,
00000000
00000000
00000000
00000000
,
00000000
00000000
00000000
00000000
,
00000001
00000010
00000100
00001000
00010000
00001000
00000100
00000010
,
00000001
00000100
00001000
00010000
00100000
01000000
10000000
01000000
,
00010000
01000000
00100000
00010000
00001000
00000100
00000010
00000001
,
00000000
00000000
00000000
00000010
00001000
00000000
00001001
00000000
,
00000011
00000000
00000001
00000100
00001000
00010000
00001000
00200000
,
00000000
01300000
00000000
10000000
00000000
00100000
00010000
00001000
,
00010000
00000000
01000000
10000000
00010000
00001000
00010000
02000000
,
00000000
03100000
00000000
00010000
00001000
00000100
00000010
00000000
,
00001001
00000000
00000001
00000100
00001000
00010000
00001000
00200000
,
00000000
01300000
00000000
20000000
00000000
30010000
01000000
00100000
,
00010000
00000000
00001000
00000100
00000001
00000010
00001000
00020000
,
00000000
01030000
00000000
00100000
00010000
00000000
01100000
00000000
,
11000000
00000000
00010000
10000000
01000000
00100000
00001000
00020000
,
00000000
00030010
00000000
00002000
00000000
00003100
00000010
00000001
,
00000100
00000000
00001000
00010000
00100000
10000000
01000000
00020000
,
00000000
00031000
00000000
00010000
00000000
01000000
00010000
00000000
,
00001000
00000000
00000010
00000001
00000100
00001000
00010000
00002000
,
00000000
00103000
00000000
02000000
00000000
13000000
00010000
01000000
,
00001000
00000000
00010000
00000100
00000010
00000001
00000100
00002000
,
00000000
00103000
00000000
01000000
10000000
00000000
10010000
00000000
,
00010000
00100000
01000000
10000000
01000000
00100000
00010000
00001000
,
00000100
00000010
00000001
00001000
00000100
00001000
00000001
00000010
,
00000001
00000100
00001000
00000100
00000010
00000001
00000010
00000100
,
00001000
00010000
00100000
10000000
01000000
00000000
01010000
00000000
,
00011000
00001000
00010000
00001000
,
00010000
00000000
00000100
00000110
00000010
00000000
00000001
00000000
,
00000100
00000000
00000010
00001000
00010000
00000000
01020000
00000000
,
00000000
01000000
10000000
00100000
,
00032000
00000100
00000001
00000010
,
00023000
01000000
10000000
00100000
,
00032000
00000100
00000001
00000010
,
00023000
01000000
10000000
00100000
,
00031000
00000100
00000001
00000100
00000010
00000001
00000100
00001000
,
00010000
00001000
00000100
00001000
00010000
00001000
00000010
00001000
,
00010000
01000000
10000000
00010000
00100000
10000000
00010000
02000000
,
00000000
00000000
13000000
00010000
,
11000000
00000000
10000000
00100000
00010000
00001000
00010000
00000200
,
00000000
00000310
00000000
00000001
00000000
00000100
00001000
00010000
,
00001000
00000000
00000010
00000001
00001000
00010000
00001000
00000020
,
00000000
00000130
00000000
00001000
00010000
00100000
01000000
00000000
,
10010000
00000000
10000000
00100000
00010000
00001000
00010000
00000200
,
00000000
00000310
00000000
00000002
00000000
00001003
00000010
00000100
,
00001000
00000000
00010000
00100000
10000000
01000000
00010000
00002000
,
00000000
00003010
00000000
00000100
00001000
00000000
00000110
00000000
,
00001001
00000000
00000000
00001000
00000001
00001000
00000100
00000000
00000000
00010000
00001000
00010000
,
00100000
00000000
00000000
10000000
00010000
10000000
01000000
00000000
00010000
00000000
00001000
00000000
,
00000010
00000000
00000000
00000001
00001000
00000001
00000010
00000000
00000000
00000001
00001000
00000001
,
00000100
00000000
00000000
00001000
00010000
00100000
01000000
00000000
00010000
00000000
10000000
00000000
,
10010000
00000000
00000000
10000000
01000000
00010000
00001000
00000000
00000000
00010000
00000100
00001000
,
00000100
00000000
00000000
00001000
00000001
00001000
00000100
00000000
00010000
00000000
00001000
00000000
,
00010000
00000000
00000000
00100000
10000000
00010000
01000000
00000000
00000000
00010000
10000000
00010000
,
00100000
00000000
00000000
01000000
00010000
00001000
00010000
00000000
00000000
00000010
00000000
00000000
,
00022000
00000000
00033000
00000000
00000000
00000000
,
00000000
00000000
00000000
00000000
;
