
//----- song ID: lich -----//
#TITLE:Lichtsäule;
#ARTIST:かめりあ & BEMANI Sound Team "PHQUASE";
#TITLETRANSLIT:Lichtsaule;
#ARTISTTRANSLIT:Camellia & BEMANI Sound Team "PHQUASE";
#BANNER:Lichtsaule.png;
#BACKGROUND:Lichtsaule-bg.png;
#CDTITLE:./CDTitles/DDR WORLD.png;
#MUSIC:Lichtsaule.ogg;
#SAMPLESTART:94.25;
#SAMPLELENGTH:15;
#BPMS:0=215;
#STOPS:196=2.093;
#NOTES:
     dance-single:
     :
     Beginner:
     4:
     :
0000
0000
0000
0000
,
0000
0000
0000
0000
,
0000
0000
0000
0000
,
0000
0000
0000
0000
,
0000
0000
0000
0000
,
0000
0000
0000
0000
,
0000
0000
0000
0000
,
0001
0000
0000
0000
,
1000
0000
0000
0000
,
0001
0000
1000
0000
,
0001
0000
0000
0000
,
2000
0000
3000
0000
,
0010
0000
0010
0000
,
0200
0000
0300
0000
,
0001
0000
0001
0000
,
2000
0000
3000
0000
,
0001
0000
0000
0000
0000
0000
0000
1001
,
0000
0000
0000
0000
,
1000
0000
1000
0000
,
0001
0000
0100
0000
,
0001
0000
0100
0000
,
0010
0000
1000
0000
,
0010
0000
1000
0000
,
0001
0000
2000
3000
,
0002
0003
2000
3000
,
0001
0000
0000
0000
,
0000
0000
0000
0000
,
1000
0000
0100
0000
,
1000
0000
0001
0000
,
0010
0000
0001
0000
,
0010
0000
0100
0000
,
1000
0000
0001
0000
,
1000
0000
0010
0000
,
0100
0000
0000
0100
,
0000
0000
0010
0000
,
0100
0000
0001
0000
,
0100
0000
0010
0000
,
1000
0000
0001
0000
,
1000
0000
0100
0000
,
1000
0000
0000
0000
,
0001
0000
0000
0000
,
0100
0000
0010
0000
,
0100
0000
0000
0000
,
0000
0000
0000
0000
0000
0000
0000
0001
0000
0000
0000
0000
0000
0000
0000
0000
,
0000
0000
0001
0000
0000
0000
0000
0000
0000
0000
0000
0000
0000
0001
0000
0000
,
0000
0000
0000
0000
0000
0100
0000
0000
0000
0000
0000
0000
0000
0000
0000
0000
,
0000
0000
0000
0000
0001
0000
0000
0000
0000
0000
0000
0000
0000
0000
0000
0001
,
0000
0000
0000
0000
0000
0001
0000
0000
,
0000
1000
0000
0000
0000
0000
0000
0000
,
0000
0000
0001
0000
,
0100
0000
0001
0000
,
0100
0000
0010
0000
,
1000
0000
0001
0000
,
2002
0000
0000
0000
,
0000
0000
3003
0000
,
1000
0000
0100
0000
,
1000
0000
0100
0000
,
0010
0000
0001
0000
,
0010
0000
0001
0000
,
1000
0000
0000
0000
,
0001
0000
0000
0000
,
0100
0000
0010
0000
,
0110
0000
0000
0000
,
0000
0100
0000
0002
,
0000
0000
0000
0003
0000
0000
0000
0000
,
0000
1000
0000
0020
,
0000
0000
0000
0030
0000
0000
0000
0000
,
0200
0000
0000
0000
,
0000
0000
0000
0000
,
0000
0000
0000
0000
,
0000
0000
0300
0000
,
0002
0000
0000
0000
,
0000
0000
0003
0000
,
2000
0000
0000
0000
,
0000
0000
3000
0000
,
0002
0000
0000
0000
,
0000
0000
0000
0000
,
0000
0000
0000
0000
,
0000
0000
0003
0000
,
2000
0000
0000
0000
,
0000
0000
0000
0000
,
0000
0000
0000
0000
,
3000
0000
0000
0000
,
0001
0000
0001
0000
,
1000
0000
1000
0000
,
0010
0000
0100
0000
,
0010
0000
0100
0000
,
0001
0000
0001
0000
,
1000
0000
1000
0000
,
0001
0000
0001
0000
,
0000
1001
0000
0000
0000
0000
0000
0000
,
1000
0000
1000
0000
,
0001
0000
0001
0000
,
0010
0000
0100
0000
,
0010
0000
0100
0000
,
0000
0010
0000
0000
0000
0000
0000
0000
,
0000
0001
0000
0000
0000
0000
0000
0000
,
0000
1000
0000
0000
0000
0000
0000
0000
,
0001
0000
0001
0000
,
0000
0000
0000
0000
0000
0000
0000
0100
0000
0000
0000
0000
0000
0000
0000
0000
,
0000
0000
0010
0000
0000
0000
0000
0000
0000
0000
0000
0000
0000
0100
0000
0000
,
0000
0000
0000
0000
0000
0000
0000
0010
0000
0000
0000
0000
0000
0000
0000
0000
,
0000
0000
0000
0000
1000
0000
0000
0000
0000
0000
0000
0000
0000
0000
0000
0001
,
0000
0000
0000
0000
0000
1000
0000
0000
,
0000
2002
0000
3003
,
0000
0000
0000
0000
0000
0001
0000
0000
0000
0000
0000
0000
0000
0000
0000
0000
,
1000
0000
0000
0000
0000
0000
0000
0000
0000
0000
0000
0001
0000
0000
0000
0000
,
0000
0000
0000
0000
0000
1000
0000
0000
0000
0000
0000
0000
0000
0000
0000
0000
,
0000
0000
0010
0000
0000
0000
0000
0000
0000
0000
0000
0000
0000
0100
0000
0000
,
0000
0000
0010
0000
,
0000
0100
0000
0000
0000
0001
0000
0000
,
0000
1000
0000
0000
0000
0001
0000
0000
,
0000
0000
0000
0000
;
#NOTES:
     dance-single:
     :
     Easy:
     7:
     :
0000
0000
0000
0000
,
0000
0000
0000
0000
,
0000
0000
0000
0000
,
0000
0000
0000
0000
,
0000
0000
0000
0000
,
0000
0000
0000
0000
,
0000
0000
0000
0000
,
1000
0000
1000
0000
,
0001
0000
0001
0000
,
1000
0001
1000
0001
,
0100
0010
0100
0000
,
0002
0000
1003
0001
,
0100
0001
0100
0000
,
0020
0000
0130
0001
,
1000
0001
1000
0000
,
0200
0000
0310
0110
,
0000
0000
0000
0000
0010
0000
0000
0001
,
0000
2000
0000
3001
,
1000
0100
1000
0000
,
0001
0000
0100
0010
,
1000
0010
1000
0001
,
0010
0001
0010
0001
,
1000
0001
1000
0010
,
1000
0100
0002
0103
,
2000
3100
0002
0103
,
1000
0000
0000
0000
,
0000
0000
0000
0000
,
0001
0100
0000
0100
,
0010
1000
0000
1000
,
0001
0010
0000
0010
,
0100
1000
0000
1000
,
0010
0100
0000
0100
,
0001
1000
0000
1000
,
0001
0010
0000
0001
,
1000
0000
0010
0010
,
1000
0100
0000
0100
,
0010
0001
0000
0001
,
1000
0010
0000
0010
,
0100
0001
0000
0001
,
0010
0100
0000
0100
,
1000
0001
0000
0001
,
1000
1000
0001
0001
,
0010
0010
0010
0000
,
1001
0000
0000
0000
0000
0000
0000
1100
0000
0000
0000
0000
0000
0000
0000
0000
,
0000
0000
0110
0000
0000
0000
0000
0000
0000
0000
0000
0000
0000
0011
0000
0000
,
0000
0000
0000
0000
0000
0001
0000
0000
0000
0100
0000
0000
0000
0010
0000
0000
,
0000
0000
0000
0000
0110
0000
0000
0000
0000
0000
0000
0000
0000
0000
0000
1010
,
0000
0000
0000
0000
0000
1001
0000
0000
,
0000
1000
0000
0100
0000
0010
0000
0001
,
0000
1000
0010
1000
,
0010
1000
0010
1000
,
0001
0100
0001
0100
,
0001
0100
0010
1000
,
0001
0000
0000
0010
0000
0000
0100
0000
,
0000
1000
0000
0000
0002
0000
0000
0000
,
1003
0100
1000
0100
,
0010
0001
0010
0001
,
1000
0010
1000
0010
,
0100
0001
0100
0001
,
1000
0100
1000
0001
,
0010
0001
1000
0010
,
0100
0100
0010
0010
,
1000
0001
1000
0000
,
0000
1001
0000
0002
,
0000
0000
0000
0000
0000
0000
1003
0000
0000
0000
0000
0001
0000
0000
0001
0000
,
0000
0001
0000
0000
0001
0000
0000
0000
0100
0000
0000
0000
0020
0000
0000
0000
,
0000
0000
0000
1030
0000
0000
0000
0000
,
0002
0000
0000
0000
,
0000
0000
0000
0000
,
0000
0000
0000
0000
,
0000
0000
0000
0000
,
0023
0000
0000
0000
,
0230
0000
2300
0000
,
3002
0000
0000
0000
,
2003
0000
3020
0000
,
0230
0000
0000
0000
,
0000
0000
0000
0000
,
0000
0000
0000
0000
,
0000
0000
0000
0000
,
0302
0000
0000
0000
,
0000
0000
0000
0000
,
0000
0000
0000
0000
,
1003
0000
0000
0000
,
0001
0010
0001
0100
,
0010
1000
0100
1000
,
0001
0100
0001
0100
,
0010
1000
0001
0100
,
0010
1000
0001
1000
,
0010
0100
0001
0100
,
0010
1000
0001
1000
,
0000
0000
0001
0000
0000
0001
0000
0000
1000
0000
0000
1000
0000
0000
1000
0000
,
0010
0100
0010
1000
,
0001
0100
0001
1000
,
0100
0010
0001
1000
,
0001
0100
0010
1000
,
0000
0000
0001
0000
0000
0001
0000
0000
0001
0000
0000
0001
0000
0000
0001
0000
,
0000
0000
1000
0000
0000
1000
0000
0000
1000
0000
0000
1000
0000
0000
1000
0000
,
0000
0000
0010
0000
0000
0010
0000
0000
0100
0000
0000
0100
0000
0000
0100
0000
,
0010
0100
0010
0100
,
0002
0000
0000
0000
0000
0000
0000
1003
0000
0000
0000
1000
0000
0000
0000
0000
,
0000
0000
0010
0000
0000
0000
0010
0000
0000
0000
0000
0000
0000
0100
0000
0000
,
0000
0100
0000
0000
0000
0000
0000
0001
0000
0000
0000
0000
0000
1000
0000
0000
,
0000
0000
0000
0000
0001
0000
0000
0000
0001
0000
0000
0000
0000
0000
0000
0010
,
0000
0000
0000
0010
0000
0000
0000
0000
0000
0000
0100
0000
0000
0000
0100
0000
,
0000
2002
0000
3003
,
0000
0000
0000
0000
0000
1000
0000
0000
0000
1000
0000
0000
0000
0000
0000
0000
,
0001
0000
0000
0000
0001
0000
0000
0000
0000
0000
0000
0100
0000
0000
0000
0100
,
0000
0000
0000
0000
0000
0001
0000
0000
0000
0000
0000
1000
0000
0000
0000
0000
,
0000
0000
0001
0000
0000
0000
0001
0000
0000
0000
0000
0000
0000
1000
0000
0000
,
0000
1000
0000
0000
0000
0000
0000
0000
0010
0000
0000
0000
0010
0000
0000
0000
,
0000
0100
0000
0001
0000
1000
0000
0100
,
0000
0010
0000
0001
0000
1000
0000
0000
,
0000
0000
0000
0000
;
#NOTES:
     dance-single:
     :
     Medium:
     13:
     :
0000
0000
0000
0000
,
0000
0000
0000
0000
,
0000
0000
0000
0000
,
0000
0000
0000
0000
,
0000
0000
0000
0000
,
0000
0000
0000
0000
,
0000
0000
0000
0000
,
1000
0100
1000
0100
,
0010
0001
1000
0100
,
0010
0100
0010
0000
0001
1000
0001
0000
,
0100
0010
0100
0010
0100
0000
0000
0000
,
0002
0000
0000
0000
0013
0000
0100
1000
,
0100
1000
0100
1000
0001
0000
0000
0000
,
2000
0000
0000
0000
3010
0000
0100
0001
,
0100
0001
0100
0001
1000
0000
0000
0000
,
0001
0000
0000
0000
0000
0000
0000
0000
0100
0000
0000
0000
0010
0000
0000
1000
,
0000
0000
0100
0000
0000
0010
0000
0000
0001
0000
0100
0000
0010
0000
1000
0000
,
0000
0000
0002
0000
0000
0000
1003
0100
,
1000
0100
1000
0100
0010
0000
0000
0000
,
0100
0000
0000
1000
0010
0000
0100
0000
,
0101
0101
1001
1000
,
0100
0000
0010
0100
0010
0000
0001
0000
,
0011
0000
0011
0000
1100
0000
1000
0010
,
1000
0000
0001
0100
0020
0000
1030
0100
,
0020
0000
0031
0100
0020
0000
1030
0100
,
0010
0000
0000
0000
,
0000
0000
0000
0000
,
0001
0000
0100
0010
0000
0100
0001
0000
,
1000
0000
0100
0010
0000
0100
1000
0000
,
0001
0000
0010
0100
0000
0010
0001
0000
,
1000
0000
0010
0100
0000
0010
1000
0000
,
0010
0000
1000
0100
0000
1000
0001
0000
,
0010
0000
0001
0100
0000
0001
1000
0000
,
0001
0100
0010
1000
0000
0000
0001
0100
,
0010
1000
0000
0001
0010
0100
1000
0000
,
0001
0000
0100
0010
0000
1000
0001
0000
,
1000
0000
0100
0010
0000
0001
1000
0000
,
0001
0000
0010
0100
0000
1000
0010
0000
,
1000
0000
0010
0100
0000
0001
0010
0000
,
0100
0000
1000
0010
0000
1000
0100
0000
,
0010
0000
0001
0100
0000
0001
0010
0000
,
0001
0100
0001
0000
1000
0010
1000
0000
,
0010
0100
0010
0100
0010
0000
0000
0000
,
1001
0000
0000
0000
0000
0000
0000
1000
0000
0000
0000
1100
0000
0000
0000
0002
,
0000
0000
0103
0000
0000
0000
0101
0000
0000
0000
2000
0000
0000
3010
0000
0000
,
0000
1010
0000
0000
0000
0010
0000
0100
0000
0010
0000
0100
0000
0001
0000
0000
,
0000
0000
0000
0000
0100
0000
0000
0000
0110
0000
0000
0000
0002
0000
0000
0013
,
0000
0000
0000
0110
0000
0000
0000
2000
0000
0000
3010
0000
0000
0000
0110
0000
,
0000
1000
0001
1000
0001
0010
0100
1000
,
0000
0000
0001
0100
0001
0100
0010
0100
,
0001
1000
0100
1000
0100
0010
0001
0000
,
1000
0010
1000
0000
0010
0100
0010
0000
,
0100
0001
1000
0001
0010
0100
0010
0000
,
0001
0000
0100
0010
0000
1000
0100
0000
,
0001
0100
0000
1000
0001
0000
0200
0000
,
0310
0000
0100
0010
1000
0001
1000
0001
,
0010
0100
1000
0001
0100
0001
0100
0000
,
0001
0010
0001
0010
0100
1000
0100
1000
,
0001
0100
0010
1000
0100
0010
0001
0000
,
1000
0100
0010
0000
0001
0100
0010
0000
,
1000
0001
0010
0000
0100
1000
0010
0000
,
0100
0001
0100
0001
1000
0001
1000
0001
,
0010
0100
0010
0100
0010
0000
0000
0000
,
0000
0110
0000
2002
,
0000
0000
3003
0000
0000
0000
1000
0000
0001
0000
0000
0100
0000
0000
0100
0000
,
0000
0010
0000
0000
0010
0000
0000
0000
0100
0000
0001
0000
0020
0000
0000
0000
,
0000
0000
0000
0031
0100
0010
1000
0100
,
2000
0000
0000
0000
,
0000
0000
0000
0000
,
0000
0000
0000
0000
,
0000
0000
0000
0000
,
3002
0000
0000
0000
,
0203
0000
0320
0000
,
2030
0000
0000
0000
,
3200
0000
0320
0000
,
0032
0000
0000
0000
,
0000
0000
0000
0000
,
0000
0000
0000
0000
,
0000
0000
0000
0000
,
2003
0000
0000
0000
,
0000
0000
0000
0000
,
0000
0000
0000
0000
,
3001
0000
0000
0000
,
0001
0010
0001
0100
0010
1000
0010
0000
,
1000
0100
0010
0001
1000
0010
0100
0000
,
0001
0010
0100
0000
1000
0010
0100
0000
,
0001
1000
0001
0010
0100
1000
0100
0000
,
1000
0010
1000
0100
0010
0001
0010
0000
,
0001
0100
0001
1000
0010
1000
0001
0000
,
0010
0100
0010
0001
1000
0100
1000
0000
,
0000
0000
0100
0000
0000
0100
0000
0000
0010
0000
0000
0010
0000
0000
0010
0000
,
0001
0100
0010
1000
0100
0010
0001
0000
,
1000
0010
0100
0001
0010
0100
1000
0000
,
0001
0100
1000
0000
0001
0010
1000
0000
,
0001
0010
1000
0000
0001
0100
1000
0000
,
0001
0000
0100
0000
0000
0100
0000
0000
0010
0000
0000
1000
0000
0000
0010
0000
,
1000
0000
0100
0000
0000
0100
0000
0000
0010
0000
0000
0001
0000
0000
0010
0000
,
0001
0000
0100
0000
0000
0010
0000
0000
1000
0000
0000
0100
0000
0000
0010
0000
,
0001
1000
0001
1000
0001
1000
0001
0000
,
0020
0000
0000
0000
0000
0000
0000
0130
0000
0000
0000
1000
0000
0000
0000
1100
,
0000
0000
0001
0000
0000
0000
0100
0000
0000
0000
0101
0000
0000
1000
0000
0000
,
0000
0010
0000
0000
0000
1010
0000
1000
0000
0001
0000
0010
0000
0100
0000
0000
,
0000
0000
0000
0000
1000
0000
0000
0000
0001
0000
0000
0000
1001
0000
0000
0010
,
0000
0000
0000
0100
0000
0000
0000
0110
0000
0000
0001
0000
0000
0000
1000
0000
,
0000
1001
0001
0100
0010
1000
0001
0010
,
0000
0000
0000
0000
0000
0001
0000
0000
0000
0100
0000
0000
0000
0101
0000
0000
,
1000
0000
0000
0000
0100
0000
0000
0000
1100
0000
0000
0001
0000
0000
0000
0010
,
0000
0000
0000
0011
0000
0001
0000
1000
0000
0100
0000
0010
0000
0000
0000
0000
,
0000
0000
0001
0000
0000
0000
1000
0000
0000
0000
1001
0000
0000
0100
0000
0000
,
0000
0010
0000
0000
0000
0110
0000
0000
1000
0000
0000
0000
0001
0000
0000
0000
,
1001
1000
0010
0100
0001
0010
0001
0100
,
0010
1000
0100
0010
0001
1000
0000
0000
,
0000
0000
0000
0000
;
#NOTES:
     dance-single:
     :
     Hard:
     17:
     :
0000
0000
0000
0000
,
0000
0000
0000
0000
,
0000
0000
0000
0000
,
0000
0000
0000
0000
,
0000
0000
0000
0000
,
0000
0000
0000
0000
,
0000
0000
0000
0000
,
0001
0010
0100
1000
0001
0010
0100
1000
,
0001
0100
0010
1000
0001
0100
0010
1000
,
0001
0001
0010
0010
0100
0100
1000
1000
,
0001
1000
0001
0000
1000
0001
1000
0000
0001
0000
0000
0000
0000
0000
0000
0000
,
2000
0000
0000
0000
3010
0000
1000
0010
,
1000
0000
0010
0000
0100
0000
0001
0010
0100
0000
0010
0000
0010
0000
0001
0000
,
1000
0000
0000
0000
0000
0000
0010
0100
0001
0000
1000
0000
0100
0000
1000
0000
,
0100
0000
0000
0000
0000
0000
0010
0000
0000
0000
0000
0000
0001
0000
0000
0000
0000
0000
1000
0000
0000
0010
0000
0000
0100
0000
0000
0000
0000
0000
0000
0000
0000
0010
0000
0000
0000
0000
0000
0000
1000
0000
0000
0000
0010
0000
0000
0000
,
1000
0000
0000
0000
0000
0000
0000
0000
0001
0000
0000
0000
1001
0000
0000
1100
,
0000
0000
0011
0000
0000
0101
0000
0000
1000
0000
0100
0000
0100
0000
0010
0000
,
0000
0000
0000
0000
0000
0000
0001
0000
0100
0000
0001
0000
0100
0000
0000
0010
0000
0000
1000
0000
0000
0010
0000
0000
,
1000
0000
0001
0010
0001
0010
0001
0010
0100
0000
0000
0000
0000
0000
0000
0000
,
1000
0000
0000
0100
0010
0100
1000
0000
,
1010
0000
0000
0011
0000
0000
0101
0000
0000
0001
0000
0010
,
0100
1000
0100
1000
0001
0100
0010
0000
,
0110
0000
0101
0000
0011
0000
0010
0100
,
1000
0000
0000
0000
0000
0000
0001
0000
0000
1000
0000
0000
0100
0000
1000
0000
0100
0000
1000
0000
0000
0010
0000
0000
,
0100
0000
0001
0000
0100
0000
0001
0000
0000
0010
0000
0000
0001
0000
1000
0000
0001
0000
1000
0000
0000
0100
0000
0000
,
1000
0000
0000
0000
,
0000
0000
0000
0000
,
0001
0100
0010
0100
0010
1000
0001
0010
,
0100
0010
0001
1000
0010
1000
0100
0010
,
0001
0100
0001
1000
0010
1000
0100
0010
,
0001
0100
0010
1000
0001
0010
0100
1000
,
0010
0100
0010
0100
0001
1000
0100
1000
,
0100
0010
0100
0001
0100
1000
0100
0010
,
0001
0100
0010
0110
0000
0000
1000
0100
,
0010
0110
0000
0001
1000
0010
1010
0000
,
1000
0100
0010
0100
0010
0001
1000
0010
,
0100
0010
1000
0001
0010
0001
0100
1000
,
0100
0001
1000
0001
0010
0001
0100
0010
,
1000
0100
0001
0100
1000
0010
0100
0001
,
1000
0100
1000
0001
0010
0100
1000
0001
,
0100
0010
0100
0001
0010
0100
1000
0010
,
0100
0001
0101
0000
0001
0010
0011
0000
,
0010
0000
0100
0000
0010
0000
0100
0000
1000
0000
0001
0100
0001
0100
0010
0000
,
0100
0000
0000
0000
0020
0000
0000
1030
0000
0000
0000
0101
0000
0000
0000
2000
,
0000
0000
3100
0000
0000
0000
0011
0000
0000
0000
2000
0000
0000
3001
0000
0000
,
0000
0110
0000
0000
0000
0001
1000
0001
0000
0010
0000
0100
0000
0010
0000
0000
,
0000
0200
0000
0000
1300
0000
0000
0000
0011
0000
0000
0000
2000
0000
0000
3010
,
0000
0000
0000
0101
0000
0000
0000
2000
0000
0000
3100
0000
0000
0000
0011
0000
,
0000
0000
0001
0000
0100
0000
0100
0000
0100
0000
0001
0000
1000
0001
1000
0000
,
0000
0000
0001
0001
0100
0100
0010
0010
,
1000
0000
0010
0100
0010
0000
0100
0001
0100
0000
0001
1000
0001
0000
1000
0000
,
0100
0100
0010
0010
0001
0001
1000
1000
,
0001
0100
0001
0000
0100
0010
0100
0000
0010
1000
0010
0000
1000
0001
1000
0000
,
0001
0010
1000
0001
0100
1000
0001
0100
,
1000
0001
0010
1000
0001
0000
2002
3003
,
1000
1000
0010
0010
0100
0100
0001
0001
,
1000
0100
0010
0001
0100
0010
1000
0100
,
1000
0010
0001
0010
1000
0010
0100
0001
,
0010
1000
0010
0001
0100
0010
1000
0001
,
0100
0000
0100
0001
0010
0000
0100
0000
1000
0000
1000
0000
0001
0000
0100
0000
,
0010
0000
0010
1000
0100
0000
0010
0000
0001
0000
0001
0000
1000
0000
0010
0000
,
1000
0010
1000
0000
0001
0000
1000
0000
0100
0010
0100
0000
0010
0000
0001
0000
,
1000
0100
1000
0000
0001
0100
0001
0100
0001
0000
0000
0000
0000
0000
0000
0000
,
0000
0000
0000
1001
0000
0000
0000
0000
0000
1000
0100
1000
,
0100
0000
0000
0000
0010
0000
0000
0000
0001
0000
0000
0000
1000
0000
0000
0000
0000
0000
0001
0000
0000
0100
0000
0000
0001
0000
0000
0000
0000
0000
0000
0000
0000
0100
0000
0000
0000
0000
0000
0000
0000
0000
0110
0000
0000
0000
0000
0000
,
0000
0000
0000
1010
0000
0000
0000
0000
0000
0000
0000
0000
1001
0000
0000
0000
0000
0000
0000
0000
0000
0000
0000
0000
0001
0000
0000
0000
0000
0000
0100
0000
0000
0000
0000
0000
0001
0000
0000
0000
0010
0000
0000
0000
0001
0000
0000
0000
,
0010
0000
0000
0000
0100
0000
0000
0000
1000
0000
0000
0000
0001
0000
0000
0000
0000
0000
1000
0000
0000
0000
0000
0000
0010
0000
0000
0000
0000
0000
0100
0000
0000
0000
0000
0000
0010
0000
0000
0100
0000
0000
0010
0000
0000
0100
0000
0000
,
0002
0000
0000
0000
,
0000
0000
0000
0000
,
0000
0000
0000
0000
,
0000
0000
0000
0000
,
2003
0000
0000
0000
,
3200
0000
0320
0000
,
0032
0000
0000
0000
,
0203
0000
0320
0000
,
2030
0000
0000
0000
,
0000
0000
0000
0000
,
0000
0000
0000
0000
,
0000
0000
0000
0000
,
3002
0000
0000
0000
,
0000
0000
0000
0000
,
0000
0000
0000
0000
,
1003
0000
0000
0000
,
0001
0010
0100
0000
0010
0000
0001
0000
1000
0000
0010
0000
0100
0000
0001
0000
,
1000
0100
0010
0000
0100
0000
1000
0000
0001
0000
0100
0000
0010
0000
1000
0000
,
0010
0100
0001
0000
1000
0000
0001
0000
1000
0100
0010
0000
0001
0000
1000
0000
,
0001
0100
0001
0000
1000
0010
1000
0000
0010
0100
0010
0000
1000
0001
0100
0000
,
0010
1000
0001
0000
1000
0000
0100
0000
1000
0000
0010
0000
0100
0000
0001
0000
,
0100
0001
1000
0000
0001
0000
0100
0000
0001
0000
0010
0000
0100
0000
0010
0000
,
0001
0100
0010
0000
1000
0000
0010
0000
1000
0010
0100
0000
0001
0000
1000
0000
,
0000
0000
1001
0000
0000
1001
0000
0000
0011
0000
0000
0110
0000
0000
1100
0000
,
1000
0001
0100
0000
0010
0000
0100
0000
0001
0000
0010
0000
0100
0000
1000
0000
,
0010
0100
0001
0000
0100
0000
0010
0000
1000
0000
0100
0000
0010
0000
0001
0000
,
0100
0010
1000
0000
0010
0000
0100
0000
0001
0010
0100
0000
0010
0000
0001
0000
,
1000
0010
1000
0000
0010
0100
0010
0000
0100
0001
0100
0000
0001
1000
0001
0000
,
0100
0000
0001
0000
1000
0100
0000
0010
0001
0000
1000
0100
0000
0001
0100
0000
,
1000
0000
0010
0000
0100
0010
0000
0100
0001
0000
1000
0010
0000
0001
0010
0000
,
1000
0100
0010
0001
1000
0010
0100
0001
,
1000
0000
0001
0000
1000
0000
0001
0000
1000
0100
0010
0001
1000
0000
0000
0000
,
2002
0000
0000
0000
3003
0000
0000
0202
0000
0303
0000
0220
0000
0330
0000
1010
,
0000
0000
2020
0000
3030
0000
2002
0000
3003
0000
0101
0000
0000
0022
0000
0033
,
0000
0220
0000
0330
0000
0100
1000
0010
0000
0100
0000
0001
0000
0010
0000
0000
,
0000
0000
0000
0000
0220
0000
0330
0000
0022
0000
0033
0000
1001
0000
0000
2020
,
0000
3030
0000
0220
0000
0330
0000
0101
0000
0000
0022
0000
0033
0000
2002
0000
,
3003
0000
1000
0100
0010
0000
0001
0000
0100
0000
0010
0000
1000
0000
2002
0000
,
0000
0000
3003
0000
0000
1000
0100
1000
0000
0100
1000
0100
0000
0010
0000
0000
,
0001
0100
0001
0000
0100
0001
0100
0000
0010
0000
0000
1000
0001
1000
0000
0001
,
1000
0001
0000
0100
0000
0001
0000
0010
0000
0100
0000
2002
0000
0000
0000
3003
,
0000
0000
0001
0010
0001
0000
0010
0001
0010
0000
0100
0000
0000
1000
0010
1000
,
0000
0010
1000
0010
0000
0100
0000
0000
0001
1000
0001
0000
1000
0001
1000
0000
,
0100
1000
0010
0100
0001
0010
0100
0010
,
0001
0000
0100
0000
0010
1000
0010
1000
0001
0100
0001
0000
0000
0000
0000
0000
,
0000
0000
0000
0000
;
#NOTES:
     dance-double:
     :
     Easy:
     7:
     :
00000000
00000000
00000000
00000000
,
00000000
00000000
00000000
00000000
,
00000000
00000000
00000000
00000000
,
00000000
00000000
00000000
00000000
,
00000000
00000000
00000000
00000000
,
00000000
00000000
00000000
00000000
,
00000000
00000000
00000000
00000000
,
00000001
00000000
00000001
00000000
,
00001000
00000000
00001000
00000000
,
00000100
00010000
00000100
00010000
,
00001000
00010000
00001000
00000000
,
00200000
00000000
00310000
10000000
,
01000000
10000000
01000000
00000000
,
20000000
00000000
30010000
01000000
,
00001000
01000000
00001000
00000000
,
00020000
00000000
00031000
00011000
,
00000000
00000000
00000000
00000000
00010000
00000000
00000000
00000100
,
00000000
00002000
00000000
00003001
,
00000100
00000001
00000100
00000000
,
00000010
00000000
00001000
00000100
,
00010000
00001000
00010000
00000000
,
00001000
00100000
00010000
00100000
,
01000000
10000000
01000000
00000000
,
10000000
00100000
00020000
00031000
,
00002000
00003100
00000200
00000301
,
00001000
00000000
00000000
00000000
,
00000000
00000000
00000000
00000000
,
00000001
00000010
00000000
00000010
,
00000001
00001000
00000000
00001000
,
00000100
00010000
00000000
00010000
,
00001000
01000000
00000000
01000000
,
00010000
10000000
00000000
10000000
,
01000000
00100000
00000000
00100000
,
00001000
00010000
00000000
00000010
,
00000100
00000000
00000001
00000001
,
00001000
00000010
00000000
00000010
,
00010000
00001000
00000000
00001000
,
00100000
00010000
00000000
00010000
,
10000000
00100000
00000000
00100000
,
01000000
00001000
00000000
00001000
,
00010000
00000100
00000000
00000100
,
00001000
00001000
00000001
00000001
,
00000100
00000100
00000100
00000000
,
00000110
00000000
00000000
00000000
00000000
00000000
00000000
00001010
00000000
00000000
00000000
00000000
00000000
00000000
00000000
00000000
,
00000000
00000000
00010010
00000000
00000000
00000000
00000000
00000000
00000000
00000000
00000000
00000000
00000000
00011000
00000000
00000000
,
00000000
00000000
00000000
00000000
00000000
00001000
00000000
00000000
00000000
00010000
00000000
00000000
00000000
00001000
00000000
00000000
,
00000000
00000000
00000000
00000000
00101000
00000000
00000000
00000000
00000000
00000000
00000000
00000000
00000000
00000000
00000000
00110000
,
00000000
00000000
00000000
00000000
00000000
10010000
00000000
00000000
,
00000000
10000000
00000000
01000000
00000000
00100000
00000000
00010000
,
00000000
00100000
00001000
00010000
,
00001000
00010000
00000100
00001000
,
00000001
00000100
00000001
00000100
,
00000001
00001000
00000100
00010000
,
00001000
00000000
00000000
00100000
00000000
00000000
00010000
00000000
,
00000000
10000000
00000000
00000000
00020000
00000000
00000000
00000000
,
01030000
00001000
00010000
00001000
,
00010000
00000010
00001000
00000001
,
00000010
00000001
00000010
00000100
,
00001000
00000100
00010000
00001000
,
00100000
00001000
00010000
00000000
,
00000100
00010000
00001000
00000000
,
01000000
01000000
00010000
00010000
,
10000000
00010000
10000000
00000000
,
00000000
01010000
00000000
02000000
,
00000000
00000000
00000000
00000000
00000000
00000000
03001000
00000000
00000000
00000000
00000000
00010000
00000000
00000000
00010000
00000000
,
00000000
00010000
00000000
00000000
00010000
00000000
00000000
00000000
00000100
00000000
00000000
00000000
00002000
00000000
00000000
00000000
,
00000000
00000000
00000000
00003001
00000000
00000000
00000000
00000000
,
00000002
00000000
00000000
00000000
,
00000000
00000000
00000000
00000000
,
00000000
00000000
00000000
00000000
,
00000000
00000000
00000000
00000000
,
00000203
00000000
00000000
00000000
,
00002300
00000000
00023000
00000000
,
00230000
00000000
00000000
00000000
,
20300000
00000000
30020000
00000000
,
02030000
00000000
00000000
00000000
,
00000000
00000000
00000000
00000000
,
00000000
00000000
00000000
00000000
,
00000000
00000000
00000000
00000000
,
03002000
00000000
00000000
00000000
,
00000000
00000000
00000000
00000000
,
00000000
00000000
00000000
00000000
,
00013000
00000000
00000000
00000000
,
00010000
00000010
00001000
00000010
,
00000100
00000001
00001000
00000001
,
00000010
00001000
00010000
00001000
,
00010000
01000000
10000000
01000000
,
10000000
00100000
01000000
00010000
,
10000000
00100000
01000000
00001000
,
00010000
00001000
00010000
00000100
,
00000000
00000000
00001000
00000000
00000000
00001000
00000000
00000000
00000001
00000000
00000000
00000001
00000000
00000000
00000001
00000000
,
00000100
00000010
00001000
00000010
,
00010000
00001000
01000000
00010000
,
10000000
01000000
00010000
00001000
,
00010000
00000010
00001000
00000001
,
00000000
00000000
00001000
00000000
00000000
00001000
00000000
00000000
00001000
00000000
00000000
00001000
00000000
00000000
00001000
00000000
,
00000000
00000000
00000100
00000000
00000000
00000100
00000000
00000000
00000100
00000000
00000000
00000100
00000000
00000000
00000100
00000000
,
00000000
00000000
00010000
00000000
00000000
00010000
00000000
00000000
00001000
00000000
00000000
00001000
00000000
00000000
00001000
00000000
,
01000000
00010000
01000000
00010000
,
20000000
00000000
00000000
00000000
00000000
00000000
00000000
30100000
00000000
00000000
00000000
00100000
00000000
00000000
00000000
00000000
,
00000000
00000000
00010000
00000000
00000000
00000000
00010000
00000000
00000000
00000000
00000000
00000000
00000000
00001000
00000000
00000000
,
00000000
00001000
00000000
00000000
00000000
00000000
00000000
00010000
00000000
00000000
00000000
00000000
00000000
00001000
00000000
00000000
,
00000000
00000000
00000000
00000000
00000100
00000000
00000000
00000000
00000100
00000000
00000000
00000000
00000000
00000000
00000000
00000001
,
00000000
00000000
00000000
00000001
00000000
00000000
00000000
00000000
00000000
00000000
00001000
00000000
00000000
00000000
00001000
00000000
,
00000000
00000000
00000000
00000000
00002002
00000000
00000000
00000000
00000000
00000000
00000000
00003003
00000000
00000000
00000000
00000000
,
00000000
00000000
00000000
00000000
00000000
00000001
00000000
00000000
00000000
00000001
00000000
00000000
00000000
00000000
00000000
00000000
,
00000010
00000000
00000000
00000000
00000010
00000000
00000000
00000000
00000000
00000000
00000000
00001000
00000000
00000000
00000000
00001000
,
00000000
00000000
00000000
00000000
00000000
00010000
00000000
00000000
00000000
00000000
00000000
00001000
00000000
00000000
00000000
00000000
,
00000000
00000000
00100000
00000000
00000000
00000000
00001000
00000000
00000000
00000000
00000000
00000000
00000000
00010000
00000000
00000000
,
00000000
00000010
00000000
00000000
00000000
00000000
00000000
00000000
00010000
00000000
00000000
00000000
00000100
00000000
00000000
00000000
,
00000000
00001000
00000000
00000001
00000000
00000010
00000000
00001000
,
00000000
00010000
00000000
01000000
00000000
10000000
00000000
00000000
,
00000000
00000000
00000000
00000000
;
#NOTES:
     dance-double:
     :
     Medium:
     13:
     :
00000000
00000000
00000000
00000000
,
00000000
00000000
00000000
00000000
,
00000000
00000000
00000000
00000000
,
00000000
00000000
00000000
00000000
,
00000000
00000000
00000000
00000000
,
00000000
00000000
00000000
00000000
,
00000000
00000000
00000000
00000000
,
00000001
00000100
00000001
00000100
,
00000010
00001000
00000010
00010000
,
00001000
01000000
00010000
01000000
,
00100000
00000000
10000000
00010000
10000000
00000000
00000000
00000000
,
00020000
00000000
01030000
00001000
,
00010000
00000000
00000010
00001000
00000010
00000000
00000000
00000000
,
00000200
00000000
00000301
00001000
,
00000100
00000000
00000010
00000100
00000010
00000000
00000000
00000000
,
00000001
00000000
00000000
00000000
00000000
00000000
00000000
00000000
00001000
00000000
00000000
00000000
00000001
00000000
00000000
00000010
,
00000000
00000000
00001000
00000000
00000000
00010000
00000000
00000000
01000000
00000000
00100000
00000000
01000000
00000000
10000000
00000000
,
00000000
00020000
00000000
00130000
,
00001000
00000000
00010000
00001000
00010000
00000000
00000000
00000000
,
00000010
00000000
00000000
00000100
00000010
00000000
00001000
00000000
,
00001010
00011000
00011000
00001000
,
01000000
00000000
00100000
01000000
00100000
00000000
10000000
00000000
,
10100000
00000000
01010000
00000000
01010000
00000000
01000000
00001000
,
00010000
00000000
00000100
00010000
00002000
00000000
00103000
00001000
,
00020000
00000000
00030010
00010000
00002000
00000000
00013000
00000100
,
00001000
00000000
00000000
00000000
,
00000000
00000000
00000000
00000000
,
00000001
00000000
00000100
00000010
00000000
00001000
00000010
00000000
,
00010000
00000000
00001000
00100000
00000000
00010000
00100000
00000000
,
01000000
00000000
10000000
00100000
00000000
01000000
00100000
00000000
,
00010000
00000000
00001000
00010000
00000000
00000100
00010000
00000000
,
00001000
00000000
00000010
00000001
00000000
00000010
00000100
00000000
,
00001000
00000000
00000001
00000100
00000000
00001000
00010000
00000000
,
00001000
00100000
00001000
00010000
00000000
00000000
00000100
00010000
,
00001000
00010000
00000000
00001000
00100000
00010000
10000000
00000000
,
10000000
00000000
00100000
01000000
00000000
00010000
01000000
00000000
,
00001000
00000000
00010000
00000100
00000000
00001000
00000100
00000000
,
00000010
00000000
00000001
00000100
00000000
00000010
00000100
00000000
,
00001000
00000000
00010000
00001000
00000000
00100000
00001000
00000000
,
00010000
00000000
01000000
10000000
00000000
01000000
00100000
00000000
,
00010000
00000000
10000000
00100000
00000000
00010000
00001000
00000000
,
00010000
00000100
00010000
00000000
00001000
01000000
00001000
00000000
,
00010000
00001000
00010000
00001000
00010000
00000000
00000000
00000000
,
00011000
00000000
00000000
00000000
00000000
00000000
00000000
00010000
00000000
00000000
00000000
00010100
00000000
00000000
00000000
00000200
,
00000000
00000000
00001300
00000000
00000000
00000000
00001001
00000000
00000000
00000000
00000002
00000000
00000000
00000013
00000000
00000000
,
00000000
00000110
00000000
00000000
00000000
00000100
00000000
00001000
00000000
00000100
00000000
00010000
00000000
00001000
00000000
00000000
,
00000000
00000000
00000000
00000000
00010000
00000000
00000000
00000000
00011000
00000000
00000000
00000000
00002000
00000000
00000000
01003000
,
00000000
00000000
00000000
01010000
00000000
00000000
00000000
00020000
00000000
00000000
10030000
00000000
00000000
00000000
11000000
00000000
,
00000000
10000000
00010000
01000000
00001000
00020000
00000000
00030000
,
00000000
00000000
00000010
00001000
00000010
00001000
00000001
00000100
,
00000010
00001000
00010000
01000000
,
00010000
10000000
00010000
00000000
01000000
00001000
01000000
00000000
,
00010000
00001000
00000100
00000010
,
00000001
00000000
00000100
00001000
00000000
00010000
00001000
00000000
,
00010000
01000000
00000000
10000000
00010000
00000000
02000000
00000000
,
03100000
00000000
01000000
00010000
10000000
00100000
10000000
00100000
,
01000000
00010000
01000000
00000000
00001000
00010000
00001000
00000000
,
00010000
00000010
00001000
00000010
00001000
00000001
00000100
00000010
,
00001000
00000010
00010000
00000000
00001000
01000000
00010000
00000000
,
10000000
01000000
00010000
00000000
00010000
00001000
00000010
00000000
,
00000001
00000100
00001000
00000000
00001000
00010000
00100000
00000000
,
01000000
00010000
01000000
00001000
00010000
00001000
00010000
00000100
,
00001000
00000100
00000010
00000001
00001000
00000000
00000000
00000000
,
00000000
00000011
00000000
00002002
,
00000000
00000000
00003003
00000000
00000000
00000000
00001000
00000000
00000100
00000000
00000000
00010000
00000000
00000000
00010000
00000000
,
00000000
00001000
00000000
00000000
00001000
00000000
00000000
00000000
00100000
00000000
00010000
00000000
02000000
00000000
00000000
00000000
,
00000000
00000000
00000000
03200000
00000000
00000000
00000000
00000000
,
20300000
00000000
00000000
00000000
,
00000000
00000000
00000000
00000000
,
00000000
00000000
00000000
00000000
,
00000000
00000000
00000000
00000000
,
32000000
00000000
00000000
00000000
,
03020000
00000000
00032000
00000000
,
00003200
00000000
00000000
00000000
,
00000302
00000000
00002003
00000000
,
00003200
00000000
00000000
00000000
,
00000000
00000000
00000000
00000000
,
00000000
00000000
00000000
00000000
,
00000000
00000000
00000000
00000000
,
00020300
00000000
00000000
00000000
,
00000000
00000000
00000000
00000000
,
00000000
00000000
00000000
00000000
,
00031000
00000000
00000000
00000000
,
00001000
00010000
00001000
00100000
00010000
01000000
00010000
00000000
,
10000000
01000000
00100000
00010000
00100000
00001000
00010000
00000000
,
00000100
00001000
00000001
00000000
00000100
00000010
00001000
00000000
,
00000010
00010000
00001000
00000000
00100000
00010000
10000000
00000000
,
00010000
01000000
00010000
00100000
00001000
00010000
00001000
00000000
,
00010000
00000010
00001000
00000100
00001000
00000100
00000010
00000000
,
00000001
00000100
00000001
00000010
00000100
00001000
00000100
00000000
,
00000000
00000000
00010000
00000000
00000000
00010000
00000000
00000000
00001000
00000000
00000000
00001000
00000000
00000000
00001000
00000000
,
01000000
00010000
00100000
01000000
10000000
00010000
01000000
00000000
,
00001000
00010000
00000100
00001000
00000010
00000100
00000001
00000000
,
00000010
00001000
00010000
00000000
01000000
10000000
00100000
00000000
,
10000000
01000000
00010000
00000000
00001000
00000010
00000100
00000000
,
00000010
00000000
00000001
00000000
00000000
00000001
00000000
00000000
00001000
00000000
00000000
00000010
00000000
00000000
00001000
00000000
,
00000100
00000000
00010000
00000000
00000000
00010000
00000000
00000000
00001000
00000000
00000000
00100000
00000000
00000000
00010000
00000000
,
10000000
00000000
00010000
00000000
00000000
01000000
00000000
00000000
00001000
00000000
00000000
00010000
00000000
00000000
00000100
00000000
,
00001000
00000001
00001000
00000001
00001000
00000001
00001000
00000000
,
00000200
00000000
00000000
00000000
00000000
00000000
00000000
00010300
00000000
00000000
00000000
00001000
00000000
00000000
00000000
00011000
,
00000000
00000000
01000000
00000000
00000000
00000000
00100000
00000000
00000000
00000000
01100000
00000000
00000000
10000000
00000000
00000000
,
00000000
00010000
00000000
00000000
00000000
10010000
00000000
10000000
00000000
01000000
00000000
00100000
00000000
00010000
00000000
00000000
,
00000000
00000000
00000000
00000000
00100000
00000000
00000000
00000000
00001000
00000000
00000000
00000000
00011000
00000000
00000000
00000100
,
00000000
00000000
00000000
00000010
00000000
00000000
00000000
00000110
00000000
00000000
00000001
00000000
00000000
00000000
00001000
00000000
,
00000000
00001001
00000001
00000010
00000100
00001000
00000100
00010000
,
00000000
00000000
00000000
00000000
00000000
00001000
00000000
00000000
00000000
00010000
00000000
00000000
00000000
00010100
00000000
00000000
,
00000100
00000000
00000000
00000000
00010000
00000000
00000000
00000000
00011000
00000000
00000000
00001000
00000000
00000000
00000000
01000000
,
00000000
00000000
00000000
01010000
00000000
00010000
00000000
10000000
00000000
00100000
00000000
01000000
00000000
00000000
00000000
00000000
,
00000000
00000000
00010000
00000000
00000000
00000000
00100000
00000000
00000000
00000000
00101000
00000000
00000000
00001000
00000000
00000000
,
00000000
00010000
00000000
00000000
00000000
00010010
00000000
00000000
00000010
00000000
00000000
00000000
00001000
00000000
00000000
00000000
,
00001001
00000001
00000100
00000010
00001000
00000100
00010000
00001000
,
00100000
00010000
10000000
01000000
00100000
00010000
00000000
00000000
,
00000000
00000000
00000000
00000000
;
#NOTES:
     dance-double:
     :
     Hard:
     17:
     :
00000000
00000000
00000000
00000000
,
00000000
00000000
00000000
00000000
,
00000000
00000000
00000000
00000000
,
00000000
00000000
00000000
00000000
,
00000000
00000000
00000000
00000000
,
00000000
00000000
00000000
00000000
,
00000000
00000000
00000000
00000000
,
10000000
01000000
00100000
00010000
10000000
01000000
00100000
00010000
,
00100000
00001000
00010000
00001000
00100000
00001000
00010000
00001000
,
00010000
00010000
00000100
00000100
00001000
00001000
00000001
00000001
,
00000100
00000010
00000100
00000000
00000010
00000100
00000010
00000000
00000100
00000000
00000000
00000000
00000000
00000000
00000000
00000000
,
00000002
00000000
00000000
00000000
00001003
00000000
00000001
00000010
,
00000100
00000000
00001000
00000000
00000100
00000000
00010000
00001000
00010000
00000000
00001000
00000000
00001000
00000000
01000000
00000000
,
00010000
00000000
00000000
00000000
00000000
00000000
10000000
01000000
00100000
00000000
00010000
00000000
00100000
00000000
00001000
00000000
,
00010000
00000000
00000000
00000000
00000000
00000000
00001000
00000000
00000000
00000000
00000000
00000000
00010000
00000000
00000000
00000000
00000000
00000000
00000100
00000000
00000000
00001000
00000000
00000000
00000100
00000000
00000000
00000000
00000000
00000000
00000000
00000000
00000000
00001000
00000000
00000000
00000000
00000000
00000000
00000000
00000001
00000000
00000000
00000000
00001000
00000000
00000000
00000000
,
00000001
00000000
00000000
00000000
00000000
00000000
00000000
00000000
00001000
00000000
00000000
00000000
00001100
00000000
00000000
00010100
,
00000000
00000000
00011000
00000000
00000000
00101000
00000000
00000000
00100000
00000000
00010000
00000000
00010000
00000000
10000000
00000000
,
00000000
00000000
00000000
00000000
00000000
00000000
00100000
00000000
01000000
00000000
00100000
00000000
01000000
00000000
00000000
00010000
00000000
00000000
01000000
00000000
00000000
00001000
00000000
00000000
,
00010000
00000000
00000010
00000000
00001000
00000000
00000010
00000100
00000010
00000000
00000000
00000000
00000000
00000000
00000000
00000000
,
00001000
00000000
00000000
00000100
00010000
00001000
00010000
00000000
,
00011000
00000000
00000000
01010000
00000000
00000000
10010000
00000000
00000000
10000000
00000000
00100000
,
01000000
00010000
01000000
00010000
10000000
01000000
00100000
00000000
,
00101000
00000000
00011000
00000000
00010010
00000000
00000010
00001000
,
00000001
00000000
00000000
00000000
00000000
00000000
00000100
00000000
00000000
00001000
00000000
00000000
00010000
00000000
00001000
00000000
00010000
00000000
00001000
00000000
00000000
01000000
00000000
00000000
,
00001000
00000000
00010000
00000000
00001000
00000000
00010000
00000000
00000000
00000100
00000000
00000000
00010000
00000000
00001000
00000000
00010000
00000000
00001000
00000000
00000000
00100000
00000000
00000000
,
00010000
00000000
00000000
00000000
,
00000000
00000000
00000000
00000000
,
10000000
01000000
00100000
01000000
00100000
00010000
01000000
00000000
,
00001000
00010000
00000100
00001000
00000100
00001000
00000010
00000000
,
00000100
00000001
00001000
00000010
00001000
00000010
00000100
00000000
,
00000010
00010000
00001000
00010000
00001000
00100000
00010000
00000000
,
01000000
00001000
00010000
00100000
01000000
00010000
00100000
00000000
,
00001000
00010000
00000100
00000010
00001000
00010000
00000100
00000000
,
00001000
00000001
00000100
00000101
00000000
00000000
00000001
00001000
,
00000100
00001100
00000000
00001000
00000100
00010000
00011000
00000000
,
00001000
00010000
01000000
00100000
01000000
10000000
00010000
00000000
,
01000000
00001000
00010000
00001000
00000100
00000010
00001000
00000000
,
00000001
00000010
00001000
00010000
00001000
00010000
01000000
00000000
,
10000000
00100000
00010000
00001000
00010000
00001000
00000100
00000000
,
00000001
00000010
00000100
00001000
00000010
00010000
00001000
01000000
,
00010000
00100000
01000000
10000000
00100000
01000000
00010000
00100000
,
00001000
00010000
00011000
00000000
00010000
00000010
00001010
00000000
,
00001000
00000000
00000001
00000000
00001000
00000000
00000001
00000000
00000100
00000000
00001000
00000000
00010000
00001000
00010000
00000000
,
00001000
00000000
00000000
00000000
00200000
00000000
00000000
00310000
00000000
00000000
00000000
11000000
00000000
00000000
00000000
00020000
,
00000000
00000000
00130000
00000000
00000000
00000000
00101000
00000000
00000000
00000000
00002000
00000000
00000000
00013000
00000000
00000000
,
00000000
00010100
00000000
00000000
00000000
00000100
00001000
00000100
00000000
00000010
00000000
00000001
00000000
00000010
00000000
00000000
,
00000000
00000002
00000000
00000000
00000103
00000000
00000000
00000000
00001010
00000000
00000000
00000000
00000002
00000000
00000000
00000013
,
00000000
00000000
00000000
00001100
00000000
00000000
00000000
00000200
00000000
00000000
00010300
00000000
00000000
00000000
00011000
00000000
,
00000000
00000000
00001000
00000000
01000000
00000000
01000000
00000000
01000000
00000000
00010000
00000000
10000000
00010000
10000000
00000000
,
00000000
00000000
00010000
00010000
00100000
00100000
00001000
00001000
,
00010000
00000100
00010000
00000100
00001000
00000001
00001000
00000001
,
00001000
00001000
00000010
00000010
00010000
00010000
00001000
00001000
,
00100000
00001000
00100000
00000000
00010000
00100000
00010000
00000000
00100000
01000000
00100000
00000000
01000000
10000000
01000000
00000000
,
00010000
01000000
10000000
00100000
00010000
00001000
00000100
00000010
,
00000001
00001000
00000100
00000001
00001000
00000000
00002002
00003003
,
00001000
00001000
00000100
00000100
00010000
00010000
00001000
00001000
,
01000000
00010000
10000000
01000000
00100000
00010000
01000000
00001000
,
00010000
00000100
00001000
00000001
00000010
00001000
00010000
01000000
,
00100000
00010000
10000000
00100000
00010000
00001000
00000100
00000010
,
00001000
00000000
00001000
00000100
00010000
00000000
00001000
00000000
01000000
00000000
01000000
00000000
00010000
00000000
00100000
00000000
,
01000000
00000000
01000000
10000000
00010000
00000000
01000000
00000000
00001000
00000000
00001000
00000000
00010000
00000000
00001000
00000000
,
00010000
00000010
00010000
00000000
00000010
00000000
00001000
00000000
00000001
00000100
00000001
00000000
00000100
00000000
00000010
00000000
,
00001000
00000100
00001000
00000000
00000100
00010000
00000100
00010000
00000100
00000000
00000000
00000000
00000000
00000000
00000000
00000000
,
00000000
00000000
00000000
00011000
00000000
00000000
00000000
00000000
00000000
00001000
00010000
00001000
,
01000000
00000000
00000000
00000000
00010000
00000000
00000000
00000000
01000000
00000000
00000000
00000000
00010000
00000000
00000000
00000000
00000000
00000000
10000000
00000000
00000000
00000000
00000000
00000000
00010000
00000000
00000000
00000000
00000000
00000000
00000000
00000000
00000000
00100000
00000000
00000000
00000000
00000000
00000000
00000000
00000000
00000000
00110000
00000000
00000000
00000000
00000000
00000000
,
00000000
00000000
00000000
11000000
00000000
00000000
00000000
00000000
00000000
00000000
00000000
00000000
10010000
00000000
00000000
00000000
00000000
00000000
00000000
00000000
00000000
00000000
00000000
00000000
10000000
00000000
00000000
00000000
00000000
00000000
00100000
00000000
00000000
00000000
00000000
00000000
00010000
00000000
00000000
00000000
00001000
00000000
00000000
00000000
00010000
00000000
00000000
00000000
,
00000100
00000000
00000000
00000000
00001000
00000000
00000000
00000000
00000100
00000000
00000000
00000000
00001000
00000000
00000000
00000000
00000000
00000000
00000001
00000000
00000000
00000000
00000000
00000000
00000010
00000000
00000000
00000000
00000000
00000000
00000100
00000000
00000000
00000000
00000000
00000000
00001000
00000000
00000000
00000100
00000000
00000000
00001000
00000000
00000000
00000000
00000000
00000000
,
00000002
00000000
00000000
00000000
,
00000000
00000000
00000000
00000000
,
00000000
00000000
00000000
00000000
,
00000000
00000000
00000000
00000000
,
00000203
00000000
00000000
00000000
,
00002300
00000000
00023000
00000000
,
02030000
00000000
00000000
00000000
,
03200000
00000000
00302000
00000000
,
00023000
00000000
00000000
00000000
,
00000000
00000000
00000000
00000000
,
00000000
00000000
00000000
00000000
,
00000000
00000000
00000000
00000000
,
00030020
00000000
00000000
00000000
,
00000000
00000000
00000000
00000000
,
00000000
00000000
00000000
00000000
,
00000130
00000000
00000000
00000000
,
00000001
00000010
00000001
00001000
00000010
00010000
00001000
00000100
,
00000010
00010000
00001000
00100000
00001000
00010000
01000000
00100000
,
00010000
10000000
01000000
00010000
01000000
00010000
00001000
00000010
,
00000001
00000100
00000001
00000000
00001000
00000000
00000100
00000000
00010000
00001000
00010000
00000000
00001000
01000000
00001000
00000000
,
01000000
00010000
00100000
01000000
10000000
00100000
01000000
00010000
,
00100000
00001000
00010000
00000100
00010000
00000010
00001000
00000100
,
00000010
00000000
00000001
00000000
00001000
00000000
00000010
00000000
00000100
00000010
00000100
00000000
00000001
00000000
00001000
00000000
,
00000000
00000000
00001100
00000000
00000000
00011000
00000000
00000000
00110000
00000000
00000000
01100000
00000000
00000000
11000000
00000000
,
10000000
01000000
10000000
00010000
01000000
00001000
00010000
00100000
,
01000000
00001000
00010000
00000100
00010000
00001000
00000010
00000100
,
00001000
00000001
00000010
00001000
00000010
00001000
00010000
01000000
,
10000000
00100000
10000000
00000000
00010000
00000000
00100000
00000000
00001000
00010000
00000100
00000000
00001000
00000010
00000100
00000000
,
00000001
00000000
00000010
00000000
00000100
00001000
00000000
00000100
00000010
00000000
00000100
00010000
00000000
00001000
00010000
00000000
,
00001000
00000000
00100000
00000000
00010000
10000000
00000000
00010000
01000000
00000000
00100000
01000000
00000000
00001000
00010000
00000000
,
00001000
00000100
00000001
00000100
00000010
00001000
00000100
00010000
,
00001000
00100000
00010000
10000000
00010000
10000000
00010000
00000000
,
20020000
00000000
00000000
00000000
30030000
00000000
00000000
02020000
00000000
03030000
00000000
00022000
00000000
00033000
00000000
00010100
,
00000000
00000000
00002020
00000000
00003030
00000000
00002002
00000000
00003003
00000000
00000101
00000000
00000000
00000022
00000000
00000033
,
00000000
00002200
00000000
00003300
00000000
00000100
00000000
00010000
00000000
00001000
00000000
00000100
00000000
00000001
00000000
00000000
,
00000000
00000000
00000000
00000000
00002002
00000000
00003003
00000000
00002020
00000000
00003030
00000000
00011000
00000000
00000000
00202000
,
00000000
00303000
00000000
00220000
00000000
00330000
00000000
11000000
00000000
00000000
20200000
00000000
30300000
00000000
02020000
00000000
,
03030000
00010000
10000000
01000000
00010000
00001000
00000010
00000002
,
00000000
00000000
00000003
00000000
00000000
00001000
00000100
00001000
00000000
00000100
00000000
00000000
00000000
00011000
00000000
00000000
,
00001000
00100000
00001000
00000000
00100000
00000000
00000000
00000000
10010000
00000000
00000000
10000000
00100000
10000000
00000000
00100000
,
00000000
01000000
00000000
00010000
00000000
00100000
00000000
00001000
00000000
00010000
00000000
00022000
00000000
00000000
00000000
00033000
,
00000000
00000000
00010000
00000010
00010000
00000000
00000010
00001000
00000010
00000000
00000100
00000000
00000000
00000001
00000010
00000001
,
00000000
00001000
00000001
00001000
00000000
00000100
00000000
00000000
00010000
00001000
00010000
00000000
00001000
01000000
00001000
00000000
,
01000000
00010000
10000000
00100000
01000000
00100000
10000000
01000000
,
00010000
00000000
00001000
00000000
00000010
00000000
00000100
00000010
00000001
00000000
00001000
00000000
00000000
00000000
00000000
00000000
,
00000000
00000000
00000000
00000000
;
