
//----- song ID: liag -----//
#TITLE:Liar×Girl;
#ARTIST:BEMANI Sound Team "HuΣeR" feat.ゆきまめ;
#ARTISTTRANSLIT:BEMANI Sound Team "HuΣeR" feat. Yukimame;
#BANNER:Liar Girl.png;
#BACKGROUND:Liar Girl-bg.png;
#CDTITLE:./CDTitles/jubeat Ave.png;
#MUSIC:Liar Girl.ogg;
#SAMPLESTART:63.668;
#SAMPLELENGTH:15;
#BPMS:0=164;
#BGSTAGE:5;
#NOTES:
     dance-single:
     :
     Beginner:
     3:
     :
0000
0000
0000
0000
,
0000
0000
0000
0000
,
0000
0000
0000
0000
,
0000
0000
0000
0000
,
0000
0000
0000
0000
,
0000
0000
0000
0000
,
0001
0000
0000
0000
,
0001
0000
0000
0000
,
0010
0000
0000
0000
,
0010
0000
0000
0000
,
1000
0000
0000
0000
,
0000
0000
0000
0000
,
0000
1000
0000
0000
,
1000
0000
1000
0000
,
0010
0000
0000
0000
,
0010
0000
0010
0000
,
0001
0000
0000
0000
,
0001
0000
0001
0000
,
0010
0000
0000
0000
,
0010
0000
0010
0000
,
1000
0000
0000
0000
,
0100
0000
0000
0000
,
1000
0000
0000
0000
,
0000
0000
0000
0000
,
1000
0000
0000
0000
,
1000
0000
0000
0000
,
0010
0000
0000
0000
,
0000
0000
0000
0000
,
0010
0000
0000
0000
,
0001
0000
0000
0000
,
0010
0000
0000
0000
,
0000
0000
0000
0000
,
0010
0000
0000
0000
,
0010
0000
0000
0000
,
0001
0000
0000
0000
,
0000
0000
0000
0000
,
0002
0000
0000
0000
,
0003
0000
0000
0000
,
0020
0000
0000
0000
,
0030
0000
0000
0000
,
2000
0000
0000
0000
,
3000
0000
0000
0000
,
1000
0000
0100
0000
,
1000
0000
0000
0000
,
1000
0000
1000
0000
,
1000
0000
0000
0000
,
1000
0000
1000
0000
,
0010
0000
0000
0000
,
0010
0000
0010
0000
,
0010
0000
0000
0000
,
0010
0000
0010
0000
,
0001
0000
0000
0000
,
0001
0000
0001
0000
,
0010
0000
0000
0000
,
0010
0000
0010
0000
,
1000
0000
0000
0000
,
1000
0000
0100
0000
,
1000
0000
0000
0000
,
1000
0000
1000
0000
,
0010
0000
0000
0000
,
0010
0000
0000
0000
,
0001
0000
0000
0000
,
0010
0000
0000
0000
,
0000
0000
0000
0000
,
0010
0000
0000
0000
,
1000
0000
0000
0000
,
0010
0000
0000
0000
,
0000
0000
0000
0000
,
2000
0000
0000
0000
,
3000
0000
0000
0000
,
1000
0000
0010
0000
,
0001
0000
0000
0000
,
0002
0000
0000
0000
,
0003
0000
0000
0000
,
0001
0000
0010
0000
,
1000
0000
0000
0000
,
1001
0000
0000
0000
,
0000
0000
0000
0000
;
#NOTES:
     dance-single:
     :
     Easy:
     6:
     :
0000
0000
0000
0000
,
0000
0000
0000
0000
,
0000
0000
0000
0000
,
0000
0000
0000
0000
,
0000
0000
0000
0000
,
0000
0000
0000
0000
,
2000
0000
0000
3000
,
0002
0000
0000
0003
,
1000
0001
1000
0000
,
1001
0000
0000
0000
,
2002
0000
0000
0000
,
3003
0000
0000
0000
,
0000
1000
0100
1000
,
0010
0010
0100
0100
,
0001
1000
0001
0010
,
0100
0010
0100
0000
,
1000
0100
1000
0001
,
0100
0001
1000
0000
,
0001
0010
0001
1000
,
0010
1000
0001
0000
,
1000
0000
1000
0000
,
1000
0010
0100
0000
,
0001
0000
0001
0000
,
0001
0100
0010
0000
,
2000
0000
0000
3000
,
0002
0000
0000
0003
,
0020
0000
0000
0030
,
0200
0000
0000
0300
,
1000
1000
0010
0010
,
1000
0010
1000
0000
,
0001
0001
0100
0100
,
0001
0100
0001
0000
,
1001
0000
0110
0000
,
1000
0100
0010
0000
,
0110
0000
1001
0000
,
0001
0010
0100
0000
,
2000
0000
0000
3000
,
0100
0100
0010
0000
,
0002
0000
0000
0003
,
0010
0010
0100
0000
,
1000
0000
0010
0000
,
0100
0000
0001
0000
,
1000
0010
0100
0000
,
0110
0000
0000
0000
,
0001
0001
0001
0000
,
0001
0010
0001
0000
,
0001
0001
0001
0000
,
0001
1000
0001
0000
,
1000
1000
1000
0000
,
1000
0010
1000
0000
,
1000
1000
1000
0000
,
1000
0001
1000
0000
,
0001
0001
1000
1000
,
0010
0010
0100
0100
,
0010
0100
0010
0100
,
0010
0000
1001
0000
,
1000
1000
0001
0001
,
0010
0010
0100
0100
,
0010
0100
0010
0100
,
0010
0000
0110
0000
,
1001
0000
1000
0100
,
0010
0001
1000
0000
,
0001
0100
0001
0010
,
0100
0100
1000
0000
,
1000
0001
0100
0010
,
0100
0001
0010
0000
,
0001
1000
0100
0010
,
0100
1000
0010
0000
,
2000
0000
0000
3000
,
1000
0001
0100
0000
,
0002
0000
0000
0003
,
0001
1000
0010
0000
,
0020
0000
0000
0030
,
0010
1000
0100
0000
,
0200
0000
0000
0300
,
0100
0010
0001
1000
,
0000
0000
0000
0000
;
#NOTES:
     dance-single:
     :
     Medium:
     11:
     :
0000
0000
0000
0000
,
0000
0000
0000
0000
,
0000
0000
0000
0000
,
0000
0000
0000
0000
,
0000
0000
0000
0000
,
0000
0000
0000
0000
,
2000
0000
3002
0000
,
2003
0000
3002
0000
,
1003
0100
0010
0000
0001
0100
0010
0000
,
0110
0000
0000
0000
,
2002
0000
0000
0000
,
0000
0000
0000
3003
,
0000
0000
1000
0100
1000
0010
0100
0000
,
0001
0010
0100
0000
1000
0010
0100
0000
,
0001
0100
0001
0010
0100
1000
0001
0000
,
1000
0100
0010
0000
0001
0100
0010
0000
,
1000
0010
0100
0010
1000
0100
0010
0000
,
0001
0010
1000
0000
1000
0010
0001
0000
,
0001
0010
0100
0010
0001
1000
0010
0000
,
1000
0100
0010
0001
1000
0100
0010
0001
,
1000
0000
0001
0100
0000
0001
0100
0000
,
0010
1000
0000
0010
1000
0000
0001
0000
,
1000
0000
0001
0010
0000
0001
0010
0000
,
0100
1000
0100
0000
1000
0100
1000
0000
,
0002
0010
0100
0103
,
2000
0000
0010
0000
3100
0010
0100
0000
,
2000
0010
0100
3100
,
0002
0000
0010
0000
0103
0010
0100
0000
,
0001
0100
1000
0100
0000
0001
0001
0000
,
1000
0100
0001
0100
0000
1000
1000
0000
,
0001
0000
0100
0010
0000
0100
0010
0000
,
1000
0000
1010
0000
0001
1000
0001
0000
,
1000
0010
0001
0010
,
1000
0010
0100
0001
2000
0000
3000
0000
,
1001
0000
0000
1000
,
0100
0010
0100
0010
0200
0000
0300
0000
,
2000
3001
0002
1003
,
0010
0100
0010
0000
0100
0010
0100
0000
,
0002
1003
2000
3001
,
0002
0000
0023
0000
0130
1000
0100
0000
,
1000
0000
0000
0000
1000
0100
0010
0000
,
0002
0203
2300
3200
,
0301
0000
1000
0000
0100
0000
0010
0100
,
0010
0000
0000
0000
,
0001
0011
0001
0101
,
0001
0000
0011
0000
0001
0100
0001
0000
,
0001
0000
0011
0000
0001
1000
0001
1000
,
0001
0000
0001
0100
1000
0100
0001
0000
,
1000
1010
1000
1100
,
1000
0000
1010
0000
1000
0100
1000
0000
,
1000
0000
1010
0000
1000
0000
1000
0001
,
1000
0000
1000
0100
0001
0100
1000
0000
,
0200
0310
0100
1100
,
0100
0000
0101
0000
0100
1000
0100
0000
,
0100
0000
0110
0000
0100
0010
0100
0010
,
0100
0000
0100
0001
0100
1000
0100
0000
,
0010
0110
0010
1010
,
0010
0000
0011
0000
0010
1000
0010
0000
,
0010
0000
0110
0000
0010
0100
0010
0100
,
0010
0000
0010
0001
0010
1000
0010
0000
,
0110
0000
1000
0001
0100
0010
1000
0000
,
0001
0010
1000
0000
1000
0010
0001
0000
,
1000
0010
0100
0001
0010
0001
0100
0000
,
0001
0100
1000
0000
1000
0100
0001
0000
,
0001
0010
0001
1000
0010
0100
0001
0000
,
1000
0100
0001
0000
0001
0100
1000
0000
,
0001
0100
0010
1000
0100
1000
0010
0000
,
1000
0010
0001
0000
0001
0010
1000
0000
,
0001
0110
1000
0110
,
0001
0010
0100
0000
1000
0010
0100
0000
,
0010
1001
0100
1001
,
1000
0100
0010
0000
0001
0100
0010
0000
,
2000
0100
3010
0110
,
0002
0100
0013
0110
,
1000
0001
0010
0000
0001
1000
0010
0000
,
1000
0100
1000
0001
0100
0001
0100
0010
,
0000
0000
0000
0000
;
#NOTES:
     dance-single:
     :
     Hard:
     14:
     :
0000
0000
0000
0000
,
0000
0000
0000
0000
,
0000
0000
0000
0000
,
0000
0000
0000
0000
,
0000
0000
0000
0000
,
0000
0000
0000
0000
,
2000
0000
3200
0000
,
0320
0000
0032
0000
,
1003
0000
0010
0000
0100
0000
0001
0000
1000
0010
1000
0000
0001
0100
0001
0000
,
0100
0000
0000
0000
0000
0000
0000
0000
0010
0000
0100
0000
0010
0100
0010
0000
,
0220
0000
0000
0000
,
0000
0000
0000
0330
,
0000
0000
0000
0000
1000
0000
0001
0100
0000
0010
0000
1000
0001
1000
0000
0001
,
0000
1000
0010
1000
0000
0001
0010
0001
1000
0000
0001
0000
1000
0000
0001
0000
,
1000
0000
0100
0000
0010
0000
0100
0010
0000
0100
0000
1000
0001
1000
0000
0001
,
0000
1000
0100
1000
0000
0001
0100
0001
1000
0000
0100
0000
0010
0100
0000
0010
,
0100
0000
1000
0000
0001
0000
1000
0100
0000
0010
0000
0001
1000
0001
0000
1000
,
0000
0001
0010
0001
0000
1000
0010
1000
0001
0000
1000
0000
0100
0000
0010
0000
,
0001
0000
0010
0000
0100
0000
0010
0100
0000
0010
0000
0001
1000
0001
0000
1000
,
0000
0010
0100
0001
0000
0010
0100
1000
0010
0000
0100
0000
0001
1000
0000
0001
,
1000
0000
1000
0100
0000
0100
0010
0000
,
0010
0001
0000
0001
1000
0001
1000
0000
,
0001
0000
0001
0100
0000
0100
0010
0000
,
0010
1000
0010
0000
1000
0010
0001
0010
,
1000
0000
1010
0000
1100
0000
1000
0100
,
0010
0001
0010
0001
0100
0001
0100
0000
,
0001
0000
0101
0000
0011
0001
0010
0001
,
0100
0010
1000
0001
0100
0010
1000
0001
,
0100
0000
0100
0000
0010
0000
1000
0000
0000
0000
1000
0010
1000
0000
0001
0000
,
0010
0000
0010
0000
0001
0000
0100
0000
0000
0000
0100
0001
0100
0000
0010
0000
,
1000
0000
0100
0001
0000
0001
0100
1000
,
0001
0010
0011
0000
0001
1000
0001
1000
,
0001
0000
1001
0000
0110
0000
1000
0001
,
0100
0010
0100
0010
2000
0000
3000
0000
,
1000
0100
0001
0000
1000
0010
0001
0000
,
0001
0100
1000
0100
0002
0000
0003
0000
,
0002
0203
2300
3002
,
0013
1000
0100
0000
0010
0001
0100
0000
,
0002
0023
2030
3002
,
0203
0000
2300
0000
3001
0100
0010
1000
,
0001
0000
0000
0001
0010
0100
0010
0100
,
2000
3020
0032
0023
,
1030
0000
1000
0000
0100
0010
0100
0010
,
0001
0000
0000
0000
,
0001
0100
1010
0000
1000
0100
0011
0000
,
0001
0000
0100
0000
1010
0000
0000
0000
1000
0010
1000
0000
0001
0010
0001
0000
,
1000
0010
0101
0000
0001
0010
1100
0000
,
1001
0000
0001
0100
1000
0100
0001
0000
,
0010
0100
1001
0000
0100
0010
1001
0000
,
0001
0000
1000
0000
0110
0000
0000
0000
1000
0100
1000
0000
0001
0100
0001
0000
,
1000
0000
0001
0000
0110
0000
0000
0000
1000
0000
0010
0100
0001
0000
1000
0000
,
0001
0000
0010
0001
0100
0010
1000
0100
,
2000
0000
0000
0000
3001
0000
0000
0000
1000
0000
0100
0010
0001
0000
1000
0000
,
0001
0000
0010
0100
1000
0000
0001
0000
1000
0000
0100
0010
0001
0000
0100
0010
,
1000
0000
0001
0100
0001
0000
1000
0000
0010
0000
0100
0001
0100
0000
0010
0000
,
1000
0001
0010
1000
0010
0001
1000
0001
,
1000
0000
0010
0000
0100
0000
0010
0000
1000
0000
0100
0010
0001
0000
1000
0000
,
0001
0000
0010
0100
1000
0000
0001
0000
1000
0000
0100
0010
0001
0000
0100
0010
,
1000
0000
0001
0100
0001
0000
1000
0000
0010
0000
0100
0001
0100
0000
0010
0000
,
1000
0001
0010
1000
0010
0001
1000
0001
,
1000
0000
0000
0000
0001
0000
1000
0010
0000
0100
0000
0001
1000
0001
0000
1000
,
0000
0001
0100
0001
0000
1000
0100
1000
0001
0000
0100
0000
0010
0000
1000
0000
,
0001
0000
0010
0000
0100
0000
0010
0100
0000
0010
0000
0001
1000
0001
0000
1000
,
0000
0001
0010
0001
0000
1000
0010
1000
0001
0000
0010
0000
0100
0010
0000
0100
,
0010
0000
0001
0000
1000
0000
0001
0010
0000
0100
0000
1000
0001
1000
0000
0001
,
0000
1000
0100
1000
0000
0001
0100
0001
0010
0000
1000
0000
0010
0000
0001
0000
,
1000
0000
0100
0000
0010
0000
0100
0010
0000
0100
0000
1000
0001
1000
0000
0001
,
0000
0100
0010
1000
0000
0100
0010
0001
1000
0000
0010
0000
0100
0001
0000
1000
,
0100
0000
2000
0000
3001
0000
1000
0100
0000
0010
0000
0001
0100
0001
0000
1000
,
0000
0010
1000
0100
0000
0010
0001
0100
0001
0000
0010
0000
0100
0000
1000
0000
,
0000
0000
0000
0000
0001
0000
0100
0010
0000
1000
0000
0001
0100
0001
0000
1000
,
0000
0010
1000
0100
0000
0010
0001
0100
0001
0000
1000
0000
0001
1000
0000
0001
,
1000
0000
0000
0000
0001
0000
0100
0010
0000
1000
0000
0001
0100
0001
0000
1000
,
0000
0100
0010
0001
0000
1000
0100
0010
0000
0001
1000
0010
0000
0100
0001
1000
,
0000
0000
0000
0000
0001
0000
0010
0100
0000
1000
0000
0001
0010
0001
0000
0100
,
0000
0010
1000
0001
0000
0100
0010
1000
0000
0100
0010
0001
0000
1000
0100
0010
,
0000
0000
0000
0000
;
#NOTES:
     dance-double:
     :
     Easy:
     6:
     :
00000000
00000000
00000000
00000000
,
00000000
00000000
00000000
00000000
,
00000000
00000000
00000000
00000000
,
00000000
00000000
00000000
00000000
,
00000000
00000000
00000000
00000000
,
00000000
00000000
00000000
00000000
,
00001000
00010000
00001000
00000000
,
00010000
00001000
00100000
00000000
,
00100000
00010000
10000000
00000000
,
00100000
00000000
00000000
00000000
,
20020000
00000000
00000000
00000000
,
30030000
00000000
00000000
00000000
,
00000000
10000000
00010000
10000000
,
01000000
01000000
00100000
00100000
,
00010000
00100000
00001000
00010000
,
00002000
00000000
00000000
00003000
,
00001000
00010000
00000100
00001000
,
00000010
00000010
00000100
00000100
,
00000010
00001000
00000001
00000100
,
00000020
00000000
00000000
00000030
,
00000110
00000000
00000110
00000000
,
00000001
00000100
00001000
00000000
,
00011000
00000000
00011000
00000000
,
00001000
00010000
00100000
00000000
,
20000000
00000000
00000000
30000000
,
00020000
00000000
00000000
00030000
,
02000000
00000000
00000000
03000000
,
00002000
00000000
00000000
00003000
,
00001000
00010000
00000100
00000000
,
00000100
00001000
00000010
00000000
,
00001000
00000100
00000010
00000001
,
00001000
00000000
00001001
00000000
,
00000001
00000010
00000100
00000000
,
00001000
00000100
00010000
00000000
,
00010000
00001000
01000000
00010000
,
00100000
01000000
00100000
00000000
,
00020000
00000000
00000000
00030000
,
20000000
00000000
00000000
30000000
,
10000000
01000000
00100000
00000000
,
00100000
00001000
00010000
00000000
,
00002000
00000000
00000000
00003000
,
00020000
00000000
00000000
00030000
,
00001000
00010000
00000100
00001000
,
00000001
00000000
00000000
00000000
,
00000001
00000001
00000001
00000000
,
00000001
00000100
00000010
00000000
,
00000010
00000010
00000010
00000000
,
00000010
00010000
00001000
00000000
,
00010000
00010000
00010000
00000000
,
00010000
00001000
00100000
00000000
,
00100000
00100000
00100000
00000000
,
00010000
10000000
00010000
00000000
,
10000000
10000000
10000000
00000000
,
10000000
00100000
01000000
00000000
,
01000000
01000000
01000000
00000000
,
01000000
00001000
00010000
00000000
,
00001000
00001000
00001000
00000000
,
00001000
00010000
00000100
00000000
,
00000100
00000100
00000100
00000000
,
00001000
00000001
00001000
00000000
,
00001001
00000000
00000001
00000100
,
00000010
00001000
00000010
00000000
,
00001000
00000010
00010000
00001000
,
00010000
00010000
00001000
00000000
,
00001000
01000000
00010000
00100000
,
00010000
01000000
00100000
00000000
,
10000000
00010000
10000000
00100000
,
01000000
00010000
10000000
00000000
,
20000000
00000000
00000000
30000000
,
10000000
00100000
01000000
00000000
,
02000000
00000000
00000000
03000000
,
01000000
00001000
00010000
00000000
,
00002000
00000000
00000000
00003000
,
00001000
00010000
00000100
00000000
,
00000200
00000000
00000000
00000300
,
00001000
00000100
00000010
00000001
,
00000000
00000000
00000000
00000000
;
#NOTES:
     dance-double:
     :
     Medium:
     10:
     :
00000000
00000000
00000000
00000000
,
00000000
00000000
00000000
00000000
,
00000000
00000000
00000000
00000000
,
00000000
00000000
00000000
00000000
,
00000000
00000000
00000000
00000000
,
00000000
00000000
00000000
00000000
,
00002000
00000000
00023000
00000000
,
00032000
00000000
00023000
00000000
,
00031000
00000000
00010000
00000000
00000100
00001000
00000010
00000000
,
00000110
00000000
00000000
00000000
,
00002002
00000000
00000000
00000000
,
00000000
00000000
00000000
00003003
,
00000000
00000000
00000001
00000000
00000010
00000100
00000010
00000000
,
00000001
00001000
00000100
00000000
00001000
00000100
00010000
00000000
,
00001000
00000000
01000000
00000000
00010000
00100000
00010000
00000000
,
01000000
00100000
10000000
00000000
01000000
00100000
00010000
00000000
,
10000000
00000000
00010000
00000000
01000000
00100000
01000000
00000000
,
00100000
01000000
00010000
00000000
00100000
00001000
00010000
00000000
,
00001000
00000000
00010000
00000000
00000100
00001000
00000010
00000000
,
00001000
00000100
00000010
00000001
00001000
00000100
00000010
00000000
,
00000001
00000000
00000010
00000100
00000000
00000010
00000100
00000000
,
00001000
00000100
00000000
00010000
00000010
00000000
00010000
00000000
,
00001000
00000000
01000000
00010000
00000000
01000000
00010000
00000000
,
00100000
00010000
00100000
00000000
01000000
10000000
01000000
00000000
,
20000000
32000000
03200000
00320000
,
00130000
00001000
00010000
00001000
00010000
00000000
00011000
00000000
,
00002000
00023000
00030200
00002300
,
00003010
00000100
00000010
00000000
00001000
00000001
00001000
00000000
,
00000001
00000000
00000010
00000100
00000000
00000100
00001000
00000000
,
00000100
00010000
00001000
00010000
00000000
00010000
00001000
00000000
,
00100000
00000000
00010000
01000000
00000000
00010000
00100000
00000000
,
00010000
00000000
01010000
00000000
10000000
00010000
10000000
00000000
,
00010000
10000000
00100000
00010000
,
00001000
00010000
00001000
00010000
00002000
00000000
00003000
00000000
,
00011000
00000000
00000000
00010000
,
00001000
00000000
00000010
00000001
00000010
00000000
00000000
00000000
,
00000002
00001003
00002000
00003100
,
00000200
00000000
00020300
00000000
00031000
00010000
00001000
00000000
,
00020000
00031000
00002000
01003000
,
02000000
00000000
03020000
00000000
00130000
01000000
00100000
00000000
,
00010000
00000000
00000000
00000000
00010000
10000000
00100000
00000000
,
20000000
32000000
03020000
00032000
,
00003010
00000000
00000001
00000000
00001000
00000000
00000010
00000100
,
00000010
00000000
00000000
00000000
,
00000001
00000011
00000001
00000101
,
00001000
00000000
00001010
00000000
00001000
00000100
00001000
00000000
,
00000100
00000000
00010100
00000000
00010000
00000100
00010000
00001000
,
00010000
00000000
00001000
00100000
00001000
00010000
00001000
00000000
,
00010000
00011000
00001000
00011000
,
00001000
00000000
01001000
00000000
01000000
00010000
01000000
00000000
,
00010000
00000000
00110000
00000000
00010000
00000000
00010000
10000000
,
00010000
00000000
00010000
10000000
00100000
01000000
00010000
00000000
,
10000000
10100000
10000000
11000000
,
00010000
00000000
00110000
00000000
00010000
01000000
00010000
00000000
,
01000000
00000000
01001000
00000000
00001000
01000000
00001000
00010000
,
00001000
00000000
00010000
00000010
00010000
00001000
00010000
00000000
,
00001000
00011000
00010000
00011000
,
00010000
00000000
00010100
00000000
00000100
00001000
00000100
00000000
,
00001000
00000000
00001010
00000000
00001000
00000000
00001000
00000001
,
00001000
00000000
00001000
00000001
00000010
00000100
00001000
00000000
,
00000002
00000000
00000103
00000010
00001000
00000010
00000100
00000000
,
00000010
00010000
00001000
00000000
00010000
00001000
01000000
00000000
,
00010000
00000000
00100000
00010000
01000000
00010000
00100000
00000000
,
01000000
10000000
00100000
00000000
01000000
00001000
00010000
00000000
,
00001000
00000000
00010000
00000100
00001000
00000010
00001000
00000000
,
00000100
00000010
00000001
00000000
00000100
00000010
00001000
00000000
,
00000001
00000000
00000010
00000100
00001000
00000100
00010000
00000000
,
00001000
00010000
00001000
00000000
00010000
00001000
00100000
00000000
,
00010000
00000000
00100000
00010000
00100000
01000000
10000000
00000000
,
00100000
01000000
00100000
00000000
10000000
00000000
00010000
00000000
,
01000000
00000000
00100000
01000000
00010000
01000000
00010000
00000000
,
00100000
00001000
00100000
00000000
00001000
00010000
00001000
00000000
,
00020000
00030100
00000200
00001300
,
00001000
00000100
00000010
00000000
00000001
00000100
00000010
00000000
,
00002000
00003010
00000020
00010030
,
00010000
00001000
00010000
00001000
01000000
00010000
01000000
00100000
,
00000000
00000000
00000000
00000000
;
#NOTES:
     dance-double:
     :
     Hard:
     14:
     :
00000000
00000000
00000000
00000000
,
00000000
00000000
00000000
00000000
,
00000000
00000000
00000000
00000000
,
00000000
00000000
00000000
00000000
,
00000000
00000000
00000000
00000000
,
00000000
00000000
00000000
00000000
,
00001000
00010000
00100000
00100000
,
00010000
00001000
00000010
00000010
,
00001000
00000000
00010000
00000000
00001000
00010000
00001000
00000000
,
00011000
00000000
00000000
00000000
,
00022000
00000000
00000000
00000000
,
00000000
00000000
00000000
00033000
,
00000000
00000000
00000000
00000000
00001000
00000000
00100000
00010000
00000000
10000000
00000000
00100000
10000000
00100000
00000000
01000000
,
00000000
00100000
10000000
01000000
00010000
00001000
00000010
00000001
,
00001000
00000000
00000001
00000000
00000010
00000000
00000100
00001000
00000000
00000001
00000000
00000010
00000001
00000010
00000000
00000100
,
00000000
00001000
00000010
00000100
00001000
00010000
00001000
00000010
,
00000001
00000000
00000100
00000000
00001000
00000000
00010000
00001000
00000000
01000000
00000000
00010000
10000000
00010000
00000000
00100000
,
00000000
01000000
10000000
00100000
00010000
00001000
00000100
00000001
,
00001000
00000000
00000001
00000000
00000100
00000000
00000010
00001000
00000000
00000001
00000000
00000100
00000001
00000100
00000000
00000010
,
00000000
00001000
00000100
00000010
00001000
00010000
00001000
00000100
,
00000001
00000000
00000001
00000010
00000000
00000010
00001000
00000000
,
00001000
00010000
00000000
00010000
00100000
10000000
00100000
00000000
,
10000000
00000000
10000000
01000000
00000000
01000000
00010000
00000000
,
00010000
00001000
00010000
00000000
00001000
00010000
00001000
00000100
,
00000001
00000000
00000011
00000000
00000101
00000000
00000001
00000010
,
00001000
00000010
00001000
00010000
00001000
00010000
00001000
00000000
,
00010000
00000000
01001000
00000000
01010000
00010000
00100000
00010000
,
01000000
10000000
01000000
00010000
00100000
01000000
00100000
00000000
,
00010000
00000000
10000000
00000000
01000000
00000000
00010000
00000000
00000000
00000000
00001000
00010000
00001000
00000000
00010000
00000000
,
00000010
00000000
00001000
00000000
00000001
00000000
00000100
00000000
00000000
00000000
00000010
00000100
00000010
00000000
00001000
00000000
,
00000001
00000000
00000010
00000100
00000000
00000100
00010000
00001000
,
00010000
00000000
00011000
00000000
00001000
00010000
01000000
10000000
,
00010000
00000000
01100000
00000000
10010000
00000000
10000000
00100000
,
01000000
00100000
00010000
00001000
00020000
00000000
00030000
00000000
,
00011000
00000000
00000000
00011000
,
00001000
00000010
00001000
00010000
00100000
00010000
00001000
00000000
,
00020000
00032000
00003200
00000302
,
00001003
00000100
00000010
00000000
00000001
00000100
00000010
00000000
,
00002000
00023000
02030000
23000000
,
30020000
00000000
00230000
00000000
10300000
00010000
01000000
00100000
,
10000000
00000000
00000000
10000000
00100000
01000000
00001000
00010000
,
00001000
00000000
00011000
00000000
00010000
00001000
00000010
00000000
,
00000002
00000000
00000203
00000000
00001300
00010000
01000000
00010000
,
00001000
00000000
00000000
00000000
,
00001000
01000000
00110000
00000000
00010000
01000000
10100000
00000000
,
10000000
00000000
00010000
00000000
01100000
00000000
00000000
00000000
10000000
01000000
10000000
00000000
01000000
00000000
00100000
00000000
,
00001000
00010000
01000000
00100000
00001000
00010000
01000000
00100000
,
00001000
00000000
00001000
00010000
00100000
00010000
00001000
00000000
,
00001000
00010000
00001100
00000000
00001000
00000010
00001100
00000000
,
00000100
00000000
00010000
00000000
00001010
00000000
00000000
00000000
00000010
00001000
00000010
00000000
00000100
00000000
00001000
00000000
,
00010000
00000100
00000010
00001000
00010000
00000100
00000010
00001000
,
00010000
00000000
00001000
00010000
01000000
00010000
00001000
00000000
,
00010000
00000100
00001010
00000000
00001000
00000100
00000011
00000000
,
00000001
00000000
00001000
00000000
00000110
00000000
00000000
00000000
00000001
00000100
00000001
00000000
00000100
00000000
00000010
00000000
,
00010000
00001000
00000100
00000010
00010000
00001000
00000100
00000010
,
00010000
00000000
00010000
00001000
00000010
00001000
00010000
00000000
,
00010000
00001000
01010000
00000000
00010000
00100000
01010000
00000000
,
01000000
00000000
00001000
00000000
00110000
00000000
00000000
00000000
00100000
00010000
00100000
00000000
01000000
00000000
00010000
00000000
,
00001000
01000000
00100000
00010000
00001000
01000000
00100000
00010000
,
00001000
00000000
00010000
00001000
00000100
00001000
00010000
00000000
,
00011000
00000000
00000000
00000000
00001000
00000000
00010000
00000100
00000000
00001000
00000000
00000001
00000010
00000001
00000000
00001000
,
00000000
00000000
00000100
00000000
00000010
00000000
00001000
00000000
00010000
00000000
00001000
00000000
00010000
00001000
00010000
00001000
,
00010000
00000000
00001000
00000000
00100000
00000000
00010000
00100000
00000000
01000000
00000000
10000000
00100000
10000000
00000000
01000000
,
00000000
00000000
10000000
00000000
00100000
00000000
01000000
00000000
00100000
00000000
00010000
00000000
00001000
00010000
00000000
00001000
,
00010000
00000000
00000010
00000000
00001000
00000000
00000001
00000100
00000000
00000010
00000000
00001000
00000100
00001000
00000000
00000001
,
00000000
00000000
00000100
00000000
00000001
00000000
00000010
00000000
00001000
00000000
00010000
00000000
00001000
00010000
00001000
00010000
,
00001000
00000000
00010000
00000000
00000010
00000000
00001000
00000100
00000000
00000010
00000000
00000001
00000100
00000001
00000000
00000010
,
00000000
00000000
00000001
00000000
00000100
00000000
00000010
00000000
00000100
00000000
00001000
00000000
00010000
00001000
00000000
00010000
,
00001000
00000000
00020000
00000000
00031000
00000000
00100000
00010000
00000000
10000000
00000000
00010000
01000000
00010000
00000000
10000000
,
00000000
00100000
01000000
00010000
00000000
10000000
00100000
01000000
00100000
00000000
00010000
00000000
00001000
00000000
00010000
00000000
,
00000000
00000000
00000000
00000000
00010000
00000000
00000010
00001000
00000000
00000100
00000000
00000010
00000100
00000010
00000000
00000001
,
00000000
00001000
00000100
00000010
00000000
00000001
00000100
00000010
00000100
00000000
00001000
00000000
00010000
00001000
00000000
00010000
,
00001000
00000000
00000000
00000000
00010000
00000000
00001000
01000000
00000000
00010000
00000000
00100000
00010000
00100000
00000000
01000000
,
00000000
10000000
01000000
00100000
00000000
01000000
00100000
00010000
00000000
00100000
00001000
00010000
00000000
00001000
01000000
00010000
,
00000000
00000000
00000000
00000000
01000000
00000000
00010000
10000000
00000000
01000000
00000000
00100000
00010000
00100000
00000000
00001000
,
00000000
00010000
00000010
00001000
00000000
00000100
00000010
00000001
00000000
00001000
00000100
00001000
00000000
00000100
00010000
00001000
,
00000000
00000000
00000000
00000000
;
