
//----- song ID: kyuk -----//
#TITLE:きゅうくらりん;
#ARTIST:いよわ;
#TITLETRANSLIT:Kyu-kurarin;
#ARTISTTRANSLIT:Iyowa;
#BANNER:Kyu-kurarin.png;
#BACKGROUND:Kyu-kurarin-bg.png;
#CDTITLE:./CDTitles/DDR WORLD.png;
#MUSIC:Kyu-kurarin.ogg;
#SAMPLESTART:47.991;
#SAMPLELENGTH:15;
#BPMS:0=220;
#NOTES:
     dance-single:
     :
     Beginner:
     3:
     :
0000
0000
0000
0000
,
0000
0000
0000
0000
,
0000
0000
0000
0000
,
0000
0000
0000
0000
,
0000
0000
0000
0000
,
0000
0000
0000
0000
,
0000
0000
0000
0000
,
0000
0000
0000
0000
,
0000
0000
0000
0000
,
0000
0000
0000
0000
,
0000
0000
0000
0000
,
0000
0000
0000
0000
,
0001
0000
0000
0000
,
0000
0000
0000
0000
,
0010
0000
0000
0000
,
0000
0000
0000
0000
,
0002
0000
0003
0000
,
0000
0000
0000
0000
,
2000
0000
3000
0000
,
0000
0000
0000
0000
,
0010
0000
0000
0000
,
0010
0000
0000
0000
,
0100
0000
0000
0000
,
0100
0000
0000
0000
,
0001
0000
0000
0000
,
1000
0000
0000
0000
,
0001
0000
0000
0000
,
0000
0000
0000
0000
,
0010
0000
0000
0000
,
0010
0000
0000
0000
,
0100
0000
0000
0000
,
0100
0000
0000
0000
,
1000
0000
0000
0000
,
0001
0000
0000
0000
,
1000
0000
0000
0000
,
1000
0000
0000
0000
,
0020
0000
0030
0000
,
0000
0000
0000
0000
,
1000
0000
0000
0000
,
1000
0000
0000
0000
,
0001
0000
0000
0000
,
0001
0000
0000
0000
,
0020
0000
0030
0000
,
0000
0000
0000
0000
,
0001
0000
0000
0000
,
1000
0000
1000
0000
,
1000
0000
0000
0000
,
0001
0000
0001
0000
,
0001
0000
0000
0000
,
1000
0000
0000
0000
,
0100
0000
0000
0000
,
0100
0000
0000
0000
,
0000
0000
0000
0000
,
1000
0000
0000
0000
,
0001
0000
0000
0000
,
0001
0000
0000
0000
,
0100
0000
0000
0000
,
0001
0000
0000
0000
,
0100
0000
0100
0000
,
0100
0000
0000
0000
,
0020
0000
0030
0000
,
0000
0000
0000
0000
,
0020
0000
0030
0000
,
0000
0000
0000
0000
,
2000
0000
3000
0000
,
0000
0000
0000
0000
,
2000
0000
3000
0000
,
0000
0000
0000
0000
,
0000
0000
0000
0000
,
0001
0000
0000
0000
,
0000
0000
0000
0000
,
1000
0000
0000
0000
,
0000
0000
0000
0000
,
0010
0000
0000
0000
,
0000
0000
0000
0000
,
1000
0000
0000
0000
,
0001
0000
0000
0000
,
1000
0000
0000
0000
,
0002
0000
0003
0000
,
0010
0000
0010
0000
,
0010
0000
0000
0000
,
0001
0000
0001
0000
,
0001
0000
0000
0000
,
1000
0000
0000
0000
,
0100
0000
0000
0000
,
0100
0000
0000
0000
,
0000
0000
0000
0000
,
0001
0000
0000
0000
,
1000
0000
0000
0000
,
1000
0000
0000
0000
,
0010
0000
0000
0000
,
0010
0000
0000
0000
,
1000
0000
0000
0000
,
0001
0000
0000
0000
,
1000
0000
1000
0000
,
1000
0000
0000
0000
,
0001
0000
0001
0000
,
0001
0000
0000
0000
,
0100
0000
0000
0000
,
0001
0000
0000
0000
,
0001
0000
0000
0000
,
1000
0000
0000
0000
,
0100
0000
0000
0000
,
0001
0000
0000
0000
,
0100
0000
0000
0000
,
1000
0000
0000
0000
,
0001
0000
0000
0000
,
0000
0000
0000
0000
,
1001
0000
0000
0000
,
0000
0000
0000
0000
;
#NOTES:
     dance-single:
     :
     Easy:
     5:
     :
0000
0000
0000
0000
,
0000
0000
0000
0000
,
0000
0000
0000
0000
,
0000
0000
0000
0000
,
0000
0000
0000
0000
,
0000
0000
0000
0000
,
0000
0000
0000
0000
,
0000
0000
0000
0000
,
0000
0000
0000
0000
,
0000
0000
0000
0000
,
0000
0000
0000
0000
,
0000
0000
0000
0000
,
0001
0000
1000
0000
,
0001
0000
0000
0000
,
2000
0000
3000
0000
,
2000
0000
3000
0000
,
0001
0000
0001
0000
,
0010
0010
0010
0000
,
0001
0000
0001
0000
,
1000
1000
1000
0000
,
0001
0000
0001
0000
,
0001
0000
0000
0000
,
1000
0000
1000
0000
,
1000
0000
0000
0000
,
0200
0000
0300
0000
,
0100
0000
0000
0000
,
0020
0000
0030
0000
,
0010
0000
0000
0000
,
0001
0000
0001
0000
,
1000
0000
0000
0000
,
1000
0000
1000
0000
,
0001
0000
0000
0000
,
0200
0000
0300
0000
,
0100
0000
0000
0000
,
0020
0000
0030
0000
,
0010
0000
0000
0000
,
2000
0000
3000
0000
,
1000
0000
0000
0000
,
0001
0000
0100
0000
,
0001
0000
0000
0000
,
1000
0000
1000
0000
,
0001
1000
0001
0000
,
0010
0000
0000
0000
,
0020
0000
0030
0000
,
0002
0000
0003
0000
,
1000
1000
1000
1000
,
2000
0000
3000
0000
,
0010
0010
0010
0000
,
0020
0000
0030
0000
,
0100
0000
0100
0000
,
0001
0000
1000
0000
,
0001
0000
0000
0000
,
2000
0000
3000
0000
,
1000
0000
0000
0000
,
0200
0000
0300
0000
,
0100
0000
0000
0000
,
1000
0000
0000
0000
,
0001
0000
0001
0000
,
1000
0000
0001
0001
,
0001
0000
0000
0000
,
0200
0000
0300
0000
,
0200
0000
0300
0000
,
0020
0000
0030
0000
,
0020
0000
0030
0000
,
1000
0000
1000
0000
,
1000
0000
0000
0000
,
0001
0000
0001
0000
,
1000
0001
1000
0000
,
0000
0000
0000
0000
,
0020
0000
0030
0000
,
0010
0000
0000
0000
,
1000
0000
1000
0000
,
0100
0000
0000
0000
,
0001
0000
0001
0000
,
0100
0000
0000
0000
,
1000
0000
0001
0000
,
2000
0000
3000
0000
,
0002
0000
0003
0000
,
1001
0000
0000
0000
,
1000
1000
1000
1000
,
2000
0000
3000
0000
,
0001
0001
0001
0000
,
0010
0000
0001
0000
,
1000
0001
1000
0000
,
0002
0000
0003
0000
,
2000
0000
3000
0000
,
0001
0000
0100
0000
,
0010
0010
0010
0000
,
1000
0000
0001
0000
,
0010
0010
0010
0000
,
0001
0000
0000
0000
,
1000
0000
0000
0000
,
0100
0000
0000
0000
,
0110
0000
0000
0000
,
0001
0001
0001
0001
,
0002
0000
0003
0000
,
1000
1000
1000
0000
,
0010
0000
0100
0000
,
0010
0010
0010
0000
,
0100
0000
0001
0000
,
2000
0000
3000
0000
,
0001
0000
1000
0000
,
0001
1000
0001
0000
,
0010
0000
0100
0000
,
0010
0100
0010
0000
,
0200
0000
0300
0000
,
2000
0000
3000
0000
,
0001
0000
0100
0100
,
0100
0000
0000
0000
,
0000
0000
0000
0000
;
#NOTES:
     dance-single:
     :
     Medium:
     9:
     :
0000
0000
0000
0000
,
0000
0000
0000
0000
,
0000
0000
0000
0000
,
0000
0000
0000
0000
,
0000
0000
0000
0000
,
0000
0000
0000
0000
,
0000
0000
0000
0000
,
0000
0000
0000
0000
,
0000
0000
0000
0000
,
0000
0000
0000
0000
,
0000
0000
0000
0000
,
0000
0000
0000
0000
,
0001
0010
0001
0000
,
1000
0010
1000
0000
,
0001
0100
0010
1000
,
0100
0010
0001
0000
,
1000
0000
0010
0000
,
1000
0001
1000
0000
,
0001
0000
0010
0000
,
0001
1000
0001
0000
,
1000
0010
0100
0001
,
0100
0000
0000
0001
0000
0000
0000
0000
,
1000
0100
0010
0001
,
0000
0000
0010
0001
0000
1000
0000
0000
,
0002
0003
2000
3000
,
0001
0100
0010
0000
,
2000
3000
0002
0003
,
1000
0100
0010
0000
,
0001
1000
0010
0100
,
0001
0000
0000
1000
0000
0000
0000
0000
,
0001
1000
0100
0010
,
0000
0000
0001
0010
0000
0001
0000
0000
,
2000
3000
0002
0003
,
0010
0001
0100
0000
,
0002
0003
2000
3000
,
0010
1000
0100
0010
,
0002
0000
0000
0003
,
2000
0000
0000
3000
,
0001
0100
0010
1000
,
0001
0000
0000
1000
0000
0000
0000
0000
,
0000
0001
0010
0100
,
1000
0000
0100
1000
0000
0001
0000
0000
,
0000
1000
0010
1000
,
0002
0003
0200
0300
,
0001
0000
1000
0000
,
1001
1001
1001
1001
,
0002
0003
0100
0001
,
1000
0100
0010
0100
,
0020
0000
0030
0000
0001
1000
0000
0001
,
0000
0001
0000
0001
0000
0000
0000
0000
,
1000
0001
0100
0010
,
0200
0300
0020
0030
,
1000
0100
0010
0100
,
1000
0000
0001
2000
0000
3000
0000
0000
,
0001
0100
0010
0100
,
0001
0000
1000
0002
0000
0003
1000
0000
,
1000
0000
0000
0100
0000
0000
0010
0000
,
0010
0000
0000
0001
0000
0000
0100
0000
,
0010
0000
0100
0010
,
0200
0300
0000
0110
,
0010
0000
1000
0000
,
0001
0000
0100
0000
,
0001
0000
0010
0000
,
0100
0000
1000
0000
,
0001
0000
0100
0000
,
1000
0000
0100
0000
,
0001
0000
1000
0000
,
0001
1000
0001
0000
,
0000
0000
0000
0000
,
2000
0000
0000
3000
,
0002
0000
0000
0003
,
1000
0100
0010
0001
,
1000
0000
0000
0001
0000
0000
0000
0000
,
0000
1000
0010
0100
,
0001
0000
0100
0001
0000
1000
0000
0000
,
0000
0001
0010
0100
,
2000
3000
0020
0030
,
0200
0300
0002
0003
,
0200
0300
0010
0000
,
1010
1010
1010
1010
,
0020
0030
1000
0100
,
0001
0100
1000
0001
,
0200
0000
0300
0000
0010
0100
0000
0010
,
0000
0010
0000
0010
0000
0000
0000
0000
,
1000
0100
1000
0001
,
0200
0300
0020
0030
,
1000
0010
0001
0010
,
1000
0000
0001
2000
0000
3000
0000
0000
,
0001
0010
1000
0010
,
0001
0000
1000
0002
0000
0003
1000
0000
,
1000
0000
0000
0010
0000
0000
0100
0000
,
0100
0000
0000
0001
0000
0000
0000
0000
,
1000
0000
0100
0000
,
0220
0000
0330
0000
,
0011
0011
1100
1100
,
2000
3000
0001
0100
,
1000
0100
0001
1000
,
0002
0000
0003
0000
0010
0001
0000
1000
,
0000
1000
0000
1000
0000
0000
0000
0000
,
0001
0100
0010
1000
,
0200
0300
0020
0030
,
0001
0010
0100
0001
,
0100
0000
0010
0200
0000
0300
0000
0000
,
1000
0010
0100
1000
,
0100
0000
0010
0200
0000
0300
0001
0000
,
0001
0000
0000
0010
0000
0000
0100
0000
,
0100
0000
0000
1000
0000
0000
0001
0000
,
0100
0000
0010
0100
,
0010
0000
0000
0000
,
0000
0000
0000
0000
;
#NOTES:
     dance-single:
     :
     Hard:
     13:
     :
0000
0000
0000
0000
,
0000
0000
0000
0000
,
0000
0000
0000
0000
,
0000
0000
0000
0000
,
0000
0000
0000
0000
,
0000
0000
0000
0000
,
0000
0000
0000
0000
,
0000
0000
0000
0000
,
0000
0000
0000
0000
,
0000
0000
0000
0000
,
0000
0000
0000
0000
,
0000
0000
0000
0000
,
0002
0000
0013
0001
2000
0000
3010
1000
,
0001
0100
0001
0010
0100
1000
0010
0100
,
0002
0023
0032
0023
0230
0320
0230
0320
,
0230
2300
3200
2300
0000
3000
0001
0000
,
0002
0000
0003
0100
0002
0000
0003
0100
,
0001
1000
0100
1000
0002
0000
1003
0000
,
2000
0000
3000
0100
2000
0000
3000
0100
,
1000
0001
0100
0001
2000
0000
3001
0000
,
0101
0001
1010
1000
,
0100
0000
1000
0100
0000
0010
0001
0000
,
1000
0010
0100
0001
,
0100
0000
0010
1000
0000
1000
0001
0000
,
2000
0000
3000
0100
2000
0000
3000
0010
,
1000
0100
0010
0001
2000
0000
3001
0000
,
0002
0000
0003
0100
0002
0000
0003
0010
,
0001
0100
0010
1000
0002
0000
1003
0000
,
0011
0001
1100
1000
,
0010
0000
1000
0010
0000
0100
0001
0000
,
1000
0100
0000
0010
0100
0010
0100
0000
,
0010
0000
0001
1000
0000
1000
0001
0000
,
2000
0000
3000
0010
2000
0000
3000
0100
,
1000
0010
0100
0001
2000
0000
3001
0000
,
0002
0000
0003
0010
0002
0000
0003
0100
,
0001
0010
0100
1000
0001
0000
1000
0000
,
0002
0000
0100
0000
1003
0000
0000
0001
,
2000
0000
0100
0000
3001
0000
0000
1000
,
0001
0010
0100
1000
0001
0000
0100
0000
,
0010
0000
1000
0010
0000
0100
0010
0000
,
1000
0000
0100
1000
0100
0010
0100
0000
,
0001
0000
0100
0010
0000
0200
0000
0310
,
0100
0000
1000
0000
0001
1000
0001
0000
,
1000
0100
0010
0001
0000
0000
,
1001
0000
0000
0000
0001
0100
0010
1000
,
1010
1100
0011
0101
,
0002
0000
0003
0000
1000
0100
0010
0001
,
0010
0000
0001
0100
0010
0000
1000
0000
,
0002
0000
0003
0100
0001
1000
0100
1000
,
0000
1000
0000
1000
0000
0100
0010
0000
,
0100
0000
1000
0100
0010
0001
0010
0100
,
0020
0000
0130
0010
0100
0000
0010
0000
,
0001
1000
0000
0001
0100
0010
1000
0010
,
0100
0000
0010
0200
0000
0301
0100
0000
,
0001
0000
0010
0001
1000
0100
1000
0001
,
0100
0000
0001
0100
0000
0000
0001
0000
,
0001
0000
0000
0000
0000
1000
0200
0000
0000
0000
1300
0000
0100
0000
0010
0000
,
0001
0010
0001
0010
0000
0000
0001
0000
,
1000
0000
0000
0001
0200
0000
0310
0100
,
0010
0100
0100
0110
,
0010
0100
0010
0100
0000
0100
0000
0100
,
0000
0001
0000
1000
0000
1000
0000
0001
,
0010
0000
0000
0000
0000
0000
0000
0100
0000
0000
0000
0000
0000
0000
0000
0000
1000
0000
0000
0100
0000
0000
0000
0000
0000
0000
0000
0000
0010
0000
0000
0000
,
0100
0000
0010
0000
0000
0000
0001
0010
0001
0000
0000
0000
1000
0000
0000
0000
,
0001
1000
0000
0001
0000
1000
0000
1000
,
0000
0001
0100
0000
0010
0000
1000
0100
,
0000
0100
0000
0100
0000
1000
0001
1000
,
0000
0001
0000
0100
0001
0000
0000
0000
,
0000
0000
0000
0000
,
0010
0000
0000
0000
0000
0000
0000
0001
,
1000
0000
0000
0000
0000
0000
0000
0001
,
0100
0010
0100
0001
1000
0000
1000
0000
,
0100
0000
0000
0010
0000
0000
0001
0000
,
0001
0000
1000
0100
0010
0100
1000
0000
,
0001
0000
0001
1000
0000
1000
0001
0000
,
1000
0000
0010
1000
0010
1000
0010
0100
,
0001
0000
0000
0000
0010
0000
0000
0000
0001
0000
0000
0000
0200
0000
0000
0000
0000
0000
0310
0000
0000
0100
0000
0000
,
0010
0000
1000
0000
0010
0000
2000
0000
0000
3000
0000
0000
,
1001
0000
0000
0000
1000
0100
0010
0001
,
0011
0110
1010
0110
,
0002
0000
0003
0000
1000
0010
0100
0001
,
0010
0000
0001
0000
1000
0000
0010
0100
,
0002
0000
0003
0010
0001
1000
0010
1000
,
0000
1000
0000
1000
0000
0001
1000
0000
,
0001
0000
1000
0100
0001
0100
0010
0001
,
0200
0000
0310
0100
0010
0000
0100
0000
,
0001
1000
0000
0001
0010
0100
1000
0001
,
0100
0000
0010
2000
0000
3001
0010
0000
,
0001
0000
0100
0001
0010
0001
1000
0100
,
1000
0000
0010
2000
0000
3000
0001
0000
,
0001
0000
0000
0000
0000
1000
0200
0000
0000
0000
1300
0000
0100
0000
0010
0000
,
0100
0001
0100
1000
0000
0000
0001
0000
,
1000
0000
0000
0100
0010
0100
0010
0000
,
2002
0000
3003
1000
0001
0010
0100
1000
,
1100
0110
1010
0011
,
0002
0000
0003
0000
1000
0100
0001
0100
,
1000
0000
1000
0010
0001
0000
0001
0010
,
2000
0000
3000
0001
0100
1000
0100
0010
,
0000
0010
0000
0010
0000
0100
0010
0000
,
1000
0000
0001
0010
0100
0001
0100
0010
,
0200
0000
1300
0001
0100
0000
0000
0000
,
0001
0100
0010
0100
1000
0100
0010
1000
,
0100
0000
0100
0002
0000
0103
0100
0000
,
1000
0100
0010
0100
0001
0100
0010
0001
,
0100
0000
0100
2000
0000
3100
0100
0001
,
1000
0000
0010
0200
0000
0301
0100
0001
,
0010
1000
0010
0100
0000
0000
1000
0000
,
0010
0000
0000
0100
0020
0000
0031
0010
,
1000
0000
0000
0000
,
0000
0000
0000
0000
;
#NOTES:
     dance-double:
     :
     Easy:
     4:
     :
00000000
00000000
00000000
00000000
,
00000000
00000000
00000000
00000000
,
00000000
00000000
00000000
00000000
,
00000000
00000000
00000000
00000000
,
00000000
00000000
00000000
00000000
,
00000000
00000000
00000000
00000000
,
00000000
00000000
00000000
00000000
,
00000000
00000000
00000000
00000000
,
00000000
00000000
00000000
00000000
,
00000000
00000000
00000000
00000000
,
00000000
00000000
00000000
00000000
,
00000000
00000000
00000000
00000000
,
00001000
00000000
00010000
00000000
,
00001000
00000000
00000000
00000000
,
00200000
00000000
00300000
00000000
,
00200000
00000000
00300000
00000000
,
00020000
00000000
00030000
00000000
,
20000000
00000000
30000000
00000000
,
00200000
00000000
00300000
00000000
,
00200000
00000000
00300000
00000000
,
01000000
00000000
00010000
00000000
,
01000000
00000000
00000000
00000000
,
00001000
00000000
00010000
00000000
,
00001000
00000000
00000000
00000000
,
00020000
00000000
00030000
00000000
,
00010000
00000000
00000000
00000000
,
00000200
00000000
00000300
00000000
,
00000100
00000000
00000000
00000000
,
00001000
00000000
00000100
00000000
,
00001000
00000000
00000000
00000000
,
00000002
00000000
00000003
00000000
,
00001000
00000000
00000000
00000000
,
00000002
00000000
00000003
00000000
,
00000001
00000000
00000000
00000000
,
00000200
00000000
00000300
00000000
,
00000100
00000000
00000000
00000000
,
00000020
00000000
00000000
00000000
,
00000030
00000000
00000000
00000000
,
00001000
00000000
00000010
00000000
,
00001000
00000000
00000000
00000000
,
00000001
00000000
00001000
00000000
,
00000100
00000000
00010000
00000000
,
00001000
00000000
00000000
00000000
,
00020000
00000000
00030000
00000000
,
00002000
00000000
00003000
00000000
,
00010000
00001000
00010000
00001000
,
00020000
00000000
00030000
00000000
,
00001000
00000000
01000000
00000000
,
00020000
00000000
00030000
00000000
,
20000000
00000000
30000000
00000000
,
01000000
00000000
01000000
00000000
,
01000000
00000000
00000000
00000000
,
00200000
00000000
00300000
00000000
,
00100000
00000000
00000000
00000000
,
00020000
00000000
00030000
00000000
,
00010000
00000000
00000000
00000000
,
00100000
00000000
00000000
00000000
,
00001000
00000000
00000000
00000000
,
00010000
00000000
00001000
00000000
,
00001000
00000000
00000000
00000000
,
00020000
00000000
00030000
00000000
,
00000020
00000000
00000030
00000000
,
00002000
00000000
00003000
00000000
,
00000002
00000000
00000003
00000000
,
00001000
00000000
00000000
00000000
,
00001000
00000000
00000000
00000000
,
00000001
00000000
00000001
00000000
,
00000001
00000000
00000001
00000000
,
00000000
00000000
00000000
00000000
,
00002000
00000000
00003000
00000000
,
00001000
00000000
00000000
00000000
,
00000010
00000000
00000000
00000000
,
00010000
00000000
00000000
00000000
,
00001000
00000000
00000000
00000000
,
01000000
00000000
00000000
00000000
,
00010000
00000000
00000000
00000000
,
20000000
00000000
30000000
00000000
,
00020000
00000000
00030000
00000000
,
10010000
00000000
00000000
00000000
,
10000000
00010000
10000000
00010000
,
10000000
00000000
00000000
00000000
,
01000000
00000000
10000000
00000000
,
02000000
00000000
03000000
00000000
,
00200000
00000000
00300000
00000000
,
00010000
00000000
00010000
00000000
,
00010000
00000000
00000000
00000000
,
00100000
00000000
00010000
00000000
,
00100000
00000000
00000000
00000000
,
00001000
00000000
00010000
00000000
,
00001000
00000000
00000000
00000000
,
00010000
00000000
00000000
00000000
,
00000100
00000000
00000000
00000000
,
00001000
00000000
00000000
00000000
,
00000002
00000000
00000003
00000000
,
00001000
00000001
00001000
00000001
,
00001000
00000000
00000000
00000000
,
00000010
00000000
00000010
00000000
,
00002000
00000000
00003000
00000000
,
00000020
00000000
00000030
00000000
,
00001000
00000000
00000010
00000000
,
00010000
00000000
00000000
00000000
,
00002000
00000000
00003000
00000000
,
00001000
00000000
00000000
00000000
,
00200000
00000000
00300000
00000000
,
00100000
00000000
00000000
00000000
,
00010000
00000000
00000000
00000000
,
00100000
00000000
00000000
00000000
,
01000000
00000000
10000000
00000000
,
10000000
00000000
00000000
00000000
,
00000000
00000000
00000000
00000000
;
#NOTES:
     dance-double:
     :
     Medium:
     9:
     :
00000000
00000000
00000000
00000000
,
00000000
00000000
00000000
00000000
,
00000000
00000000
00000000
00000000
,
00000000
00000000
00000000
00000000
,
00000000
00000000
00000000
00000000
,
00000000
00000000
00000000
00000000
,
00000000
00000000
00000000
00000000
,
00000000
00000000
00000000
00000000
,
00000000
00000000
00000000
00000000
,
00000000
00000000
00000000
00000000
,
00000000
00000000
00000000
00000000
,
00000000
00000000
00000000
00000000
,
00001000
00010000
00001000
00000000
,
00010000
00000100
00001000
00000000
,
00000200
00000000
00002300
00000000
,
00003200
00000000
00000320
00000000
,
00000130
00000000
00000010
00000000
,
00000001
00001000
00000001
00000000
,
00001000
00000000
00000010
00000000
,
00010000
00001000
00010000
00000000
,
00001000
00010000
00001000
00000000
,
00100000
00000000
00010000
00000000
,
10000000
00100000
10000000
00000000
,
00100000
00000000
01000000
00000000
,
00020000
00030000
20000000
30000000
,
01000000
00000000
01000000
00000000
,
00200000
00300000
02000000
03000000
,
00100000
00000000
00100000
00000000
,
00010000
00100000
00010000
00000000
,
00100000
00000000
00001000
00000000
,
00010000
00001000
00010000
00000000
,
00000010
00000000
00001000
00000000
,
00000002
00000003
00002000
00003000
,
00000010
00000000
00000010
00000000
,
00000200
00000300
00000020
00000030
,
00000100
00000000
00000100
00000000
,
00000020
00000000
00000000
00000030
,
00002000
00000000
00000000
00003000
,
00000010
00010000
00001000
00100000
,
00010000
00000000
10000000
00000000
,
00000000
00010000
01000000
00010000
,
01000000
00000000
00000000
00100000
00000000
00100000
00000000
00000000
,
00000000
01000000
00010000
01000000
,
00002000
00003000
00020000
00030000
,
00001000
00000000
00010000
00000000
,
00000100
00001000
00000100
00000010
,
00000200
00000300
00000010
00000001
,
00001000
00000010
00010000
00001000
,
00020000
00000000
00030000
00000000
00001000
00100000
00000000
00010000
,
00000000
00010000
00000000
00010000
00000000
00000000
00000000
00000000
,
00100000
01000000
00100000
00000000
,
02000000
03000000
00200000
00300000
,
01000000
10000000
00010000
00100000
,
00001000
00000000
00010000
00002000
00000000
00003000
00000000
00000000
,
00010000
00001000
00010000
00000100
,
00001000
00000000
00000001
00002000
00000000
00003000
00000000
00000000
,
00000001
00000000
00000000
00000001
00000000
00000000
00000000
00000000
,
00000010
00000000
00000000
00000010
00000000
00000000
00000000
00000000
,
00000200
00000000
00000310
00000100
,
00000020
00000000
00000000
00000030
,
00000100
00000000
00001000
00000000
,
00000100
00000000
00010000
00000000
,
00001000
00000000
00010000
00000000
,
01000000
00000000
10000000
00000000
,
00010000
00000000
10000000
00000000
,
00100000
00000000
00010000
00000000
,
00001000
00000000
00010000
00000000
,
00000010
00001000
00000010
00000000
,
00000000
00000000
00000000
00000000
,
00002000
00000000
00000000
00003000
,
00000002
00000000
00000000
00000003
,
00000100
00000001
00000100
00000000
,
00000001
00000000
00000000
00001000
00000000
00000000
00000000
00000000
,
00000000
00000100
00010000
00000100
,
00010000
00000000
00000000
00001000
00000000
00001000
00000000
00000000
,
00000000
00010000
00001000
00100000
,
00020000
00030000
00200000
00300000
,
02000000
03000000
20000000
30000000
,
00020000
00030000
10000000
00000000
,
10010000
10010000
10010000
10010000
,
20000000
30000000
00100000
10000000
,
01000000
00010000
00001000
00010000
,
00002000
00000000
00003000
00000000
00010000
00001000
00000000
00010000
,
00000000
00010000
00000000
00010000
00000000
00000000
00000000
00000000
,
00001000
00010000
00000100
00001000
,
00000002
00000003
00002000
00003000
,
00000001
00000100
00000010
00001000
,
00000100
00000000
00010000
00002000
00000000
00003000
00000000
00000000
,
00010000
00001000
00010000
01000000
,
10000000
00000000
01000000
00200000
00000000
00300000
00000000
00000000
,
01000000
00000000
00000000
01000000
00000000
00000000
00000000
00000000
,
00010000
00000000
00000000
00010000
00000000
00000000
00000000
00000000
,
00001000
00000000
00010000
00000000
,
00022000
00000000
00033000
00000000
,
00011000
00011000
00011000
00011000
,
00002000
00003000
00010000
00001000
,
00000100
00000010
00001000
00000100
,
00000020
00000000
00000030
00000000
00000001
00000010
00000000
00000100
,
00000000
00000100
00000000
00000100
00000000
00000000
00000000
00000000
,
00001000
00000100
00010000
00001000
,
00200000
00300000
00020000
00030000
,
00100000
00010000
01000000
00001000
,
00010000
00000000
00001000
00020000
00000000
00030000
00000000
00000000
,
00000010
00001000
00000100
00010000
,
00001000
00000000
00010000
00002000
00000000
00003000
00000000
00000000
,
00100000
00000000
00000000
00100000
00000000
00000000
00000000
00000000
,
00010000
00000000
00000000
00010000
00000000
00000000
00100000
00000000
,
01000000
00000000
10000000
01000000
,
10000000
00000000
00000000
00000000
,
00000000
00000000
00000000
00000000
;
#NOTES:
     dance-double:
     :
     Hard:
     13:
     :
00000000
00000000
00000000
00000000
,
00000000
00000000
00000000
00000000
,
00000000
00000000
00000000
00000000
,
00000000
00000000
00000000
00000000
,
00000000
00000000
00000000
00000000
,
00000000
00000000
00000000
00000000
,
00000000
00000000
00000000
00000000
,
00000000
00000000
00000000
00000000
,
00000000
00000000
00000000
00000000
,
00000000
00000000
00000000
00000000
,
00000000
00000000
00000000
00000000
,
00000000
00000000
00000000
00000000
,
00002000
00000000
00013000
00001000
00200000
00000000
00310000
10000000
,
00200000
00000000
10300000
00100000
01000000
00010000
00100000
00010000
,
00200000
00302000
00203000
00302000
00023000
00030200
00020300
00030200
,
00002300
00003002
00002003
00003002
00000000
00000003
00000000
00000000
,
00002000
00000000
00003000
00000010
00002000
00000000
00003000
00000010
,
00001000
00000001
00000100
00001000
00020000
00000000
00030000
00000000
,
00002000
00000000
00003000
00010000
00002000
00000000
00003000
00010000
,
00001000
00010000
01000000
10000000
02000000
00000000
03000000
00000000
,
11000000
10000000
00010000
01000000
,
00100000
00000000
01000000
00200000
00000000
00300000
00000000
00000000
,
01000000
00100000
00010000
00001000
,
00000000
00000000
00010000
00001000
00000000
00001000
00000000
00000000
,
00020000
00000000
00030000
00001000
00020000
00000000
00030000
00001000
,
00010000
00001000
00000010
00000001
00000020
00000000
00000030
00000000
,
00000002
00000000
00000003
00001000
00000002
00000000
00000003
00001000
,
00000001
00000100
00001000
00010000
00002000
00000000
00003000
00000000
,
00011000
00010000
00001000
00100000
,
01000000
00000000
00100000
02000000
00000000
03000000
00000000
00000000
,
10000000
01000000
00000000
00100000
01000000
00100000
01000000
00000000
,
00000000
00000000
00100000
00010000
00000000
00010000
00000000
00000000
,
20000000
00000000
30000000
00010000
20000000
00000000
30000000
00010000
,
10000000
00100000
00010000
00001000
00020000
00000000
00030000
00000000
,
00002000
00000000
00003000
00010000
00002000
00000000
00003000
00010000
,
00001000
00000010
00000001
00001000
00000001
00000000
00000100
00000000
,
00000002
00000000
00000100
00000000
00000103
00000000
00000000
00000001
,
00002000
00000000
00000100
00000000
00003100
00000000
00000000
00001000
,
00000100
00010000
00001000
00100000
00010000
00000000
10000000
00000000
,
00100000
00000000
00000000
01000000
00000000
00000000
00100000
00000000
,
01000000
00000000
00010000
01000000
00010000
01000000
00010000
00000000
,
01000000
00000000
00001000
00010000
00000000
00002000
00000000
00003000
,
00000000
00000000
00010000
00000000
00001000
00010000
00001000
00000000
,
00010000
00001000
00000010
00000001
00000000
00000000
,
00001001
00000000
00000000
00000000
00000001
00000100
00000010
00000100
,
00000001
00000100
00001000
00010000
,
00022000
00000000
00033000
00000000
00001000
00010000
01000000
00100000
,
01000000
00100000
00010000
10000000
,
00020000
00000000
00030000
10000000
00100000
01000000
00010000
01000000
,
00000000
01000000
00000000
01000000
00000000
00000000
00010000
00000000
,
10000000
00000000
00010000
00100000
00001000
00010000
00000100
00001000
,
00000200
00000000
00000300
00001000
00000001
00000000
00000000
00000000
,
00000100
00000001
00000000
00000100
00000001
00000010
00000100
00001000
,
00000100
00000000
00010000
00002000
00000000
00003000
00000000
00000000
,
00010000
00000000
00001000
00010000
00100000
01000000
00100000
10000000
,
01000000
00000000
10000000
01000000
00000000
00000000
10000000
00000000
,
10000000
00000000
00000000
00000000
00000000
00010000
20000000
00000000
00000000
00000000
30100000
00000000
10000000
00000000
00010000
00000000
,
00100000
00010000
00100000
00010000
00000000
00000000
00100000
00000000
,
00001000
00000000
00000000
00010000
00000020
00000000
00001030
00000010
,
00001000
00000010
00000100
00000110
,
00000010
00000100
00000010
00000100
00000000
00000100
00000000
00000100
,
00000000
00000001
00000000
00000100
00000000
00001000
00000000
00010000
,
00001000
00000000
00000000
00000000
00000000
00000000
00000000
00100000
00000000
00000000
00000000
00000000
00000000
00000000
00000000
00000000
00010000
00000000
00000000
00100000
00000000
00000000
00000000
00000000
00000000
00000000
00000000
00000000
01000000
00000000
00000000
00000000
,
10000000
01000000
00000000
10000000
10000000
00000000
00000000
00000000
,
00010000
10000000
00000000
00100000
00000000
00010000
00000000
00001000
,
00000000
00010000
00001000
00000000
00000100
00000000
00000001
00000100
,
00000000
00000100
00000000
00000100
00000000
00000010
00001000
00000010
,
00000000
00010000
00000000
00001000
00010000
00000000
00000000
00000000
,
00000000
00000000
00000000
00000000
,
00001000
00000000
00000000
00000000
00000000
00000000
00000000
00100000
,
00010000
00000000
00000000
00000000
00000000
00000000
00000000
00100000
,
01000000
00100000
00010000
10000000
00010000
00000000
10000000
00000000
,
00100000
00000000
00000000
01000000
00000000
00000000
00000000
00000000
,
00000000
00000000
00010000
01000000
00010000
01000000
00010000
00000000
,
01000000
00000000
00001000
00010000
00000000
00010000
00000000
00000000
,
00000000
00000000
00000100
00001000
00000100
00001000
00000100
00000010
,
00000001
00000000
00000000
00000000
00000100
00000000
00000000
00000000
00001000
00000000
00000000
00000000
00020000
00000000
00000000
00000000
00000000
00000000
00031000
00000000
00000000
00010000
00000000
00000000
,
00001000
00000000
00010000
00000000
01000000
00000000
20000000
00000000
00000000
30000000
00000000
00000000
,
10010000
00000000
00000000
00000000
10000000
01000000
00100000
01000000
,
10000000
01000000
00010000
00001000
,
00022000
00000000
00033000
00000000
00010000
00001000
00000100
00000010
,
00001000
00000010
00001000
00000100
,
00000020
00000000
00000030
00000001
00000010
00001000
00000010
00000100
,
00000000
00000100
00000000
00000100
00000000
00000000
00001000
00000000
,
00000001
00000000
00001000
00000010
00000100
00001000
00010000
00001000
,
00200000
00000000
00300000
00010000
10000000
00000000
00000000
00000000
,
01000000
10000000
00000000
01000000
10000000
00100000
01000000
00010000
,
01000000
00000000
00001000
00020000
00000000
00030000
00000000
00000000
,
00001000
00000000
00010000
00001000
00000010
00000100
00001000
00000001
,
00000100
00000000
00000001
00000100
00000000
00000000
00000001
00000000
,
00000001
00000000
00000000
00000000
00000000
00001000
00000002
00000000
00000000
00000000
00000013
00000000
00000001
00000000
00001000
00000000
,
00000010
00001000
00000010
00001000
00000000
00000000
00000010
00000000
,
00010000
00000000
00000000
00001000
00010000
00001000
00010000
00000000
,
00022000
00000000
00033000
00001000
00010000
00100000
00010000
00100000
,
01000000
00100000
10000000
01000000
,
00020000
00000000
00030000
00000000
00001000
00010000
00000010
00001000
,
00000100
00000000
00000010
00000001
00000100
00000000
00000010
00000000
,
00002000
00000000
00003000
00000010
00000100
00001000
00010000
00001000
,
00000000
00001000
00000000
00001000
00000000
00000000
01000000
00000000
,
00010000
00000000
01000000
00010000
00001000
00010000
01000000
00100000
,
20000000
00100000
30100000
00000000
,
10000000
01000000
00100000
01000000
00010000
00001000
00010000
00001000
,
00000010
00000000
00000010
00002000
00000000
00003010
00000010
00000000
,
00000001
00000100
00000010
00000100
00001000
00010000
00001000
00010000
,
00100000
00000000
00100000
00020000
00000000
00130000
00100000
10000000
,
00010000
00000000
10000000
02000000
00000000
03100000
01000000
00010000
,
00001000
00000100
00000010
00000100
00000000
00000000
00000001
00000000
,
00000100
00000000
00000000
00000010
00000200
00000000
00001300
00000100
,
00000001
00000000
00000000
00000000
,
00000000
00000000
00000000
00000000
;
