
//----- song ID: kyal -----//
#TITLE:強風オールバック;
#ARTIST:Yukopi;
#TITLETRANSLIT:Kyoufuu all back;
#BANNER:Kyoufuu all back.png;
#BACKGROUND:Kyoufuu all back-bg.png;
#CDTITLE:./CDTitles/DDR WORLD.png;
#MUSIC:Kyoufuu all back.ogg;
#SAMPLESTART:1.695;
#SAMPLELENGTH:15;
#BPMS:0=135;
#NOTES:
     dance-single:
     :
     Beginner:
     1:
     :
0000
0000
0000
0000
,
0000
0000
0000
0000
,
0000
0000
0000
0000
,
0000
0000
0000
0000
,
0000
0000
0000
0000
,
0010
0000
0000
0000
,
0010
0000
0000
0000
,
0000
0000
0000
0000
,
1001
0000
0000
0000
,
0001
0000
0000
0000
,
0000
0000
0000
0000
,
0010
0000
0000
0000
,
0000
0000
0000
0000
,
0100
0000
0000
0000
,
0000
0000
0000
0000
,
1000
0000
0000
0000
,
0010
0000
0000
0000
,
1000
0000
0000
0000
,
0001
0000
0000
0000
,
0000
0000
1000
0000
,
0000
0000
0000
0000
,
0010
0000
0000
0000
,
0010
0000
0000
0000
,
0000
0000
0000
0000
,
1000
0000
0000
0000
,
0001
0000
0000
0000
,
1000
0000
0000
0000
,
0000
0000
0001
0000
,
0000
0000
0000
0000
,
0010
0000
0000
0000
,
0010
0000
0000
0000
,
0002
0000
0000
0000
,
0003
0000
0000
0000
,
0010
0000
0000
0000
,
0001
0000
0000
0000
,
1000
0000
0000
0000
,
0001
0000
0000
0000
,
0100
0000
0000
0000
,
0100
0000
0000
0000
,
0000
0000
0000
0000
,
1001
0000
0000
0000
,
0001
0000
0000
0000
,
0001
0000
0000
0000
,
1000
0000
0000
0000
,
1000
0000
0000
0000
,
0001
0000
0000
0000
,
0000
0000
0000
0000
,
0100
0000
0000
0000
,
0000
0000
0000
0000
,
0010
0000
0000
0000
,
1000
0000
0000
0000
,
0001
0000
0000
0000
,
1000
0000
0000
0000
,
0100
0000
0000
0000
,
0100
0000
0000
0000
,
0000
0000
0000
0000
,
1001
0000
0000
0000
,
1000
0000
0000
0000
,
1000
0000
0000
0000
,
0001
0000
0000
0000
,
0001
0000
0000
0000
,
0100
0000
0000
0000
,
0100
0000
0000
0000
,
0000
0000
0000
0000
,
1001
0000
0000
0000
,
0000
0000
0000
0000
,
1001
0000
0000
0000
,
0001
0000
0000
0000
,
1000
0000
0000
0000
,
0010
0000
0000
0000
,
1000
0000
0000
0000
,
0001
0000
0000
0000
,
0010
0000
0000
0000
,
0001
0000
0000
0000
,
1000
0000
1000
0000
,
0000
0000
0000
0000
;
#NOTES:
     dance-single:
     :
     Easy:
     4:
     :
0000
0000
0000
0000
,
0000
0000
0000
0000
,
0000
0000
0000
0000
,
0000
0000
0000
0000
,
0000
0000
0000
0000
,
1000
0000
0001
0000
,
0200
0300
0100
0000
,
0001
0001
0001
0000
,
0200
0000
0300
0000
,
0020
0030
0000
0000
1000
0000
0000
0000
,
1000
0000
0001
0000
,
0020
0030
0000
0000
0001
0000
0000
0000
,
0001
0000
1000
0000
,
0020
0030
0000
0000
1000
0000
0000
0000
,
1000
0000
0001
0000
,
0020
0030
0000
0000
0001
0000
0000
0000
,
0010
0001
0010
0000
,
0100
0000
0100
0000
,
0200
0300
0100
0000
,
0000
0000
1000
0000
,
0001
0001
0001
0000
,
1000
0010
1000
0000
,
0001
0010
0001
0000
,
0000
0000
0000
1000
,
0010
1000
0010
0000
,
0200
0000
0300
0000
,
0200
0300
0100
0000
,
0000
0000
0001
0000
,
1000
1000
1000
0000
,
0100
0000
1000
0000
,
0001
0010
0001
0000
,
1000
0001
1000
0001
,
2000
0000
3000
0000
,
1001
0000
0001
0000
,
0010
0001
0010
0000
,
0100
0100
0200
0300
,
0100
0100
0100
0000
,
1000
0000
0001
0000
,
0200
0300
0100
0000
,
0001
0001
0001
0000
,
0200
0000
0300
0000
,
0110
0000
0000
0000
,
1001
0000
0000
0000
,
1000
1000
1000
0000
,
0001
0001
0001
0000
,
0020
0030
0000
0000
0001
0000
0000
0000
,
0001
0000
1000
0000
,
0020
0030
0000
0000
1000
0000
0000
0000
,
1000
0000
0001
0000
,
1001
0000
1000
0000
,
0010
1000
0010
0000
,
0100
0100
0200
0300
,
0100
0100
0100
0000
,
0001
0000
1000
0000
,
0200
0300
0100
0000
,
1000
1000
1000
0000
,
0200
0000
0300
0000
,
0110
0000
0000
0000
,
0010
0100
0010
0000
,
0100
0100
0200
0300
,
0100
0100
0100
0000
,
1000
0000
0001
0000
,
0200
0300
0100
0000
,
0001
0001
0001
0000
,
0200
0000
0300
0000
,
0001
1000
0001
1000
,
0200
0000
0300
0000
,
0020
0030
0000
0000
0001
0000
0000
0000
,
0001
0000
1000
0000
,
0020
0030
0000
0000
1000
0000
0000
0000
,
1000
0000
0001
0000
,
0020
0030
0000
0000
0001
0000
0000
0000
,
0001
0000
1000
0000
,
0020
0030
0000
0000
1000
0000
0000
0000
,
0010
1000
0001
0100
,
0000
0000
0000
0000
;
#NOTES:
     dance-single:
     :
     Medium:
     9:
     :
0000
0000
0000
0000
,
0000
0000
0000
0000
,
0000
0000
0000
0000
,
0000
0000
0000
0000
,
0000
0000
0000
0001
,
1001
0000
0001
1000
0001
1000
0001
0000
,
0100
0100
0100
0100
0100
0000
0010
0000
,
1000
0000
0000
1000
0001
0000
0000
0001
1000
0000
0000
0000
0010
0000
1000
0000
,
0200
0000
1300
0001
,
0022
0000
0033
0000
0000
0000
0001
0000
1000
0000
0000
0000
0001
0000
0000
0001
,
0100
0000
0000
0000
0001
0000
0000
0001
1000
0000
0000
0000
0010
0000
0000
0000
,
2020
3030
0000
1000
0001
0000
0200
0000
,
0301
0000
0000
0000
1000
0000
0000
1000
0001
0000
0000
0000
0010
0000
0000
0000
,
0022
0000
0033
0000
0000
0000
0001
0000
1000
0000
0000
0000
0001
0000
0000
0001
,
0100
0000
0000
0000
0001
0000
0000
0001
1000
0000
0000
0000
0010
0000
0000
0000
,
2020
0000
3030
0000
0000
0000
1000
0000
0001
0000
0000
0000
1000
0000
0000
1000
,
0001
0000
0100
0010
1000
0000
0000
0000
,
0100
0000
0000
0100
0100
0000
0000
0010
,
0200
0300
0200
0300
0200
0300
0000
0000
,
0000
0000
0000
0000
1001
0000
0000
0001
,
1000
0100
1000
0000
,
0001
0000
0010
0001
0010
0000
0001
0000
,
1000
0000
0010
1000
0010
0000
1000
0000
,
0000
0001
0000
1000
,
0100
0010
0100
0000
1000
0000
0001
0000
,
2000
0000
0000
0000
3001
0000
0000
0001
,
0200
0300
0200
0300
0200
0300
0000
0000
,
0000
0000
0000
0000
1001
0000
0000
0001
,
1000
0000
0010
0100
0010
0000
1000
0000
,
0001
0000
0010
0001
0010
0000
0001
1000
,
0010
1000
0010
1000
0010
0000
1000
0000
,
0002
0003
2000
3000
0002
0003
2000
3000
,
0010
0100
0010
0100
0010
0000
2000
0000
,
3001
0000
0000
0001
1000
0000
0000
1000
0002
0000
0000
0000
0013
0000
0000
0000
,
0001
0100
0000
0010
1000
0010
0010
0000
,
1000
0000
0000
1000
0001
0000
0000
0000
2000
0000
3000
0000
0001
0000
0010
0000
,
0200
0300
0200
0300
0200
0300
1000
0000
,
1001
0000
1000
0001
1000
0001
1000
0000
,
0100
0100
0100
0100
0100
0000
0010
0000
,
0001
0000
0000
0001
1000
0000
0000
1000
0002
0000
0000
0000
0013
0000
0001
0000
,
0200
0000
0310
1000
,
2020
3030
0000
0000
0000
0000
0000
0000
,
0202
0303
0000
0000
0000
0000
0000
0000
,
0001
0100
0010
1000
,
0001
0010
0100
1000
,
2200
0000
3300
0000
0000
0000
1000
0000
0001
0000
0000
0000
1000
0000
0000
1000
,
0010
0000
0000
0000
1000
0000
0000
1000
0001
0000
0000
0000
0100
0000
0000
0000
,
0202
0303
0000
0001
1000
0000
0020
0000
,
1030
0000
0000
0000
0001
0000
0000
0001
1000
0000
0000
0000
0100
0000
0000
0000
,
0220
0000
0330
0000
,
1000
0100
0000
0010
0001
0010
0010
0000
,
0001
0000
0000
0001
1000
0000
0000
0000
0002
0000
0003
0000
1000
0000
0010
0000
,
0200
0300
0200
0300
0200
0300
0001
0000
,
1001
0000
0001
1000
0001
1000
0001
0000
,
0100
0100
0100
0100
0100
0000
0010
0000
,
1000
0000
0000
1000
0001
0000
0000
0001
2000
0000
0000
0000
3010
0000
1000
0000
,
0200
0000
0310
0001
,
0002
0003
2000
3000
,
0001
0100
0000
0010
1000
0010
0010
0000
,
1000
0000
0000
1000
0001
0000
0000
0000
2000
0000
3000
0000
0001
0000
0010
0000
,
0200
0300
0200
0300
0200
0300
1000
0000
,
1001
0000
1000
0001
1000
0001
1000
0000
,
0100
0100
0100
0100
0100
0000
0010
0000
,
0001
0000
0000
0001
0010
0000
0000
0010
0002
0000
0000
0000
0013
0000
0001
0000
,
0200
0000
0310
1000
,
0001
0000
0000
0001
1000
0000
0000
1000
0001
0000
0000
0000
0100
0000
0000
0000
,
0200
0000
0310
1000
,
2020
0000
3030
0000
0000
0000
1000
0000
0001
0000
0000
0000
1000
0000
0000
1000
,
0100
0000
0000
0000
0010
0000
0000
0010
0001
0000
0000
0000
1000
0000
0000
0000
,
2002
0000
3003
0000
0000
0000
0001
0000
0100
0000
0000
0000
0200
0000
0000
0300
,
0001
0000
0000
0000
0100
0000
0000
0010
1000
0000
0000
0000
0010
0000
0000
0000
,
2020
0000
3030
0000
0000
0000
1000
0000
0001
0000
0000
0000
1000
0000
0000
1000
,
0100
0000
0000
0000
0010
0000
0000
0010
0001
0000
0000
0000
0010
0000
0000
0000
,
0022
0000
0033
0000
0000
0000
0001
0000
1000
0000
0000
0000
0001
0000
0000
0001
,
1000
0000
0010
0100
0010
0000
0110
0000
,
0000
0000
0000
0000
;
#NOTES:
     dance-single:
     :
     Hard:
     12:
     :
0000
0000
0000
0000
,
0000
0000
0000
0000
,
0000
0000
0000
0000
,
0000
0000
0000
0000
,
0000
0000
0000
1001
,
0110
0000
0000
0000
0001
1000
0001
1000
0001
1000
0001
1000
0001
0000
0000
0000
,
0100
0100
0100
0100
0100
0101
1100
0000
,
1001
0000
0000
0001
0100
0000
0000
0100
1000
0000
0100
0000
0010
0000
0001
0000
,
0010
0000
0000
0010
0200
0000
0300
0000
0110
0000
1000
0000
0001
0000
0000
0000
,
0011
0000
0000
0001
0100
0000
0000
0100
1000
0000
0000
1000
0001
0000
0000
0001
,
1000
0000
0000
1000
0100
0000
0000
0100
0001
0000
0100
0000
0010
0000
1000
0000
,
1010
0000
0000
1000
0100
0000
0000
0100
0001
0000
0100
0000
0200
0000
0000
0300
,
0001
0000
0000
0001
0100
0000
0000
0100
1000
0000
0100
0000
0010
0000
0001
0000
,
0101
0000
0000
0001
0010
0000
0000
0010
1000
0000
0000
1000
0001
0000
0000
0001
,
1000
0000
0000
1000
0010
0000
0000
0010
0001
0000
0010
0000
0100
0000
1000
0000
,
1100
0000
0000
1000
0010
0000
0000
0010
0001
0000
0000
0001
1000
0000
0000
1000
,
0001
0010
0100
0010
0110
0000
1000
0000
,
1100
0000
0000
0100
0010
0000
0000
0001
,
0200
0301
0200
0310
0100
0000
0000
0000
,
0000
0000
0000
0000
1001
0000
0000
1000
,
0100
0001
0100
1000
0001
0000
1000
0000
,
0110
0000
0001
0010
0100
0000
1000
0000
,
0011
0010
0001
0010
0100
0000
1000
0000
,
0000
0001
0000
1001
,
1010
0010
1000
0010
0100
0000
0001
0000
,
0110
0000
1000
0100
0010
0000
0001
1000
,
0200
1300
0200
0310
0100
0000
1000
0000
,
0100
0000
1000
0000
1001
0000
1000
0001
,
0100
1000
0100
0001
0010
0000
0001
0000
,
0110
0000
1000
0001
0100
0000
0001
1000
,
0100
0010
0001
0100
0010
0000
1000
0000
,
0001
1000
0010
0100
0001
1000
0010
0100
,
0001
1000
0001
1000
0002
0000
0000
0000
0103
0000
0000
0000
0220
0000
0330
0000
,
1001
0000
0000
0001
0100
0000
0000
0100
1000
0000
0100
0000
0001
0000
0000
0000
,
0101
0100
0000
1100
0100
0010
0010
0000
,
1001
0000
0000
1000
0100
0000
0100
0000
0002
0000
0000
0000
0103
0000
0010
0000
,
0100
0100
0100
0100
0100
0000
1001
0000
,
0110
0000
0000
0000
0001
1000
0001
1000
0001
1000
0001
1000
0001
0000
0000
0000
,
0100
0100
0100
0100
0100
0101
1100
0000
,
1001
0000
0000
1000
0100
0000
0000
0100
0001
0000
0100
0000
0010
0000
1000
0000
,
0010
0000
0000
0010
0200
0000
0300
0000
0110
0000
0001
0000
1000
0000
0000
0000
,
1001
0000
0000
1000
0100
0010
0001
0000
,
1001
0000
0000
0001
0010
0100
1000
0000
,
0100
1000
0010
0000
0100
0001
0010
0000
,
0100
1000
0010
0000
0100
0001
0010
0000
,
0011
0000
0000
0001
0010
0000
0000
0010
1000
0000
0000
1000
0001
0000
0000
0001
,
1000
0000
0000
1000
0010
0000
0000
0010
0001
0000
0100
0000
0010
0000
1000
0000
,
1010
0000
0000
1000
0010
0000
0000
0010
0001
0000
0010
0000
0020
0000
0000
0030
,
0001
0000
0000
0001
0010
0000
0000
0010
2000
0000
0000
0000
3000
0000
0000
0000
,
1001
0000
0000
1000
0100
0000
0000
0100
0001
0000
0100
0000
1000
0000
0000
0000
,
1100
0100
0000
0101
0100
0010
0010
0000
,
1001
0000
0000
0001
0100
0000
0100
0000
2000
0000
0000
0000
3100
0000
0010
0000
,
0100
0100
0100
0100
0100
0000
1001
0000
,
0110
0000
0000
0000
0001
1000
0001
1000
0001
1000
0001
1000
0001
0000
0000
0000
,
0100
0100
0100
0100
0100
0101
1100
0000
,
1001
0000
0000
0001
0100
0000
0000
0100
1000
0000
0100
0000
0010
0000
0001
0000
,
0010
0000
0000
0010
0200
0000
0300
0000
0110
0000
0000
0000
2000
0000
3000
0000
,
0002
0000
0003
0000
1000
0000
0000
0001
0010
0000
0100
0000
1000
0000
0000
0000
,
1100
0100
0000
0011
0010
0100
0100
0000
,
1001
0000
0000
0001
0010
0000
0010
0000
2000
0000
0000
0000
3010
0000
0100
0000
,
0010
0010
0010
0100
0100
0000
1001
0000
,
0110
0000
0000
0000
1000
0001
1000
0001
1000
0001
1000
0001
1000
0000
0000
0000
,
0100
0100
0100
0100
0100
1100
0101
0000
,
1001
0000
0000
0001
0100
0000
0000
0100
1000
0000
0100
0000
0010
0000
0001
0000
,
0010
0000
0000
0010
0200
0000
0300
0000
0110
0000
0000
0000
0000
0000
0000
0000
,
1001
0000
0000
1000
0010
0000
0000
0010
0001
0000
0010
0000
0100
0000
1000
0000
,
0001
0000
0000
0010
0200
0000
0300
0000
0110
0000
0000
0000
0001
0000
0000
0000
,
1010
0000
0000
1000
0100
0000
0000
0100
0001
0000
0000
0001
1000
0000
0000
1000
,
0001
0000
0000
0001
0100
0000
0000
0100
1000
0000
0100
0000
0010
0000
0001
0000
,
0011
0000
0000
0001
0100
0000
0000
0100
1000
0000
0100
0000
0200
0000
0000
0300
,
1000
0000
0000
1000
0100
0000
0000
0100
0001
0000
0100
0000
0010
0000
1000
0000
,
1100
0000
0000
1000
0010
0000
0000
0010
0001
0000
0000
0001
1000
0000
0000
1000
,
0001
0000
0000
0001
0010
0000
0000
0010
1000
0000
0010
0000
0100
0000
0001
0000
,
0101
0000
0000
0001
0010
0000
0000
0010
1000
0000
0000
1000
0010
0000
0000
0010
,
0001
0100
1000
0001
0010
0100
1001
0000
,
0000
0000
0000
0000
;
#NOTES:
     dance-double:
     :
     Easy:
     4:
     :
00000000
00000000
00000000
00000000
,
00000000
00000000
00000000
00000000
,
00000000
00000000
00000000
00000000
,
00000000
00000000
00000000
00000000
,
00000000
00000000
00000000
00000000
,
00001000
00000000
00010000
00000000
,
00000200
00000300
00000100
00000000
,
00001000
00001000
00001000
00000000
,
00000200
00000000
00000300
00000000
,
00000020
00000030
00000000
00000000
00000001
00000000
00000000
00000000
,
00001000
00000000
00001000
00000000
,
00000020
00000030
00000000
00000000
00000100
00000000
00000000
00000000
,
00001000
00000000
00010000
00000000
,
00200000
00300000
00000000
00000000
10000000
00000000
00000000
00000000
,
00010000
00000000
00010000
00000000
,
00200000
00300000
00000000
00000000
00010000
00000000
00000000
00000000
,
00100000
00001000
00010000
00000000
,
00000100
00000000
00000100
00000000
,
00000200
00000300
00000100
00000000
,
00000000
00000000
00011000
00000000
,
00001000
00001000
00001000
00000000
,
00010000
00001000
00100000
00000000
,
00010000
10000000
00010000
00000000
,
00000000
00000000
00000000
10000000
,
00100000
10000000
00010000
00000000
,
02000000
00000000
03000000
00000000
,
02000000
03000000
01000000
00000000
,
00000000
00000000
00011000
00000000
,
00010000
00010000
00010000
00000000
,
00000100
00001000
00000100
00000000
,
00000010
00000001
00000010
00000000
,
00000001
00001000
00000001
00001000
,
00000020
00000000
00000030
00000000
,
00001001
00000000
00001000
00000000
,
00000010
00010000
00001000
00000000
,
01000000
01000000
02000000
03000000
,
01000000
01000000
01000000
00000000
,
01010000
00000000
10000000
00000000
,
02000000
03000000
01000000
00000000
,
00010000
00000000
00001000
00000000
,
00000200
00000000
00000300
00000000
,
00000010
00000000
00000000
00000000
,
00000100
00000000
00000000
00000000
,
00001000
00000000
00001000
00000000
,
00010000
00000000
00010000
00000000
,
00200000
00300000
00000000
00000000
10000000
00000000
00000000
00000000
,
00010000
00000000
00010000
00000000
,
00200000
00300000
00000000
00000000
01000000
00000000
00000000
00000000
,
00010000
00000000
00002000
00003000
,
00010000
00000000
00001000
00000000
,
00010000
00000100
00001000
00000000
,
00000100
00000100
00000200
00000300
,
00000100
00000100
00000100
00000000
,
00001100
00000000
00000001
00000000
,
00000200
00000300
00000100
00000000
,
00001000
00000000
00010000
00000000
,
02000000
00000000
03000000
00000000
,
01100000
00000000
00000000
00000000
,
00010000
10000000
00010000
00000000
,
01000000
01000000
02000000
03000000
,
01000000
01000000
01000000
00000000
,
01010000
00000000
10000000
00000000
,
02000000
03000000
01000000
00000000
,
00010000
00000000
00001000
00000000
,
00000200
00000000
00000300
00000000
,
00000001
00000000
00000001
00001000
,
00000200
00000000
00000300
00000000
,
00000020
00000030
00000000
00000000
00000001
00000000
00000000
00000000
,
00001000
00000000
00001000
00000000
,
00000020
00000030
00000000
00000000
00000100
00000000
00000000
00000000
,
00001000
00000000
00010000
00000000
,
00200000
00300000
00000000
00000000
10000000
00000000
00000000
00000000
,
00010000
00000000
00010000
00000000
,
00200000
00300000
00000000
00000000
00010000
00000000
00000000
00000000
,
00100000
00001000
00010000
00001000
,
00000000
00000000
00000000
00000000
;
#NOTES:
     dance-double:
     :
     Medium:
     9:
     :
00000000
00000000
00000000
00000000
,
00000000
00000000
00000000
00000000
,
00000000
00000000
00000000
00000000
,
00000000
00000000
00000000
00000000
,
00000000
00000000
00000000
00010000
,
00011000
00000000
00001000
00010000
00000010
00001000
00000001
00000000
,
00000100
00000100
00000100
00000100
00000100
00000000
00000001
00000000
,
00000100
00000000
00000000
00000100
00001000
00000000
00000000
00001000
00010000
00000000
00000000
00000000
00100000
00000000
00000000
00000000
,
02000000
00000000
03100000
00000000
,
20200000
00000000
30300000
00000000
00000000
00000000
10000000
00000000
01000000
00000000
00000000
00000000
00010000
00000000
00000000
00010000
,
00001000
00000000
00000000
00000000
00000010
00000000
00000000
00000010
00000001
00000000
00000000
00000000
00000010
00000000
00000000
00000000
,
00000022
00000033
00000000
00000001
00000100
00000000
00002000
00000000
,
00013000
00000000
00000000
00000000
00100000
00000000
00000000
00100000
10000000
00000000
00000000
00000000
00100000
00000000
00000000
00000000
,
20200000
00000000
30300000
00000000
00000000
00000000
10000000
00000000
00100000
00000000
00000000
00000000
00010000
00000000
00000000
00010000
,
00001000
00000000
00000000
00000000
00000100
00000000
00000000
00000100
00000001
00000000
00000000
00000000
00000010
00000000
00000000
00000000
,
00000022
00000000
00000033
00000000
00000000
00000000
00000001
00000000
00000100
00000000
00000000
00000000
00001000
00000000
00000000
00001000
,
00010000
00000000
00001000
00100000
00010000
00000000
00000000
00000000
,
10000000
00000000
00000000
10000000
01000000
00000000
00000000
00100000
,
02000000
03000000
02000000
03000000
02000000
03000000
00000000
00000000
,
00000000
00000000
00000000
00000000
00011000
00000000
00000000
00001000
,
00010000
00000100
00001000
00000000
,
00000001
00000000
00001000
00000010
00001000
00000000
00000001
00000000
,
00000100
00000000
00001000
00010000
00001000
00000000
00010000
00000000
,
00000000
00001000
00000000
00010000
,
00001000
01000000
00010000
00000000
01000000
00000000
00010000
00000000
,
20000000
00000000
00000000
00000000
30010000
00000000
00000000
10000000
,
02000000
03000000
02000000
03000000
02000000
03000000
00000000
00000000
,
00010000
00000000
00000000
00000000
00011000
00000000
00000000
00010000
,
00000010
00000000
00000100
00000010
00000100
00000000
00000001
00000000
,
00001000
00000000
00000010
00000100
00000010
00000000
00001000
00000010
,
00010000
00001000
00010000
00001000
00100000
00000000
00010000
00000000
,
00200000
00300000
00020000
00030000
00002000
00003000
00000200
00000300
,
00000010
00000100
00000010
00000100
00000010
00000000
00000002
00000000
,
00000103
00000000
00000000
00000100
00001000
00000000
00000000
00001000
00020000
00000000
00000000
00000000
00031000
00000000
00000000
00000000
,
00010000
00100000
00000000
10000000
00010000
00100000
00100000
00000000
,
00001000
00000000
00000000
00001000
00010000
00000000
00000000
00000000
00000020
00000000
00000030
00000000
00010000
00000000
00001000
00000000
,
02000000
03000000
02000000
03000000
02000000
03000000
00010000
00000000
,
10100000
00000000
00010000
01000000
00001000
00010000
00000010
00000000
,
00000100
00000100
00000100
00000100
00000100
00000000
00000001
00000000
,
00000100
00000000
00000000
00000100
00001000
00000000
00000000
00001000
00020000
00000000
00000000
00000000
00031000
00000000
00000000
00000000
,
02000000
00000000
03100000
10000000
,
20000000
30000000
00000000
00000000
00000000
00000000
00000000
00000000
,
00020000
00030000
00000000
00000000
00000000
00000000
00000000
00000000
,
10000000
01000000
00100000
00010000
,
00001000
00000100
00000010
00000001
,
00000022
00000000
00000033
00000000
00000000
00000000
00000001
00000000
00000100
00000000
00000000
00000000
00001000
00000000
00000000
00001000
,
00010000
00000000
00000000
00000000
00100000
00000000
00000000
00100000
10000000
00000000
00000000
00000000
00100000
00000000
00000000
00000000
,
20200000
30300000
00000000
10000000
01000000
00000000
00020000
00000000
,
00031000
00000000
00010000
00001000
00020000
00000000
00030000
00000000
,
00001000
00000000
00000000
00001000
00010000
00000000
00000000
00010000
00002000
00000000
00000000
00000000
00013000
00000000
00000000
00000000
,
00001000
00000010
00000000
00000001
00001000
00000010
00000010
00000000
,
00010000
00000000
00000000
00010000
00001000
00000000
00000000
00000000
00200000
00000000
00300000
00000000
00001000
00000000
00010000
00000000
,
00000200
00000300
00000200
00000300
00000200
00000300
00001000
00000000
,
00000011
00000000
00001000
00000100
00010000
00001000
00100000
00000000
,
01000000
01000000
01000000
01000000
01000000
00000000
10000000
00000000
,
01000000
00000000
00000000
01000000
00010000
00000000
00000000
00010000
00002000
00000000
00000000
00000000
00013000
00000000
00000000
00000000
,
00000200
00000000
00000310
00000000
,
00000110
00000000
00001001
00000000
,
00000001
00000100
00000000
00000010
00001000
00000010
00000010
00000000
,
00010000
00000000
00000000
00010000
00001000
00000000
00000000
00000000
02000000
00000000
03000000
00000000
00001000
00000000
00010000
00000000
,
00000020
00000030
00000200
00000300
00000200
00000300
00000001
00000000
,
00000101
00000000
00001000
00000010
00010000
00001000
00100000
00000000
,
01000000
01000000
01000000
01000000
01000000
00000000
10000000
00000000
,
01000000
00000000
00000000
01000000
00010000
00000000
00000000
00010000
00002000
00000000
00000000
00000000
00013000
00000000
00000000
00000000
,
00000200
00000000
00000310
00000000
,
00000010
00000000
00000000
00000010
00000001
00000000
00000000
00000001
00001000
00000000
00000000
00000000
00000100
00000000
00000000
00000000
,
00000200
00000000
00000310
00000001
,
00000022
00000000
00000033
00000000
00000000
00000000
00000001
00000000
00000100
00000000
00000000
00000000
00001000
00000000
00000000
00001000
,
00010000
00000000
00000000
00000000
00100000
00000000
00000000
00100000
10000000
00000000
00000000
00000000
00100000
00000000
00000000
00000000
,
20200000
30300000
00000000
10000000
01000000
00000000
00020000
00000000
,
00031000
00000000
00000000
00000000
00000010
00000000
00000000
00000010
00000001
00000000
00000000
00000000
00000010
00000000
00000000
00000000
,
00000022
00000000
00000033
00000000
00000000
00000000
00000001
00000000
00000100
00000000
00000000
00000000
00001000
00000000
00000000
00001000
,
00010000
00000000
00000000
00000000
00100000
00000000
00000000
00100000
10000000
00000000
00000000
00000000
00100000
00000000
00000000
00000000
,
20200000
00000000
30300000
00000000
00000000
00000000
10000000
00000000
01000000
00000000
00000000
00000000
00010000
00000000
00000000
00010000
,
00001000
00000000
00000010
00000001
00001000
00000000
00001001
00000000
,
00000000
00000000
00000000
00000000
;
#NOTES:
     dance-double:
     :
     Hard:
     12:
     :
00000000
00000000
00000000
00000000
,
00000000
00000000
00000000
00000000
,
00000000
00000000
00000000
00000000
,
00000000
00000000
00000000
00000000
,
00000000
00000000
00000000
00011000
,
00001010
00000000
00000000
00000000
00000001
00001000
00000001
00001000
00000001
00001000
00000001
00001000
00000001
00000000
00000000
00000000
,
00000100
00000100
00000100
00000100
00000100
00000001
00000001
00000000
,
00000100
00000000
00000000
00000100
00001000
00000000
00000000
00001000
00010000
00000000
00100000
00000000
10000000
00000000
00010000
00000000
,
00100000
00000000
00000000
00100000
02000000
00000000
03000000
00000000
01100000
00000000
10000000
00000000
00010000
00000000
00000000
00000000
,
10100000
00000000
00000000
10000000
01000000
00000000
00000000
01000000
00010000
00000000
00000000
00010000
00001000
00000000
00000000
00001000
,
00000100
00000000
00000000
00000100
00000001
00000000
00000000
00000001
00001000
00000000
00000100
00000000
00000010
00000000
00000001
00000000
,
00000011
00000000
00000000
00000001
00000100
00000000
00000000
00000100
00001000
00000000
00000100
00000000
00000200
00000000
00000000
00000300
,
00001000
00000000
00000000
00001000
00010000
00000000
00000000
00010000
00001000
00000000
01000000
00000000
00010000
00000000
10000000
00000000
,
10100000
00000000
00000000
10000000
00100000
00000000
00000000
00100000
00010000
00000000
00000000
00010000
00001000
00000000
00000000
00001000
,
00000010
00000000
00000000
00000010
00000001
00000000
00000000
00000001
00001000
00000000
00000100
00000000
00000010
00000000
00000001
00000000
,
00000011
00000000
00000000
00000001
00000010
00000000
00000000
00000010
00001000
00000000
00000000
00001000
00010000
00000000
00000000
00010000
,
00001000
00010000
00100000
10000000
00010000
00000000
10000000
00000000
,
11000000
00000000
00000000
01000000
00100000
00000000
00000000
00100000
,
02000000
13000000
02000000
03100000
01000000
00000000
00000000
00000000
,
00000000
00000000
00000000
00000000
00011000
00000000
00000000
00010000
,
00001000
00000010
00000001
00001000
00000001
00000000
00001000
00000000
,
00001010
00000000
00000010
00010000
00001000
00000000
00100000
00000000
,
00110000
00010000
00100000
01000000
10000000
00000000
01000000
00000000
,
00000000
00010000
00000000
00010000
,
00001000
00010000
00001000
00000010
00000001
00000000
00000100
00000000
,
00000101
00000000
00000001
00000010
00000100
00000000
00001000
00000010
,
00000200
00000301
00000200
00000310
00000100
00000000
00000010
00000000
,
00000100
00000000
00001000
00000000
00011000
00000000
00010000
00001000
,
00010000
00100000
10000000
00010000
01000000
00000000
00001000
00000000
,
00011000
00000000
00001000
00010000
00000010
00000000
00001000
00000001
,
00000100
00001000
00010000
00100000
10000000
00000000
00010000
00000000
,
10000000
01000000
00100000
00010000
00001000
00000100
00000010
00000001
,
00001000
00000001
00001000
00000001
00002000
00000000
00000000
00000000
00003001
00000000
00000000
00000000
00000200
00000000
00000300
00000000
,
00000101
00000000
00000000
00000100
00001000
00000000
00000000
00001000
00010000
00000000
00001000
00000000
00010000
00000000
00000000
00000000
,
00001000
00011000
00000000
00101000
00001000
00100000
00100000
00000000
,
00110000
00000000
00000000
00010000
00100000
00000000
01000000
00000000
20000000
00000000
00000000
00000000
30100000
00000000
01000000
00000000
,
00010000
01000000
01000000
01000000
01000000
00000000
01001000
00000000
,
00010010
00000000
00000000
00000000
00000001
00001000
00000001
00001000
00000001
00001000
00000001
00001000
00000001
00000000
00000000
00000000
,
00000100
00000100
00000100
00000100
00000100
00000001
00000001
00000000
,
00000100
00000000
00000000
00000100
00001000
00000000
00000000
00001000
00010000
00000000
00100000
00000000
10000000
00000000
00010000
00000000
,
00100000
00000000
00000000
00100000
02000000
00000000
03000000
00000000
01100000
00000000
01000000
00000000
01000000
00000000
00000000
00000000
,
10010000
00000000
00000000
10000000
01000000
00010000
00001000
00000000
,
00011000
00000000
00000000
00010000
00001000
00000100
00000001
00000000
,
00000100
00000001
00000010
00000000
00000100
00001000
00000010
00000000
,
00001000
00000010
00010000
00000000
00000010
00010000
00001000
00000000
,
00011000
00000000
00000000
00001000
00010000
00000000
00000000
00010000
00100000
00000000
00000000
00100000
10000000
00000000
00000000
10000000
,
01000000
00000000
00000000
01000000
00010000
00000000
00000000
00010000
00001000
00000000
00000000
00001000
00010000
00000000
00000000
00000000
,
00011000
00000000
00000000
00010000
00001000
00000000
00000000
00001000
00000010
00000000
00000000
00000010
00000001
00000000
00000000
00000001
,
00000100
00000000
00000000
00000100
00001000
00000000
00000100
00000000
00002000
00000000
00000000
00000000
00003000
00000000
00000000
00000000
,
00011000
00000000
00011000
00000000
,
00001000
00011000
00000000
01001000
00001000
01000000
01000000
00000000
,
01010000
00000000
00000000
00010000
01000000
00000000
00100000
00000000
20000000
00000000
00000000
00000000
31000000
00000000
00100000
00000000
,
00010000
01000000
01000000
01000000
01000000
00000000
01001000
00000000
,
00010010
00000000
00000000
00000000
00000001
00001000
00000001
00001000
00000001
00001000
00000001
00001000
00000001
00000000
00000000
00000000
,
00000100
00000100
00000100
00000100
00000100
00000001
00000001
00000000
,
00000100
00000000
00000000
00000100
00001000
00000000
00000000
00001000
00010000
00000000
00100000
00000000
10000000
00000000
00010000
00000000
,
00100000
00000000
00000000
00100000
02000000
00000000
03000000
00000000
01100000
00000000
01000000
00000000
01000000
00000000
00000000
00000000
,
01100000
00000000
00011000
00000000
,
00010000
00011000
00000000
00010010
00010000
00000010
00000010
00000000
,
00001010
00000000
00000000
00001000
00000010
00000000
00000100
00000000
00000002
00000000
00000000
00000000
00000013
00000000
00000100
00000000
,
00001000
00000100
00000100
00000100
00000100
00000000
00010100
00000000
,
00101000
00000000
00000000
00000000
10000000
00010000
10000000
00010000
10000000
00010000
10000000
00010000
10000000
00000000
00000000
00000000
,
01000000
01000000
01000000
01000000
01000000
10000000
10000000
00000000
,
01000000
00000000
00000000
01000000
00010000
00000000
00000000
00010000
00001000
00000000
00000010
00000000
00000001
00000000
00001000
00000000
,
00000010
00000000
00000000
00000010
00000200
00000000
00000300
00000000
00000110
00000000
00000100
00000000
00000100
00000000
00000000
00000000
,
00000110
00000000
00000000
00000000
00000010
00001000
00000000
00001000
00000001
00000000
00000100
00000000
00000010
00000000
00001000
00000000
,
00000001
00000000
00000000
00000010
00000200
00000000
00000300
00000000
00000110
00000000
00000000
00000000
00001000
00000000
00000000
00000000
,
00000011
00000000
00000000
00000001
00000100
00000000
00000000
00000100
00001000
00000000
00000000
00001000
00010000
00000000
00000000
00010000
,
01000000
00000000
00000000
01000000
10000000
00000000
00000000
10000000
00010000
00000000
01000000
00000000
00100000
00000000
10000000
00000000
,
10100000
00000000
00000000
10000000
01000000
00000000
00000000
01000000
00010000
00000000
01000000
00000000
02000000
00000000
00000000
03000000
,
00010000
00000000
00000000
00010000
00001000
00000000
00000000
00001000
00010000
00000000
00000100
00000000
00001000
00000000
00000001
00000000
,
00000011
00000000
00000000
00000001
00000010
00000000
00000000
00000010
00001000
00000000
00000000
00001000
00010000
00000000
00000000
00010000
,
00100000
00000000
00000000
00100000
10000000
00000000
00000000
10000000
00010000
00000000
01000000
00000000
00100000
00000000
10000000
00000000
,
10100000
00000000
00000000
10000000
00100000
00000000
00000000
00100000
00010000
00000000
00000000
00010000
00001000
00000000
00000000
00001000
,
00010000
00001000
00000010
00000001
00000100
00001000
00011000
00000000
,
00000000
00000000
00000000
00000000
;
