
//----- song ID: kyok -----//
#TITLE:極地大衝撃;
#ARTIST:Kolaa;
#TITLETRANSLIT:Kyokuchi daishougeki;
#BANNER:Kyokuchi daishougeki.png;
#BACKGROUND:Kyokuchi daishougeki-bg.png;
#CDTITLE:./CDTitles/DDR WORLD.png;
#MUSIC:Kyokuchi daishougeki.ogg;
#SAMPLESTART:20.87;
#SAMPLELENGTH:15;
#BPMS:0=138;
#BGSTAGE:15;
#NOTES:
     dance-single:
     :
     Beginner:
     3:
     :
0000
0000
0000
0000
,
0000
0000
0000
0000
,
0000
0000
0000
0000
,
0000
0000
0000
0000
,
0000
0000
0000
0000
,
0000
0001
0000
0001
,
0000
0001
0000
0001
,
0000
1000
1000
0000
,
0000
0000
0000
0000
0000
0000
0000
0010
,
0000
0000
0000
0000
,
0000
0000
0000
0000
,
0000
0000
0000
0000
,
0001
0000
0001
0000
,
1000
0000
1000
0000
,
0001
0000
0001
0000
,
0100
0000
0000
0000
,
0010
0000
0010
0000
,
1000
0000
1000
0000
,
0001
0000
0001
0000
,
0100
0000
0000
0000
,
0000
0010
0000
0010
,
0000
0010
0000
0000
,
0000
0100
0000
0100
,
0000
0100
0000
0000
,
0000
0001
0000
0001
,
0000
1000
0000
1000
,
0020
0000
0000
0000
,
0000
0000
0030
0000
,
0000
1000
0000
1000
,
0000
0001
0000
0001
,
0000
1000
0000
1000
,
0000
0010
0000
0010
,
0000
1000
0000
1000
,
0000
0001
0000
0001
,
0000
1000
0000
1000
,
0000
0100
0000
0100
,
0000
0010
0000
0010
,
0000
0001
0000
0002
,
0000
0000
0000
0000
,
0000
0000
0000
0000
,
0000
0000
0003
0000
,
0000
0000
0000
0000
,
1000
0000
0000
0000
,
1000
0000
0000
0000
,
1000
0000
0000
0000
,
1000
0000
0000
0000
,
0001
0000
0001
0000
,
0100
0000
0100
0000
,
0010
0000
0010
0000
,
0000
1000
0000
0001
,
0000
0000
0000
0000
,
0000
0000
0000
1001
,
0000
0000
0001
0000
,
0100
0000
0010
0000
,
1000
0000
0001
0000
,
1000
0000
0010
0000
,
0100
0000
0001
0000
,
1000
0000
0100
0000
,
1000
0000
0001
0000
,
1001
0000
0000
0000
,
0010
0010
0010
0000
,
0000
0000
0000
0000
,
0000
0000
0000
0000
,
0000
0000
0000
0000
0000
0020
0000
0000
,
0000
0000
0000
0000
,
0000
0000
0000
0030
0000
0000
0000
0000
,
0000
0000
0000
0000
;
#NOTES:
     dance-single:
     :
     Easy:
     6:
     :
0000
0000
0000
0000
,
0000
0000
0000
0000
,
0000
0000
0000
0000
,
0000
0000
0000
0000
,
0000
0000
0000
0000
,
0002
0100
0000
0100
,
0000
0010
0000
0010
,
0000
0000
1003
0000
0001
0000
0000
0011
,
0000
0000
0000
1100
0000
0000
0000
2002
,
0000
0000
0000
0000
,
0000
0000
0000
0000
,
0000
0000
0000
0000
0003
3000
0000
0000
,
0001
0100
0001
0010
,
0100
1000
0001
0100
,
0010
0010
1000
0001
,
0100
0010
0200
0300
,
0001
1000
0100
1000
,
0010
0100
0001
0010
,
0001
0001
1000
0001
,
0100
0000
0010
0000
0100
0000
0001
0001
,
0000
1000
0010
1000
,
0000
0000
0001
0000
0100
0010
0000
0010
,
0000
1000
0001
0001
,
0001
0000
0100
0000
0000
0000
0000
0110
,
0000
0000
0000
1001
0000
0000
0000
1010
,
0000
0102
0000
0013
,
2002
0000
0000
0000
,
0000
0000
0000
0000
3003
0000
0000
0010
,
0000
1001
1000
0100
,
0010
0001
0010
0001
,
1000
0010
1000
0001
,
1000
0000
0100
0000
1000
0000
0010
0200
,
0000
0301
0010
0001
,
1000
0010
0100
0001
,
0010
0001
1000
0100
,
1000
0000
0010
0000
0100
0000
0000
0002
,
0000
0000
0003
0020
0000
0000
0030
0200
,
0000
0000
0300
2000
0000
0000
3000
0020
,
0000
0000
0000
0000
,
0000
0000
0000
0000
,
0000
0000
0030
0000
,
0000
0000
0000
0000
,
0000
1000
0000
1000
,
0000
0001
0000
0001
,
0000
0100
0000
0100
,
0000
0010
0000
0010
,
1000
1000
0001
0001
,
0010
0010
0100
0100
,
1000
0000
1000
0000
0010
0010
0010
0010
,
0000
0000
0100
0100
0000
0000
0001
0001
,
0000
1000
0000
0010
0000
0100
0000
0010
,
0000
1000
0000
0001
0000
0000
1001
0000
,
0110
0001
1000
0100
,
0010
0100
1000
0001
,
0100
0001
0010
0100
,
1000
1000
0010
0100
,
0001
0010
0001
0100
,
0010
0100
0001
0010
,
0002
0103
2000
3010
,
2002
0000
0000
3003
,
1001
0110
1001
0000
,
0000
0100
0000
0100
,
0000
0100
0000
0100
,
0000
0000
0100
0100
0000
0020
0000
0000
,
0000
0000
0000
0000
,
0000
0000
0000
0030
0000
0000
0000
0000
,
0000
0000
0000
0000
;
#NOTES:
     dance-single:
     :
     Medium:
     9:
     :
0000
0000
0000
0000
,
0000
0000
0000
0000
,
0000
0000
0000
0000
,
0000
0000
0000
0000
,
0000
0000
0000
0000
,
2000
0001
3020
0100
,
2030
0001
3200
0010
,
2300
0000
3001
0000
1000
0100
1000
0020
,
0000
0030
0000
0220
0000
0330
0000
0102
,
0000
0000
0000
2000
,
0000
0000
0000
0000
,
0000
0000
0000
0000
0003
3000
0000
0000
,
0001
1000
0010
0000
0100
0001
1000
0000
,
0001
0010
0100
1000
0010
0000
1000
0000
,
0001
0010
0100
1000
,
0020
0100
1030
0000
,
0001
0100
0010
0000
1000
0001
0100
0000
,
0001
0010
0100
1000
0010
0000
1000
0000
,
0001
0000
1000
1000
1000
0000
0001
0100
,
0010
0000
1000
0000
0001
0000
0100
0100
,
0000
0000
0001
0000
1000
0000
0100
1000
,
0000
0000
0010
0000
0000
0100
0000
0000
0100
0000
0000
0000
0000
0000
0002
0000
,
0000
0000
1003
0100
1000
0100
0010
0001
,
1000
0000
0010
0000
0100
0000
0000
0100
0000
0000
0100
0000
0000
0000
0220
0000
,
0000
0330
0000
0202
0000
0303
0000
2200
,
0000
3300
0220
0000
0330
0000
1001
0000
,
0200
0000
0000
0000
,
0000
0000
0000
0000
0301
0010
1000
0000
,
0000
0000
0110
0000
0001
1000
0001
0000
,
0100
0010
0100
0000
0001
0010
0100
0000
,
1000
0000
0001
0000
0100
0001
0100
0000
,
0010
1000
0010
0000
1000
0001
0100
0020
,
0000
0030
1001
0000
1000
0001
0010
0000
,
0100
1000
0001
0000
0100
0001
1000
0000
,
0100
0010
0001
0000
0010
0100
1000
0000
,
0010
0100
0001
0000
0010
0000
0000
0021
,
0000
0030
0000
0102
0000
0003
0000
2001
,
0000
3000
0000
1020
0000
0030
0000
2002
,
0000
0000
0000
0000
,
0000
0000
0000
0000
,
0000
0000
3000
0000
,
0000
0000
0000
0000
0000
0000
0000
0003
,
0000
0000
0100
0100
0000
0000
0010
0010
,
0000
0000
1000
1000
0000
0000
0001
0001
,
0000
0010
0000
0100
0000
2000
0000
0000
,
0000
0000
0000
3000
,
0001
1000
0001
1000
0000
0010
0100
0010
,
0000
1000
0100
1000
0000
0001
0010
0001
,
0010
0100
1000
0000
0010
0010
0100
0100
,
0000
0000
0010
0010
0000
0000
1000
0001
,
0000
0011
0000
1000
0000
1010
0000
0001
,
0000
0011
0000
1000
1000
0001
0001
0000
,
1000
0100
1000
0200
0000
1300
0001
2000
,
0000
3010
0100
0020
0000
1030
0001
2000
,
0000
3100
0010
0200
0000
1300
0001
2000
,
0000
3001
0100
0001
0100
0010
1000
0002
,
0000
0103
0010
2000
0000
3001
0010
0200
,
0000
1300
0001
0200
0000
0310
1000
0002
,
0000
1003
1000
0100
0100
0010
0010
0000
,
2002
0000
0000
3003
,
1000
0000
0001
0000
1000
0000
0001
0000
1000
0000
0001
0000
2000
0000
0000
3000
0000
0000
0000
0000
0000
0000
0000
0000
,
0000
0001
0000
0100
,
0000
0010
0000
1000
,
0000
0000
0001
0000
0000
0200
0000
0000
,
0000
0000
0000
0000
,
0000
0000
0000
0300
0000
0000
0000
0000
,
0000
0000
0000
0000
;
#NOTES:
     dance-single:
     :
     Hard:
     12:
     :
0000
0000
0000
0000
,
0000
0000
0000
0000
,
0000
0000
0000
0000
,
0000
0000
0000
0000
,
0000
0000
0000
0000
,
0001
1000
0010
0200
0000
0301
1000
0200
,
0000
1300
0001
0020
0000
0130
0010
0002
,
0000
0000
1003
0000
0010
0000
1000
0001
1000
0000
0100
0000
0010
0000
0022
0000
,
0000
0033
1000
2200
0000
3300
0001
0202
,
0000
0003
0000
0020
,
0000
0000
0000
0000
,
0000
0000
0000
0000
0300
0030
1000
0000
,
1001
0000
0000
0000
0001
0100
0001
0000
0010
0000
0100
0000
1000
0000
0001
0000
,
0000
0000
0001
0010
0001
0000
0010
0000
0100
0000
1000
0100
1000
0000
0001
0000
,
0000
0000
0001
0000
0100
0000
0010
0000
1000
0000
0000
0001
0010
0000
0100
0000
,
1000
0000
0000
0010
1000
0000
0001
0000
0200
0000
0000
0000
0300
0000
0000
0000
,
0010
0000
0000
0000
1000
0100
1000
0000
0100
0000
0010
0000
0100
0000
1000
0000
,
0000
0000
1000
0000
0010
0000
1000
0000
0100
0000
0010
0001
0010
0000
0001
0000
,
0000
0000
0001
0000
0100
0000
0010
0000
1000
0000
0000
0001
0010
0000
0100
0000
,
1000
0000
0010
0000
0001
0000
0010
0000
1000
0000
0000
0100
1000
0000
1010
0000
,
0000
0010
0100
0001
0010
0001
1000
0020
,
0000
0000
0130
0000
0001
0010
0000
0000
0001
0000
1001
0000
0000
0000
1000
0001
,
1000
0001
1000
0000
0001
0000
0010
0000
0100
0000
1000
0000
0010
0000
1000
0000
,
0010
0000
0100
0000
0001
0000
0010
0001
0000
0001
0100
0000
0000
0000
2020
0000
,
0000
3030
0000
0022
0000
0033
0000
2020
,
0000
0000
0000
3030
0000
0000
0001
0000
0100
0000
0010
0000
1000
0000
0000
0100
0000
0000
1000
0000
0000
0010
0000
0000
,
0220
0000
0000
0000
0000
0000
0000
0300
0000
0000
0000
0000
0000
0000
0000
0000
,
0000
0000
0000
0000
0000
0000
0000
0000
0000
0030
0000
0000
1000
0000
0100
0000
0010
0000
0001
0000
0000
0200
0000
0000
,
0000
0000
0300
0000
1001
0000
0001
0000
0010
0000
0100
0000
1000
0000
0001
0100
,
0001
0000
0010
0000
0100
0000
1000
0000
0001
0000
0100
0000
0010
0000
1000
0001
,
1000
0000
0100
0000
0010
0000
0001
0000
0100
0000
0001
0000
1000
0000
0100
0010
,
0100
1000
0010
0100
0001
0010
0001
0200
,
0000
0000
0300
0000
1001
0000
0001
0000
0010
0000
0100
0000
1000
0000
0001
0100
,
0001
0000
0010
0000
0100
0000
0001
0000
1000
0000
0010
0000
0100
0000
1000
0001
,
1000
0000
0010
0000
0100
0000
1000
0000
0001
0000
0010
0000
0100
0000
0001
1000
,
0001
0010
0100
0001
1000
0010
0100
2200
,
0000
3300
0001
0202
0000
0303
0100
0220
,
0000
0000
0330
0000
0001
0000
2002
0000
0000
0000
3003
0000
0001
1000
0001
0000
,
0000
0100
0000
0000
1000
0000
0000
0100
0000
0000
0001
0000
0000
0010
0000
0000
,
1000
0000
0000
0010
0000
0000
0001
0000
0000
0100
0000
0000
1000
0000
0000
0100
,
0000
0000
0001
0000
0000
0001
0000
0000
0002
0000
0000
0000
0000
0000
0000
0000
,
0000
0000
0000
0000
0000
0000
0000
1003
,
1000
0100
0010
0001
0000
0010
0100
1000
,
0000
0001
0100
0010
0000
1000
0010
0100
,
0000
0001
1000
0001
0000
0020
0000
0000
,
0000
0000
0000
0030
,
0001
0010
0001
1000
0010
1000
0010
0100
,
0001
0100
0001
0001
0010
0010
0100
0100
,
1000
1000
0010
0010
0100
0100
0001
0022
,
0000
0033
1000
2020
0000
3030
0001
0102
,
0000
0013
0000
2100
0000
3010
0000
0102
,
0000
0013
0001
1000
0010
0100
1001
0000
,
0001
1000
0010
0100
0001
0010
0100
0010
,
0001
0000
0100
0010
0100
0000
0001
0000
1000
0000
0100
0000
1000
0000
0010
0000
,
0100
0000
0001
0000
1000
0000
0010
0000
0100
0000
0001
0010
0001
0000
0010
0000
,
0100
0000
1000
0100
1000
0000
0010
0000
0001
0000
0010
0000
1000
0000
0200
0000
,
0000
0300
0010
0000
0001
0000
2000
0000
0000
3000
0100
1000
0100
0000
0020
0000
,
0000
0030
0001
0000
0100
0010
0200
0000
0000
0300
0001
0000
0010
0000
0200
0000
,
0000
0300
1000
0100
1000
0000
0001
0100
0001
0000
1000
0100
1000
0000
0001
0000
,
1000
0001
1000
0001
1000
0001
1000
0001
1000
0001
1000
0001
,
1000
0000
0100
0000
1000
0000
0010
0000
0100
0000
0001
0000
0020
0000
0000
0030
0000
0000
0000
0000
0000
0001
0000
0000
,
0001
1000
0100
0010
0000
0001
0010
0100
,
0000
1000
1000
0010
0000
0100
0001
1000
,
0000
1000
0010
0200
0000
0002
0000
0000
,
0000
0000
0000
0000
,
0000
0000
0300
0003
0000
0000
0000
0000
,
0000
0000
0000
0000
;
#NOTES:
     dance-double:
     :
     Easy:
     6:
     :
00000000
00000000
00000000
00000000
,
00000000
00000000
00000000
00000000
,
00000000
00000000
00000000
00000000
,
00000000
00000000
00000000
00000000
,
00000000
00000000
00000000
00000000
,
00020000
00001000
00000000
00001000
,
00000000
00001000
00000000
00001000
,
00000000
00000000
00031000
00000000
00011000
00000000
00000000
00000100
,
00000000
00000000
00000000
00000010
00000000
00000000
00000000
00002002
,
00000000
00000000
00000000
00000000
,
00000000
00000000
00000000
00000000
,
00000000
00000000
00000000
00000000
00000003
00003000
00000000
00000000
,
00000001
00000100
00000010
00001000
,
00000100
00010000
00001000
00001000
,
00010000
00100000
01000000
00010000
,
10000000
01000000
00200000
00300000
,
01000000
10000000
00100000
01000000
,
00010000
00100000
00001000
00010000
,
00010000
00001000
00000100
00000010
,
00001000
00000000
00000001
00000000
00000010
00000000
00000001
00000001
,
00000000
00001000
00000010
00000010
,
00010000
00000000
00001000
00000000
00001000
00010000
00000000
00010000
,
00000000
00001000
01000000
00010000
,
00100000
00000000
00010000
00000000
00000000
01000000
00000000
02000000
,
00000000
00000000
03000000
00020000
00000000
00000000
00030000
00200000
,
00000000
00301000
00000000
00010000
,
00022000
00000000
00000000
00000000
,
00000000
00000000
00000000
00000000
00033000
00000000
00000000
00000010
,
00000000
00000110
00000001
00001000
,
00000100
00001000
00000100
00010000
,
00001000
00100000
00010000
00100000
,
00010000
00000000
01000000
00000000
00001000
00000000
00010000
00020000
,
00000000
00030100
00000010
00000001
,
00001000
00000010
00010000
00001000
,
01000000
00010000
00100000
00100000
,
01000000
00000000
01000000
00000000
00100000
00000000
00000000
00010000
,
00000000
00000000
00000000
00101000
00000000
00000000
00000000
00011000
,
00000000
00000000
00000000
00010010
00000000
00000000
00000000
00021000
,
00000000
00000000
00000000
00000000
,
00000000
00000000
00000000
00000000
,
00000000
00000000
00030000
00000000
,
00000000
00000000
00000000
00000000
,
00000000
00001000
00000000
00001000
,
00000000
00010000
00000000
00010000
,
00000000
00000100
00000000
00000100
,
00000000
00001000
00000000
00001000
,
00000001
00000001
00000010
00000010
,
00000100
00010000
00001000
00010000
,
01000000
00000000
10000000
00000000
00100000
00100000
00100000
00100000
,
00000000
00000000
01000000
01000000
00000000
00000000
00010000
00010000
,
00000000
00100000
00000000
00001000
00000000
00010000
00000000
00001000
,
00000000
00010000
00000000
00000010
00000000
00000000
00011000
00000000
,
00010000
00001000
01000000
00100000
,
10000000
10000000
01000000
00010000
,
00001000
00000100
00000001
00000001
,
00000100
00001000
00010000
00100000
,
01000000
00010000
10000000
00100000
,
01000000
00010000
00100000
00001000
,
00010000
00010010
00001000
00101000
,
00020000
00000000
00000000
00030000
,
00011000
00000110
00001001
00000000
,
00000000
00000100
00000000
00000100
,
00000000
00000100
00000000
00000100
,
00000000
00000000
00000100
00000100
00000000
00000020
00000000
00000000
,
00000000
00000000
00000000
00000000
,
00000000
00000000
00000000
00000030
00000000
00000000
00000000
00000000
,
00000000
00000000
00000000
00000000
;
#NOTES:
     dance-double:
     :
     Medium:
     9:
     :
00000000
00000000
00000000
00000000
,
00000000
00000000
00000000
00000000
,
00000000
00000000
00000000
00000000
,
00000000
00000000
00000000
00000000
,
00000000
00000000
00000000
00000000
,
00002000
00010000
00203000
00010000
,
00302000
00010000
02003000
00010000
,
03002000
00000000
00013000
00000000
00010000
00000100
00001000
00000020
,
00000000
00000030
00000000
00000220
00000000
00000330
00000000
00002002
,
00000000
00000000
00000000
00000000
,
00000000
00000000
00000000
00000000
,
00000000
00000000
00000000
00000000
00000003
00003000
00000000
00000000
,
00000001
00000000
00000010
00000100
00001000
00000000
00000010
00000000
,
00010000
00001000
00100000
00010000
01000000
00000000
00100000
00000000
,
10000000
01000000
00010000
00001000
,
00020000
00030200
00000320
00000030
,
00000001
00000000
00000100
00000010
00001000
00000000
00000100
00000000
,
00010000
00001000
00010000
00001000
00010000
00000000
00001000
00000000
,
01000000
00000000
00010000
00100000
01000000
00000000
10000000
00010000
,
01000000
00000000
00001000
00000000
00010000
00000000
00001000
00001000
,
00000000
00000000
00001000
00000000
00000010
00000000
00000001
00001000
,
00000000
00000000
00000010
00000000
00000000
00000010
00000000
00000000
00000010
00000000
00000000
00000000
00000000
00000000
00002000
00000000
,
00000000
00000000
00000000
00000000
00003100
00000000
00000000
00000000
00010000
00000000
00000000
00001000
00000000
00000000
00100000
00000000
,
00000000
00010000
00000000
00000000
00110000
00000000
00000000
01100000
00000000
00000000
11000000
00000000
00000000
00000000
20020000
00000000
,
00000000
30030000
00000000
02200000
00000000
03300000
00000000
00022000
,
00000000
00033000
00000220
00000000
00000330
00000000
00001001
00000000
,
00000200
00000000
00000000
00000000
,
00000000
00000000
00000000
00000000
00000301
00000010
00001000
00000000
,
00000000
00000000
00000110
00000000
00000001
00000010
00000001
00000000
,
00001000
00000100
00001000
00000000
00000010
00000100
00000010
00000000
,
00010000
00001000
00010000
00000000
00100000
01000000
00100000
00000000
,
10000000
00010000
10000000
00000000
10000000
01000000
00100000
00002000
,
00000000
00000000
00003010
00000000
00000100
00000000
00010000
00001000
,
00010000
00000000
00000100
00001000
00000100
00000000
00010000
00001000
,
00010000
00000000
00000010
00001000
00000010
00000000
00000100
00000001
,
00000100
00000000
00000001
00000010
00000001
00000000
00000100
00000020
,
00000000
00000030
00010000
00002000
00000000
00003000
00100000
02000000
,
00000000
03000000
00010000
00002000
00000000
00003000
00000000
00022000
,
00000000
00000000
00000000
00000000
,
00000000
00000000
00000000
00000000
,
00000000
00000000
00030000
00000000
,
00000000
00000000
00000000
00000000
,
00003000
00000000
00010000
00010000
00000000
00000000
00001000
00001000
,
00000000
00000000
01000000
01000000
00000000
00000000
00010000
00010000
,
00000000
00100000
00000000
00001000
00000000
00020000
00000000
00000000
,
00000000
00000000
00000000
00030000
,
00002000
00023000
00030200
00000320
,
00002030
00023000
02030000
23000000
,
30200000
00000000
00320000
00000000
00031000
00001000
00010000
00010000
,
00000000
00000000
00001000
00001000
00000000
00000000
01000000
00010000
,
00000000
01010000
00000000
00001000
00000000
00011000
00000000
00000010
,
00000000
00001010
00000000
00010000
00010000
00001000
00001000
00000000
,
00001000
00010000
00001000
00010000
00000000
00000100
00001000
00000100
,
00000000
00010000
00001000
00010000
00000000
00000010
00001000
00000010
,
00000000
00000100
00000001
00000100
00000000
00000001
00000010
00000001
,
00000000
00001000
00000010
00010000
00001000
00010000
00001000
01000000
,
00000000
00001000
00010000
00100000
00000000
10000000
01000000
00100000
,
00000000
00001000
00010000
00100000
00000000
10000000
01000000
00100000
,
00000000
00010000
00010000
00100000
00100000
00001000
00001000
00000000
,
00022000
00000000
00000000
00033000
,
00001000
00000000
00010000
00000000
00001000
00000000
00010000
00000000
00001000
00000000
00010000
00000000
00002000
00000000
00000000
00003000
00000000
00000000
00000000
00000000
00000000
00000000
00000000
00000000
,
00000000
00001000
00000000
00010000
,
00000000
00000100
00000000
00001000
,
00000000
00000000
00000010
00000000
00000000
00000200
00000000
00000000
,
00000000
00000000
00000000
00000000
,
00000000
00000000
00000000
00000300
00000000
00000000
00000000
00000000
,
00000000
00000000
00000000
00000000
;
#NOTES:
     dance-double:
     :
     Hard:
     12:
     :
00000000
00000000
00000000
00000000
,
00000000
00000000
00000000
00000000
,
00000000
00000000
00000000
00000000
,
00000000
00000000
00000000
00000000
,
00000000
00000000
00000000
00000000
,
00001000
00010000
00000010
00002000
00000000
00003100
00000010
00002000
,
00000000
00013000
00001000
02000000
00000000
03100000
10000000
00020000
,
00000000
01030000
00010000
00100000
00110000
00000000
00200000
00002000
,
00000000
00300000
00023000
00000200
00000000
00030000
00000320
00002000
,
00000000
00000000
00000000
00000000
,
00000000
00000000
00000000
00000000
,
00000000
00000000
00000000
00000000
00000030
00003000
00010000
00000000
,
00011000
00000000
00000000
00000000
00001000
00000000
00100000
00010000
00100000
00000000
01000000
00000000
10000000
00000000
00100000
00000000
,
00000000
10000000
01000000
00010000
00001000
00000010
00000001
00000100
,
00000000
00000000
00000010
00000000
00010000
00000000
00001000
00000000
01000000
00000000
00000000
00010000
00100000
00000000
00001000
00000000
,
00010000
00000000
00000000
00000100
00001000
00000000
00000010
00000000
00020000
00000000
00000000
00000000
00032000
00000000
00000000
00000000
,
00003100
00000000
00000000
00000000
00000001
00000010
00000001
00000000
00000010
00000000
00000100
00000000
00001000
00000000
00000010
00000000
,
00000000
00000000
00010000
00001000
00010000
00000000
00001000
00000000
00010000
00001000
00010000
00000000
00000100
00000000
00000010
00000000
,
00000000
00001000
00000010
00000001
00000100
00001000
00010000
01000000
,
10000000
00100000
00010000
00001000
00010000
00000100
00001000
00001010
,
00000000
00010000
00001000
00000100
00000001
00000010
00000100
00020000
,
00000000
00000000
00230000
00000000
00000000
01000000
00000000
00000000
10300000
00000000
10010000
00000000
00000000
00000000
00010000
10000000
,
00010000
10000000
01000000
00100000
00010000
00001000
00000100
00000020
,
00000000
00000000
00001030
00000000
00010000
00000000
00002000
00010000
00000000
00000000
01003000
00000000
00000000
00000000
00220000
00000000
,
00000000
00330000
00001000
00022000
00000000
00033000
01000000
02020000
,
00000000
00000000
00000000
03030000
00000000
00000000
00010000
00000000
00100000
00000000
01000000
00000000
10000000
00000000
00000000
00100000
00000000
00000000
01000000
00000000
00000000
00100000
00000000
00000000
,
20000000
00000000
00000000
00000000
00000000
00000000
00000000
00020000
00000000
00000000
00000000
00000000
00000000
00000000
00000000
00000000
,
00000000
00000000
00000000
00000000
00000000
00000000
30000000
00000000
00000000
00030000
00000000
00000000
00100000
00000000
01000000
00000000
10000000
00000000
00100000
00000000
00000000
00020000
00000000
00000000
,
00000000
00000000
00030100
00000010
00000100
00001000
00000010
00010000
,
00001000
00000100
00000010
00001000
00010000
00000100
00000010
00010000
,
00001000
00000010
00000100
00001000
00010000
00000010
00000100
00010000
,
00001000
00000100
00000010
00000010
00001000
00000001
00000010
00002000
,
00000000
00000000
01003000
00100000
01000000
00010000
00100000
00001000
,
00010000
01000000
00100000
00010000
00001000
01000000
00100000
00001000
,
00010000
00100000
01000000
00010000
00001000
00100000
01000000
00001000
,
00100000
01000000
10000000
10000000
00010000
10000000
00100000
00020000
,
00000000
00000000
00030100
00000020
00000000
00000030
00001000
00020000
,
00000000
00030000
00100000
02000000
00000000
03000000
00001000
00010000
,
00000000
00001000
00000000
00000000
00000100
00000000
00000000
00000001
00000000
00000000
00000010
00000000
00000000
00001000
00000000
00000000
,
00010000
00000000
00000000
00001000
00000000
00000000
00000100
00000000
00000000
00000001
00000000
00000000
00000010
00000000
00000000
00001000
,
00000000
00000000
01000000
00000000
00000000
00100000
00000000
00000000
20000000
00000000
00000000
00000000
00000000
00000000
00000000
00000000
,
00000000
00000000
00000000
00000000
00000000
00000000
00000000
30010000
,
00010000
01000000
00100000
00010000
00000000
00001000
00010000
00000100
,
00000000
00001000
00000100
00000010
00000000
00001000
00010000
00000100
,
00000000
00010000
00001000
00000100
00000000
00000020
00000000
00000000
,
00000000
00000000
00000000
00000030
,
00010000
00000100
00010000
00001000
00000010
00001000
00000010
00000001
,
00000100
00000001
00000100
00001000
00010000
00001000
00010000
01000000
,
10000000
01000000
00100000
00010000
01000000
02000000
00100000
00100000
,
00000000
00000000
00001000
03002000
00000000
00000000
00010000
00010000
,
00000000
00000010
00000000
00000001
00000000
00000010
00000000
00023000
,
00000000
00100000
00000000
00031000
01000000
01000000
01100000
00000000
,
10000000
00010000
01000000
00100000
00010000
00001000
00010000
00000100
,
00000010
00001000
00000001
00000100
00001000
00000010
00010000
00001000
,
00000100
00001000
00010000
01000000
00100000
00001000
00010000
00000010
,
00001000
00000000
00000001
00000010
00000001
00000000
00000010
00000000
00001000
00000000
00010000
00000000
01000000
00000000
20000000
00000000
,
00000000
30000000
00100000
00000000
01000000
00000000
00020000
00000000
00000000
00030000
00100000
00010000
00100000
00000000
00002000
00000000
,
00000000
00003000
00010000
00000000
00001000
00010000
00002000
00000000
00000000
00003000
00010000
00000000
00000100
00000000
00002000
00000000
,
00000000
00003000
00000010
00000100
00000010
00000000
00001000
00000100
00001000
00000000
00000001
00000010
00000001
00000000
00001000
00000000
,
00002002
00000000
00000000
00000000
00000000
00003003
,
00001000
00000000
00000010
00000000
00010000
00000000
00001000
00000000
01000000
00000000
00010000
00000000
00200000
00000000
00000000
00300000
00000000
00000000
00000000
00000000
00000000
00001000
00000000
00000000
,
00001000
00010000
01000000
00100000
00000000
00001000
00010000
00100000
,
00000000
00010000
00001000
00100000
00000000
00001000
00010000
01000000
,
00000000
10000000
00100000
02000000
00000000
00020000
00000000
00000000
,
00000000
00000000
00000000
00000000
,
00000000
00000000
03000000
00030000
00000000
00000000
00000000
00000000
,
00000000
00000000
00000000
00000000
;
