
//----- song ID: konr -----//
#TITLE:混乱少女♥そふらんちゃん!!;
#ARTIST:かめりあ feat. ななひら;
#TITLETRANSLIT:Konran shoujo Soflan-chan!!;
#ARTISTTRANSLIT:Camellia feat. Nanahira;
#BANNER:Konran shoujo Soflan-chan!!.png;
#BACKGROUND:Konran shoujo Soflan-chan!!-bg.png;
#CDTITLE:./CDTitles/SDVX III GRAVITY WARS.png;
#MUSIC:Konran shoujo Soflan-chan!!.ogg;
#SAMPLESTART:85.539;
#SAMPLELENGTH:15;
#DISPLAYBPM:32:259;
#BPMS:0=230.105,4=229.885,9=215.054,16=229.885,21=195.059,28.5=153.003,35.25=152.838,37=153.061,41.5=152.905,44=148.981,48.75=153.061,52.75=152.888,55=153.061,58=153.061,60.25=152.931,63.25=153.061,65=153.061,67.25=152.931,70.25=153.061,72.5=152.931,75.5=153.061,79=152.979,83.75=152.95,87.25=153.061,89.25=115.016,92.25=115.016,95.25=114.998,99.25=114.943,102.25=115.053,106.25=114.943,109.25=114.998,113.25=115.005,116.75=115.016,119.75=167.015,127.75=162.988,135.75=159.011,138.75=115.005,142.25=114.972,146=115.005,149.5=114.983,152.25=75,153=88.517,159=58.997,161=44.978,162=32,163=210.084,168=215.054,173=219.941,178=225.056,183=225,186=198.939,191=234.009,196=242.017,208=256,216=258.993,276=259.067,283.5=258.844,288.5=259.259,292=258.844,297=240,298.5=175.953,299.5=159.091,301.25=159.011,308=159.091,309.75=158.917,314.25=159.067,316.75=148.981,321.5=156.047,323.5=156.047,325.5=152.905,328=144.231,329=100.998;
#NOTES:
     dance-single:
     :
     Beginner:
     5:
     :
0000
0000
0000
0000
,
0000
0000
0000
0000
,
0000
0000
0000
0000
,
0000
0000
0000
0000
,
0000
0000
0000
0000
,
0000
0000
0000
0000
,
0000
0000
0000
0000
,
0000
0000
0001
0000
0000
0000
0000
0000
0000
0000
0000
0001
0000
0000
0000
0000
,
0000
0000
0000
0000
0001
0000
0000
0000
0000
0000
0000
0000
0000
0002
0000
0000
,
0003
0000
0000
0000
1000
0000
0000
0000
0000
0000
0000
0000
0000
1000
0000
0000
,
0000
0000
0000
1000
0000
0000
0000
0000
,
0000
0000
0000
1001
,
0000
0000
0000
0000
0000
0000
0000
0000
0000
0000
0000
0010
0000
0000
0000
0010
,
0000
0010
0000
0000
0000
0000
0000
0000
,
0000
0000
0000
0000
,
0000
0000
0000
0000
0000
0000
0000
0000
0000
0000
0000
0000
0000
0200
0000
0000
,
0300
0000
0010
0000
,
0000
0000
0000
0000
,
0000
0000
0000
0000
,
0000
0010
0000
0000
0000
0000
0000
0000
,
0100
0000
0000
0000
0000
0000
0000
0000
0000
0000
0000
0000
0000
0000
0000
2002
,
0000
0000
0000
0000
0000
0000
0000
0000
0000
0000
0000
0000
0000
3003
0000
0000
,
0000
0000
0000
0000
,
0000
0001
0000
0000
0000
0000
0000
0000
0000
0001
0000
0000
0000
0000
0000
0000
,
0000
1000
0000
0000
0000
0000
0000
0000
0000
0000
0000
0000
0000
0010
0000
0000
,
0000
0010
0000
0000
0000
0010
0000
0000
0000
0000
0000
0100
0000
0000
0000
0100
,
0000
0000
0000
0100
0000
0000
0000
0000
0000
0001
0000
0000
0000
0000
0000
0000
,
0000
0001
0000
0000
0000
0000
0000
0000
0000
1000
0000
0000
0000
0000
0000
0000
,
0000
0000
0000
0000
0000
1001
0000
0000
0000
0000
0000
0000
0110
0000
0000
0000
,
0000
0000
0000
1001
0000
0000
0000
0000
0000
0000
0000
0000
0000
0000
0000
0001
,
0000
0000
0000
0000
0000
0000
0000
0001
0000
0000
0000
0000
0000
0000
0000
1000
,
0000
0000
0000
0000
0000
0000
0000
1000
0000
0000
0000
0000
0000
0000
0000
0020
,
0000
0000
0000
0030
0000
0000
0000
0000
0000
0000
0000
0000
0000
0000
0000
0200
,
0000
0000
0000
0300
0000
0000
0000
0000
0000
0000
0000
0000
0000
0000
0000
0001
,
0000
0000
0000
0000
0000
0001
0000
0000
0000
0000
0000
0001
0000
0000
0000
0000
,
0000
0000
0000
0000
0000
0000
0000
0000
0000
0000
0000
1000
0000
0000
0000
0000
,
0000
0000
0010
0000
,
0000
0000
0000
0000
0000
0000
0000
0100
0000
0000
0000
0000
0000
0000
0000
0000
,
0000
0001
0000
0000
,
1000
0000
0000
0010
,
0000
0200
0000
0300
,
0000
0000
0000
0000
,
0000
0000
0001
0000
,
0000
0000
0000
1000
,
0000
0000
0001
0000
,
0000
0000
0200
0000
,
0000
0000
0000
0000
0000
0300
0000
0000
0000
0000
0000
0000
,
0000
0000
0000
0020
,
0000
0000
0000
0030
,
1000
0000
0000
0100
,
0000
0000
0010
0000
,
0000
0001
0000
0000
,
1001
0000
0000
0000
,
0000
0000
0000
0000
,
0001
0000
0000
0000
,
1000
0000
0000
0000
,
0010
0000
0000
0000
,
0100
0000
0000
0000
,
0000
0000
0000
0000
,
0001
0000
0000
0000
,
0010
0000
0000
0000
,
0100
0000
0000
0000
,
2000
0000
3000
0000
,
0002
0000
0003
0000
,
0100
0000
0000
0000
,
0010
0000
0000
0000
,
0000
0000
0000
0000
,
1000
0000
0000
0000
,
0001
0000
0000
0000
,
0200
0000
0000
0000
,
0000
0000
0300
0000
0000
0000
0000
0010
,
0000
0000
0000
0000
,
0000
0010
0000
0000
0000
0000
0000
0000
,
1000
0000
0000
0000
,
0000
0001
0000
0000
,
0000
0000
0000
0000
0000
1001
0000
0000
0000
0000
0000
0000
0000
0000
0000
0000
,
0000
0000
0000
0000
,
0020
0000
0000
0000
0030
0000
0000
0100
0000
0000
0000
0000
0000
0000
0000
0000
,
0100
0000
0000
0000
0000
0000
0000
0000
0000
0100
0000
0000
0000
0000
0000
0000
,
0000
0000
0000
0000
0000
0000
0000
0000
0000
0000
0000
0000
0000
0000
0000
1001
,
0000
0000
0000
0000
0000
0000
0000
0010
,
0000
0000
0010
0000
0000
0010
0000
0000
0000
0000
0000
0000
0000
0000
0000
0000
,
0000
0000
0110
0000
,
0000
1001
0000
0000
0000
0000
0000
0000
,
0000
0000
0000
0000
;
#NOTES:
     dance-single:
     :
     Easy:
     10:
     :
0000
0000
0000
0000
,
0000
0000
0000
0000
,
0000
0000
0000
0000
,
0000
0000
0000
0000
,
0000
1001
0000
0000
0100
0000
0000
0010
,
0000
2002
0000
0000
,
0000
0000
0000
0000
0000
0000
0000
3003
,
0000
0000
0110
0000
0000
0000
0000
0000
0000
0000
0000
1001
0000
0000
0000
0000
,
0000
0000
0000
0000
0110
0000
0000
0000
0000
0000
0000
0000
0000
0001
0000
0100
,
0000
1000
0000
0000
0110
0000
0000
0000
0000
0010
0000
0000
0000
1001
0000
0000
,
0000
0100
0000
1001
0000
0000
0000
0001
,
0010
0100
0000
0000
0000
0000
2002
0000
,
0000
0000
0000
0000
0000
0000
0000
3003
0000
0000
0000
0010
0000
0000
0000
0100
,
0000
1001
0000
0000
1000
1000
0000
0000
,
0000
0000
0000
0010
0000
0100
0000
0100
0000
0000
0000
0000
0000
0001
0000
0001
,
0000
0000
0000
0000
0000
0000
0000
0020
0000
0000
0000
0030
0000
0001
0000
0100
,
0000
1000
0000
0000
0000
0000
0000
0000
0000
0100
0000
0100
0000
0000
0000
0000
,
0000
0000
0001
1000
1000
0000
0000
0010
,
0010
0000
0000
0000
0000
1000
0000
0000
0000
0000
0001
0000
0000
0100
0000
0000
,
0000
0000
0001
0000
0000
0002
0000
0000
0000
0000
0000
0000
0003
0000
0000
0000
,
1000
0000
0000
2000
0000
0000
0000
0000
0000
0000
3000
0000
0000
0000
0000
0000
,
0010
0010
0010
0010
0010
0010
0010
0000
,
0000
2002
0000
0000
0000
0000
0000
0000
0000
0000
0000
0000
0000
3003
0000
0000
,
0000
1001
0000
0000
0000
0001
0000
0000
0000
1000
0000
0000
0000
0010
0000
0000
,
0000
0100
0000
0000
0000
0100
0000
0000
0000
0001
0000
0000
0000
1000
0000
0000
,
0000
0100
0000
0000
0000
0010
0000
0000
0000
0001
0000
1000
0000
0000
0000
0100
,
0000
0000
0000
0010
0000
0000
0000
0001
0000
1000
0000
0000
0000
0010
0000
0000
,
0000
0100
0000
0000
0000
0001
0000
0000
0000
0010
0000
0000
0000
0100
0000
0000
,
0000
1000
0000
0000
0000
1001
0000
0000
0000
0000
0000
0000
0110
0000
0000
0000
,
0000
0000
0000
0001
0000
0000
0001
0000
0000
0001
0000
0000
0001
0000
0000
1000
,
0000
0000
0000
1100
0000
0000
0000
0001
0000
0000
0000
0101
0000
0000
0000
1000
,
0000
0000
0000
1100
0000
0000
0000
0101
0000
0000
0000
0010
0000
0000
0000
1001
,
0000
0000
0000
0000
0000
0000
0000
0000
0000
0000
0000
0100
0000
0000
0000
1001
,
0000
0000
0000
0000
0000
0000
0000
0000
0000
0000
0000
0010
0000
0000
0000
1002
,
0000
0000
0000
0003
0000
0200
0000
0000
0000
0300
0000
0020
0000
0000
0000
1030
,
0000
0000
0000
1000
0000
0010
0000
0100
0000
0000
0000
0001
0000
0001
0000
0000
,
0000
0010
0000
0100
0000
1000
0000
0000
1000
0000
0000
0000
0001
0000
0000
0000
,
0100
0000
0010
0000
1000
0000
0000
0020
0000
0000
0000
0000
0000
0000
0000
0000
,
0000
0030
0000
0000
0000
0000
1000
0000
0001
0000
0100
0000
0010
0000
0010
0000
,
1000
0000
0000
0100
0000
0000
0100
0000
0000
0010
0000
0000
0001
0000
0000
0001
0000
0000
0100
0000
0010
0000
1000
0000
,
0001
0010
0100
2000
3020
0230
0302
0000
0000
0003
0000
0000
,
0000
0000
0000
0000
,
0000
0000
0000
0000
,
0000
1000
0100
0010
,
0001
1000
0000
0020
,
0030
0100
0000
0000
0001
0000
0010
0000
,
0100
0000
0000
1000
0000
0010
0000
0000
0000
0000
0000
0000
,
0000
0000
0000
2000
,
3002
0203
0320
2030
,
3001
0001
0001
0100
,
0100
0100
0010
0010
,
0010
1000
1000
1000
,
1001
0000
0000
0000
0000
0000
0000
0110
,
0000
0000
2002
3003
,
1000
0010
1000
0001
,
0100
0000
0010
0000
,
0100
0001
1000
0100
,
0010
0000
0001
0000
1000
0000
0000
1001
,
0000
0001
0100
0010
,
0100
0000
0000
0001
0000
0000
1000
0000
,
0001
0010
0001
0010
,
0100
0000
0000
1100
0000
0000
0000
0000
,
2002
3003
0000
0000
,
0220
0330
2002
3003
,
0000
0001
0100
0001
,
0010
0000
0001
0000
0100
0000
0000
0010
,
0000
1000
0100
1000
,
0001
0000
0000
0100
0000
0000
0001
0000
,
0010
0100
1000
0010
,
0100
0000
0000
0100
0000
0001
0000
0000
,
0001
0000
1000
0000
0000
1000
0000
0001
,
0000
0100
0000
0001
0000
0100
0000
0001
,
0000
1000
0000
0100
0000
1000
0000
0100
,
1000
0001
1000
0001
,
0100
0000
0010
0000
0000
1000
0000
0002
,
0000
0000
0003
0000
0000
0011
0000
0000
0000
0000
0000
0000
0000
0000
1100
0000
,
0000
0000
0000
0000
0000
0000
0000
1001
0000
0000
0000
0000
0000
0000
0000
0000
,
0001
0000
0100
0000
1000
0000
0000
0110
0000
0000
0000
0000
0100
0000
0000
0000
,
1001
0000
0000
0000
0000
0010
0000
0000
0000
1001
0000
0000
0000
0000
0000
0000
,
0000
0001
0000
0010
0000
0100
0000
0000
0000
0000
0000
0000
0000
0000
0000
2002
,
0000
0000
0000
0000
0000
3003
0000
0010
,
0000
0000
0100
0000
0000
1001
0000
0000
0000
0001
0000
0000
0000
1000
0000
0000
,
0000
0010
0000
0100
0000
0000
0000
0000
0110
0000
0000
0000
0000
0000
0000
0000
,
0000
2002
0000
0000
3003
0000
0000
0000
,
0000
0000
0000
0000
;
#NOTES:
     dance-single:
     :
     Medium:
     13:
     :
0000
0000
0000
0000
,
0000
0000
0000
0000
,
0000
0000
0000
0000
,
0000
0000
0000
0000
,
0001
0010
0000
0100
1000
0000
0000
0010
,
0000
2002
0000
0000
,
0000
0000
0000
0000
0000
0000
0000
3003
,
0000
0000
0011
0000
0000
0000
0000
0000
0000
0000
0000
1100
0000
0000
0000
0000
,
0000
0000
0000
0000
1001
0000
0000
0000
0000
0000
0000
0000
0000
0010
0000
0100
,
0000
1001
0000
0000
0001
0000
1000
0000
0100
0010
0000
0100
0000
1000
0000
0001
,
0000
0100
0010
0000
0100
0000
0001
0000
1000
0000
0100
1000
0000
0000
0100
0000
,
0010
0000
0000
0001
0000
0000
1000
0000
0010
0000
0100
0000
0010
0000
1000
0000
0000
0000
2002
0000
0000
0000
0000
0000
,
0000
0000
0000
0000
0000
0000
0000
3003
0000
0000
0000
0011
0000
0000
0000
1100
,
0000
0000
1001
0000
0000
1000
0000
0010
0000
0000
0100
0000
0000
0010
0000
0000
,
1000
0000
0000
0001
0000
0100
0000
0001
0000
0000
0010
0000
0000
0100
0000
1000
,
0000
0000
0010
0000
0000
1000
0000
0002
0000
0000
0000
0003
0000
0010
0000
0100
,
0000
1001
0000
0000
0000
0000
0000
0000
1000
0000
0000
0000
0000
0100
0000
0010
,
0000
0000
0001
0000
0000
1000
0000
0010
0000
1000
0000
0010
0000
0000
0100
0000
,
0001
0000
0000
0000
0001
0000
0000
0010
0000
0100
0000
1000
0000
1001
0000
0000
,
0000
0001
1000
0000
0001
1000
0000
0000
0000
0000
0000
0000
0000
0000
0000
0010
,
0100
0000
0010
0100
0000
0000
0000
0000
0000
0000
0000
0000
0000
0000
0000
0001
,
1000
0010
0100
0010
1000
0100
0010
0000
,
0000
2002
0000
0000
0000
0000
0000
0000
0000
0000
0000
0000
0000
3003
0000
0000
,
0000
1000
0000
0001
0000
0100
0010
0000
1000
0000
0100
0000
0010
0000
0001
1000
,
0000
0010
0000
0010
0000
0010
0000
0010
0000
1000
0000
0001
0000
2000
0000
3200
,
0000
0320
0000
0032
0000
0203
0000
0320
0000
0032
0000
2003
0000
3200
0000
0320
,
0000
0032
0000
2003
0000
3200
0000
0320
0000
1030
0000
0001
0000
1000
0010
0000
,
0100
0000
0010
0000
0100
0000
0010
1000
0000
0001
0000
1000
0000
1000
0000
0100
,
0000
0010
0000
0001
0000
0101
0000
0000
1001
0000
0000
0000
1100
0000
0000
1001
,
0000
0000
0000
0001
0000
0000
0010
0000
0000
0100
0000
0000
1000
0000
0000
0010
,
0000
0000
0000
0000
0000
0010
0000
0000
0000
1000
0000
0000
0000
0000
0000
0000
0000
1000
0000
0000
0000
0001
0000
0000
0000
0000
0000
0000
0000
0001
0000
0000
0000
0100
0000
0000
0000
0000
0000
0000
0000
0100
0000
0000
0000
0010
0000
0000
,
0000
0000
0000
0000
0000
0010
0000
0000
0000
1000
0000
0000
0000
0000
0000
0000
0000
0000
0000
0000
0000
1001
0000
0000
0000
0000
0000
0000
0000
0000
0000
0000
0000
0001
0000
0000
0000
0010
0000
0000
0000
0001
0000
0000
0000
0010
0000
0000
,
0000
0000
0000
0000
0000
0000
0000
0000
0000
0100
0000
0000
0000
1000
0000
0000
0000
0100
0000
0000
0000
1000
0000
0000
0000
0000
0000
0000
0000
0000
0000
0000
0000
0010
0000
0000
0000
0100
0000
0000
0000
0001
0000
0000
0000
0010
0000
0000
,
0000
0000
0000
0000
0000
0000
0000
0000
0000
0100
0000
0000
0000
1000
0000
0000
0000
0010
0000
0000
0000
0100
0000
0000
0000
0000
0000
0000
0000
0000
0000
0000
0000
0001
0000
0000
0000
1000
0000
0000
0000
0001
0000
0000
0000
1000
0000
0000
,
0000
0000
0000
0000
0000
0110
0000
0000
0000
0000
0000
1001
0000
0000
0000
0001
,
0100
0000
0100
0010
0000
1000
0000
0001
0000
0010
0000
0100
0000
1000
0001
0000
,
0001
0100
0000
0010
0000
1010
0000
0000
0001
0000
1000
0000
0010
0100
0000
0100
,
0001
0000
0010
0000
0100
0000
1000
0020
0000
0000
0000
0000
0000
0000
0000
0000
,
0000
0000
0000
0030
0000
0000
0000
0000
0000
0000
0000
0000
1000
0000
0000
0000
1000
0000
0001
0000
0000
0000
0001
0000
0100
0000
0000
0000
0100
0000
0010
0000
0000
0000
0000
0000
1000
0000
0000
0000
1000
0000
0001
0000
0000
0000
0001
0000
,
0010
0000
0000
0100
0000
0100
1000
0000
1000
0010
0000
0000
0100
0000
0100
0001
0000
0001
1000
0000
0001
0100
0001
0100
,
0010
1000
0001
0020
0230
2300
0002
0000
0000
3003
0000
0000
,
0000
0000
0000
0000
0000
0001
0000
0000
,
0100
0000
0010
0000
1000
0000
0100
1000
,
0000
0100
1000
0000
0001
0000
0100
0000
,
0010
1000
0000
0010
1000
0000
0002
0000
,
0003
0000
0000
1001
0000
0000
0000
0000
0000
0000
0000
0000
0001
0000
0100
0000
0001
0000
0100
0000
0000
0000
0000
0000
,
0010
1000
0010
1000
0000
2002
0000
0000
0000
0000
0000
0000
,
0000
0000
0000
0000
0000
0000
3003
0000
0000
0001
0000
1000
,
0100
0000
1000
0100
0000
0010
0001
0000
0010
0001
0000
0100
,
0010
0010
0010
1000
,
1000
1000
0001
0001
,
0001
0100
0010
1000
,
2002
0000
3003
0000
0000
0000
0000
0110
,
0000
0001
1000
0000
2002
0000
3003
0000
,
0001
0100
0010
1000
,
0100
0000
1000
0010
0000
0010
0100
0000
,
0001
0000
1000
0000
0100
1000
0000
0001
,
0000
0100
0001
0000
0010
0100
0000
1000
,
0000
1001
0001
0100
,
0010
0000
0000
1010
0000
1000
0000
0001
,
0100
0001
0010
0100
,
1000
0100
1000
0100
0000
0000
0000
0000
,
0110
0000
0000
0000
,
2002
3003
0220
0330
,
0001
0000
1000
0000
0010
0100
0000
0010
,
0000
1000
0100
0000
0100
0010
0000
0001
,
0000
0000
1000
0100
1000
0100
0010
0001
,
1000
0000
0000
1001
0000
0000
0001
0000
,
0100
0010
1000
0001
,
1000
0100
0010
0001
0000
1000
0010
0100
,
0001
0000
1000
0100
0010
0001
0000
1000
,
0000
0100
0000
1000
0000
0010
0000
0100
,
0000
0001
0000
0010
0000
0001
0000
0100
,
0010
1000
0100
1000
,
0010
0000
0100
0000
0000
0101
0000
2020
,
0000
0000
3030
0000
0000
1001
0000
0000
0000
0000
0000
0000
0000
0000
0110
0000
,
0000
0000
0000
0000
0000
0000
0000
1001
0000
0000
0000
0000
0000
0000
0000
0000
,
0010
0000
0100
0000
1001
0000
0000
0001
0000
0100
0010
0000
1000
0000
0010
0000
,
0100
0000
0001
0010
0000
0100
0000
1000
0000
0001
0000
0100
0000
0010
1000
0000
,
0000
0000
0000
0100
0000
0000
0000
0000
0000
0010
0000
0000
0000
0000
0000
0001
0000
0000
0000
0000
0000
1000
0000
0000
0000
0010
0000
0000
0000
0100
0000
0000
0000
0010
0000
0000
0000
1000
0000
0000
0000
0000
0000
0000
0000
2002
0000
0000
,
0000
0000
0000
0000
0000
3003
0000
0011
,
0000
0000
1100
0000
0000
0001
0000
0010
0000
0100
0000
1000
0000
0010
0000
0100
,
0000
0001
0000
1001
0000
0000
0000
0000
0200
0000
0000
0000
0000
0000
0300
0000
,
0000
2002
0000
0000
3003
0000
0000
0000
,
0000
0000
0000
0000
;
#NOTES:
     dance-single:
     :
     Hard:
     17:
     :
0000
0000
0000
0000
,
0000
0000
0000
0000
,
0000
0000
0000
0000
,
0000
0000
0000
0000
,
0001
1000
0000
0001
0010
0100
0000
1100
,
0000
0220
0000
0000
,
0000
0000
0000
0000
0000
0000
0000
0330
,
0000
0000
1001
0000
0001
0000
0100
0010
0000
1000
0000
1001
0000
0001
0000
0010
,
0100
0000
1000
0000
1001
0000
0001
0000
0100
0010
0000
1000
0000
1001
0000
0110
,
0000
1001
0000
0000
0001
0000
1000
0100
1000
0001
0100
0001
1000
0100
0010
0001
,
1000
0000
0010
0000
0100
0000
0001
0000
1000
0000
0100
0010
0000
0000
0001
0000
,
0100
0000
0000
0010
0000
0000
0001
0000
0010
0000
1000
0000
0100
0000
0010
0000
0000
0000
2002
0000
0000
0000
0000
0000
,
0000
0000
0000
0000
0000
0000
0000
3003
0000
0000
0000
0001
0010
0000
0000
0100
,
1000
0000
0001
0000
0100
0010
0000
1000
0001
0000
0010
0000
0001
0100
0010
0000
,
1000
0100
1000
0100
0010
0000
0100
1000
0010
0100
0001
0000
1000
0100
0000
1000
,
0000
0001
0100
0010
0000
1000
0001
0010
0001
0100
0010
1000
0000
1100
0000
0110
,
0000
0011
0000
0000
0000
0000
0000
0000
0001
1000
0000
0010
0000
1000
0100
0010
,
0000
0001
0100
0001
0100
0010
0000
1000
0001
0010
0100
1000
0000
0001
0100
0000
,
0010
0000
1000
0100
0010
0001
0000
1000
0010
0100
0001
0010
0100
1000
0000
0000
,
0000
0001
0100
0000
0010
2000
0000
0000
0000
0000
3000
0000
0001
1000
0001
1000
,
0100
0000
0010
0002
0000
0000
0000
0000
0000
0000
0003
0000
0000
0000
0000
2000
,
0010
0000
0000
0000
0000
0000
0010
0000
0000
0000
0000
0000
0001
0000
0000
0000
0000
0000
0001
0000
0000
0000
0000
0000
0100
0000
0000
0000
0000
0000
0010
0000
0000
0000
0000
0000
3001
0000
0000
0000
0000
0000
0000
1000
0000
0000
0000
0000
,
0000
0000
0001
0000
0000
0000
0000
1000
0000
0000
0000
0000
0001
0000
1000
0000
0001
0000
1000
0000
0001
0000
1000
0000
0001
0000
0100
0000
0000
0000
0000
0000
,
0000
1001
0000
1000
0000
0010
0100
0000
0001
0000
1000
0000
0100
0000
1000
0001
,
0000
0100
0000
0110
0000
0100
0000
0110
0000
1000
0001
0010
0100
2000
0000
0100
,
0000
0010
0000
3001
0000
0101
0000
1010
0000
1001
0000
2000
0000
0100
0000
0010
,
0000
3001
0000
0101
0000
1010
0000
1001
0000
0001
0000
0100
0000
0010
1000
0000
,
0100
0000
1000
0000
0010
0000
0100
0001
0000
1000
0000
0100
0000
0001
0000
0100
,
0000
1000
0010
0001
0010
0100
0001
0000
0011
0000
0000
0000
1000
0000
0000
1100
,
0000
0000
0000
0101
0000
0000
1100
0000
0000
0101
0000
0000
1100
0000
0000
0001
,
0000
0000
0000
0000
0000
0001
0000
0000
0000
1000
0000
0000
0000
0000
0000
0000
0000
1000
0000
0000
0000
0010
0000
0000
0000
0000
0000
0000
0000
0010
0000
0000
0000
1000
0000
0000
0000
0000
0000
0000
0000
1000
0000
0000
0000
0100
0000
0000
,
0000
0000
0000
0000
0000
0100
0000
0000
0000
0010
0000
0000
0000
0001
0000
0000
0000
1000
0000
0000
0000
0010
0000
0000
0000
0100
0000
0000
0000
0001
0000
0000
0000
0010
0000
0000
0000
0100
0000
0000
0000
1000
0000
0000
0000
0001
0000
0000
,
0000
0000
0000
0000
0000
0000
0000
0000
0000
0100
0000
0000
0000
0010
0000
0000
0000
1000
0000
0000
0000
0001
0000
0000
0000
0000
0000
0000
0000
0000
0000
0000
0000
0100
0000
0000
0000
0001
0000
0000
0000
0010
0000
0000
0000
1000
0000
0000
,
0000
0000
0000
0000
0000
0000
0000
0000
0000
0010
0000
0000
0000
0001
0000
0000
0000
0100
0000
0000
0000
1000
0000
0000
0000
0000
0000
0000
0000
0000
0000
0000
0000
0001
0000
0000
0000
0010
0000
0000
0000
1000
0000
0000
0000
1001
0000
0000
,
0000
0000
0010
0000
0000
1100
0000
0000
0010
0000
0000
1001
0000
1000
0000
0010
,
0010
0000
0100
0001
1000
0000
0100
0100
0000
1000
0001
0100
0000
0010
0010
0000
,
0100
0000
0001
0000
1000
0000
0100
0000
0010
0000
0001
0010
0001
0000
0000
0000
1000
0000
0010
0000
0100
0000
0000
0000
0001
0000
0001
0000
0000
0000
0010
0000
,
0100
0000
0000
1000
0000
0000
0000
0000
0000
1001
0000
0000
0000
0000
0000
0000
0000
0001
0000
0100
0000
0001
0000
0100
0000
0001
0000
0100
0000
0001
0000
0100
0000
0001
0000
0100
0000
0001
0000
0100
0000
0001
0000
0100
0000
0001
0000
0000
,
0000
0000
0000
2002
0000
0000
0000
0000
0000
0000
0000
0000
3003
0000
0000
0000
0000
0000
0001
0000
0010
0000
0100
0000
1000
0000
0000
0000
0001
0000
0100
0000
0000
0000
0000
0000
0001
0000
0010
0000
0100
0000
1000
0000
0000
0000
0001
0000
,
0100
0000
0000
0001
0010
0100
1000
0001
0100
0010
0000
0000
1000
0100
0010
0001
0010
0100
1000
0000
0001
0100
0010
1000
,
0001
0000
0000
0000
0000
0000
0000
0000
0010
0000
0000
0000
0000
0000
0000
0000
0100
0000
0000
0000
0000
0000
0000
0000
2000
0000
0000
0000
0000
0000
0000
0000
3002
0000
0000
0000
0000
0000
0000
0000
0203
0000
0000
0000
0000
0000
0000
0000
0020
0000
0000
0000
0000
0000
0000
0000
0000
0000
0000
0000
0000
0000
0000
0000
0000
0000
0000
0000
0000
0330
0000
0000
1000
0000
0000
0000
0000
0000
0000
0000
0000
0000
0000
0000
0100
0000
0000
0000
0000
0000
0000
0000
0000
0000
0000
0000
,
0010
0001
0000
0000
1000
0001
0000
0100
,
0001
0000
0000
1000
0100
0000
0000
0010
0001
0000
0000
0000
0100
0000
0001
0000
,
0000
0000
0010
0000
0100
0000
0000
1000
0010
0000
0000
0100
0001
0000
0000
0000
,
1000
0000
0000
0100
0000
0000
0000
0000
0000
0000
1000
0000
0001
0000
0000
0000
0000
0000
0200
0000
0000
0000
0000
0000
,
0300
0000
0000
0110
0000
0000
0000
0000
0000
0000
0000
0000
0001
0000
1000
0000
0010
0000
1000
0000
0001
0000
0010
0000
,
0100
1000
0001
0100
0001
2000
0000
0000
0000
0000
0000
0000
,
0000
0000
0000
0000
0000
0000
3000
0000
0000
0001
1000
0100
,
1000
0001
0100
0001
1000
0100
1000
0001
0100
0010
1000
0001
,
0010
0100
1000
0010
,
0100
0001
0010
0100
,
1000
0000
0000
0001
0100
0010
1000
0000
0000
0001
0000
0000
,
1001
0000
1000
0010
0100
0000
0001
0010
,
0000
0100
1000
0000
2002
0000
3003
0000
,
0001
1000
0010
0100
0001
1000
0100
1000
,
0010
0100
0001
0010
0001
1000
0010
0100
,
0001
0010
0100
1000
0010
1000
0100
1000
,
0010
1000
0100
0010
0001
0100
0000
0110
,
0000
0000
1001
0001
1000
0100
1000
0010
,
0100
0000
0001
0010
0000
0100
1000
0000
,
1001
0101
1001
1100
,
1000
0001
0100
0010
0000
1000
1001
0000
,
0002
0023
0230
1300
,
2020
3030
0202
0303
,
0000
0000
0001
0010
0001
0100
0001
0010
,
0001
0100
0001
0010
0100
1000
0000
1001
,
0000
0000
0001
0100
0010
1000
0100
0010
,
0001
0000
1000
0000
0001
1000
0001
0000
0000
0000
0100
0000
0010
0000
0000
0000
,
1000
0100
0001
0100
1000
0010
0001
0010
,
1000
0100
0010
0011
0000
1000
0100
0010
,
0011
0000
1000
0100
0010
0011
0000
1000
,
0010
1000
0010
0100
0001
0100
0001
0010
,
0100
1000
0010
1000
0010
0100
0001
0100
,
0001
0010
0001
0010
0100
1000
0100
1000
,
0010
0000
0000
0100
0000
0000
0001
0000
0000
0010
0000
0000
0100
0000
0000
1000
0000
0000
0000
0010
0000
0200
0000
0000
,
0000
0000
0300
0000
0000
1001
0000
0000
0000
0000
0000
0000
0000
0000
0110
0000
,
0000
0000
0000
0000
0000
0000
0000
1001
0000
0001
0010
0100
1000
0001
0100
0000
,
0110
0000
1001
0000
0110
0000
0000
0001
1000
0010
0100
0001
1000
0100
0010
0001
,
0010
0001
0010
0100
1000
0001
0100
0010
0000
1000
0000
0010
0000
0100
0001
0000
,
0000
0000
0000
1001
0000
0000
0000
0000
0000
1010
0000
0000
0000
0000
0000
0210
0000
0000
0000
0000
0000
1300
0000
0000
0000
0100
0000
0000
0000
0001
0000
0000
0000
0010
0000
0000
0000
1000
0000
0000
0000
0000
0000
0000
0000
0220
0000
0000
,
0000
0000
0000
0000
0000
0000
0000
0000
0000
0000
0330
0000
0000
0000
0001
0010
,
0000
0000
0100
1000
0000
0001
0000
0101
0000
1000
0000
1100
0000
0001
0000
0101
,
0000
0010
0000
1001
0000
0000
0000
0000
0220
0000
0000
0000
0000
0000
0330
0000
,
0000
2002
0000
0000
3003
0000
0000
0000
,
0000
0000
0000
0000
;
#NOTES:
     dance-double:
     :
     Easy:
     10:
     :
00000000
00000000
00000000
00000000
,
00000000
00000000
00000000
00000000
,
00000000
00000000
00000000
00000000
,
00000000
00000000
00000000
00000000
,
00000000
00011000
00000000
00000000
00001000
00000000
00000000
00010000
,
00000000
00022000
00000000
00000000
,
00000000
00000000
00000000
00000000
00000000
00000000
00000000
00033000
,
00000000
00000000
01001000
00000000
00000000
00000000
00000000
00000000
00000000
00000000
00000000
01010000
00000000
00000000
00000000
00000000
,
00000000
00000000
00000000
00000000
01100000
00000000
00000000
00000000
00000000
00000000
00000000
00000000
00000000
00010000
00000000
01000000
,
00000000
10000000
00000000
00000000
01100000
00000000
00000000
00000000
00000000
01000000
00000000
00000000
00000000
00010000
00000000
00000000
,
00000000
00100000
00000000
00001000
00000000
00000000
00000000
00010000
,
00000100
00001000
00000000
00000000
00000000
00000000
00000020
00000000
,
00000000
00000000
00000000
00000000
00000000
00000000
00000000
00000030
00000000
00000000
00000000
00000100
00000000
00000000
00000000
00000001
,
00000000
00001001
00000000
00000000
00001000
00001000
00000000
00000000
,
00000000
00000000
00000000
00000010
00000000
00010000
00000000
00010000
00000000
00000000
00000000
00000000
00000000
00001000
00000000
00001000
,
00000000
00000000
00000000
00000000
00000000
00000000
00000000
00020000
00000000
00000000
00000000
00030000
00000000
00001000
00000000
00000100
,
00000000
00000001
00000000
00000000
00000000
00000000
00000000
00000000
00000000
00000010
00000000
00000010
00000000
00000000
00000000
00000000
,
00000000
00000000
00000001
00001000
00001000
00000000
00000000
00000010
,
00000010
00000000
00000000
00000000
00000000
00000000
00000000
00000000
00000000
00000000
00010000
00000000
00000000
00001000
00000000
00000000
,
00000000
00000000
00010000
00000000
00000000
00020000
00000000
00000000
00000000
00000000
00000000
00000000
00030000
00000000
00000000
00000000
,
00001000
00000000
00000000
00002000
00000000
00000000
00000000
00000000
00000000
00000000
00003000
00000000
00000000
00000000
00000000
00000000
,
00010000
00010000
00001000
00001000
00010000
00010000
00001000
00000000
,
00000000
00022000
00000000
00000000
00000000
00000000
00000000
00000000
00000000
00000000
00000000
00000000
00000000
00033000
00000000
00000000
,
00000000
00001000
00000000
00000000
00000000
00100000
00000000
00000000
00000000
00010000
00000000
00000000
00000000
01000000
00000000
00000000
,
00000000
00100000
00000000
00000000
00000000
00100000
00000000
00000000
00000000
10000000
00000000
00000000
00000000
10000000
00000000
00000000
,
00000000
01000000
00000000
00000000
00000000
00100000
00000000
00000000
00000000
00001000
00000000
00010000
00000000
00000000
00000000
00000100
,
00000000
00000000
00000000
00000010
00000000
00000000
00000000
00000001
00000000
00001000
00000000
00000000
00000000
00000010
00000000
00000000
,
00000000
00000100
00000000
00000000
00000000
00000010
00000000
00000000
00000000
00001000
00000000
00000000
00000000
00000100
00000000
00000000
,
00000000
00010000
00000000
00000000
00000000
00011000
00000000
00000000
00000000
00000000
00000000
00000000
01100000
00000000
00000000
00000000
,
00000000
00000000
00000000
10000000
00000000
00000000
10000000
00000000
00000000
10000000
00000000
00000000
10000000
00000000
00000000
00100000
,
00000000
00000000
00000000
10100000
00000000
00000000
00000000
00010000
00000000
00000000
00000000
00110000
00000000
00000000
00000000
00001000
,
00000000
00000000
00000000
00011000
00000000
00000000
00000000
00000010
00000000
00000000
00000000
00001010
00000000
00000000
00000000
00001001
,
00000000
00000000
00000000
00000000
00000000
00000000
00000000
00000000
00000000
00000000
00000000
00000100
00000000
00000000
00000000
00000110
,
00000000
00000000
00000000
00000000
00000000
00000000
00000000
00000000
00000000
00000000
00000000
00010000
00000000
00000000
00000000
00002000
,
00000000
00000000
00000000
00003000
00000000
02000000
00000000
00000000
00000000
03000000
00000000
00200000
00000000
00000000
00000000
10300000
,
00000000
00000000
00000000
00010000
00000000
00100000
00000000
01000000
00000000
00000000
00000000
10000000
00000000
10000000
00000000
00000000
,
00000000
00100000
00000000
01000000
00000000
00010000
00000000
00000000
00100000
00000000
00000000
00000000
00001000
00000000
00000000
00000000
,
00010000
00000000
00000100
00000000
00000010
00000000
00000000
00000002
00000000
00000000
00000000
00000000
00000000
00000000
00000000
00000000
,
00000000
00000003
00000000
00000000
00000000
00000000
00000010
00000000
00000100
00000000
00001000
00000000
00000010
00000000
00000010
00000000
,
00010000
00000000
00000000
00001000
00000000
00000000
00001000
00000000
00000000
01000000
00000000
00000000
00010000
00000000
00000000
00010000
00000000
00000000
10000000
00000000
00100000
00000000
00100000
00000000
,
10000000
01000000
01000000
00200000
00302000
00023000
00032000
00000000
00000000
00003000
00000000
00000000
,
00000000
00000000
00000000
00000000
,
00000000
00000000
00000000
00000000
,
00000000
00001000
00010000
00000100
,
00000010
00000001
00000000
00000200
,
00000300
00000010
00000000
00000000
00001000
00000000
00000100
00000000
,
00010000
00000000
00000000
00001000
00000000
00010000
00000000
00000000
00000000
00000000
00000000
00000000
,
00000000
00000000
00000000
00002000
,
02003000
03020000
00230000
02300000
,
13000000
10000000
10000000
00010000
,
00010000
00010000
00100000
00100000
,
00100000
00001000
00010000
00001000
,
00011000
00000000
00000000
00000000
00000000
00000000
00000000
00000010
,
00000000
00000000
00002002
00003003
,
00000001
00000010
00000100
00001000
,
00000010
00000000
00010000
00000000
,
00001000
01000000
00010000
00100000
,
01000000
00000000
10000000
00000000
00010000
00000000
00000000
01000000
,
00000000
00100000
10000000
00010000
,
00100000
00000000
00000000
01000000
00000000
00000000
10000000
00000000
,
00010000
01000000
00001000
00010000
,
00000100
00000000
00000000
00001000
00000000
00000000
00000000
00000000
,
00002002
00003003
00000000
00000000
,
00000220
00000330
00002002
00003003
,
00000000
00000001
00000100
00000001
,
00000010
00000000
00000001
00000000
00001000
00000000
00000000
00000010
,
00000000
00010000
00001000
00100000
,
00010000
00000000
00000000
01000000
00000000
00000000
00100000
00000000
,
10000000
01000000
00100000
00010000
,
00110000
00000000
00000000
00000000
00000000
00101000
00000000
00000000
,
00000000
00000000
00011000
00000000
00000000
00000000
00000000
00010000
,
00000000
00000100
00000000
00010000
00000000
00000100
00000000
00000010
,
00000000
00000001
00000000
00001000
00000000
00000001
00000000
00001000
,
00000001
00000100
00000010
00001000
,
00000100
00000000
00010000
00000000
00000000
00001000
00000000
00022000
,
00000000
00000000
00033000
00000000
00000000
00011000
00000000
00000000
00000000
00000000
00000000
00000000
00000000
00000000
00011000
00000000
,
00000000
00000000
00000000
00000000
00000000
00000000
00000000
00011000
00000000
00000000
00000000
00000000
00000000
00000000
00000000
00000000
,
00010000
00000000
01000000
00000000
10000000
00000000
00000000
00100000
00000000
00000000
00000000
00000000
01000000
00000000
00000000
00000000
,
01000000
00000000
00000000
00000000
00000000
00010000
00000000
00000000
00000000
00010000
00000000
00000000
00000000
00000000
00000000
00000000
,
00000000
00100000
00000000
00001000
00000000
00010000
00000000
00000000
00000000
00000000
00000000
00000000
00000000
00000000
00000000
00002000
,
00000000
00000000
00000000
00000000
00000000
00003000
00000000
00010000
,
00000000
00000000
00000100
00000000
00000000
00000010
00000000
00000000
00000000
00000001
00000000
00000000
00000000
00001000
00000000
00000000
,
00000000
00000010
00000000
00000100
00000000
00000000
00000000
00000000
00000110
00000000
00000000
00000000
00000000
00000000
00000000
00000000
,
00000000
00002002
00000000
00000000
00003003
00000000
00000000
00000000
,
00000000
00000000
00000000
00000000
;
#NOTES:
     dance-double:
     :
     Medium:
     13:
     :
00000000
00000000
00000000
00000000
,
00000000
00000000
00000000
00000000
,
00000000
00000000
00000000
00000000
,
00000000
00000000
00000000
00000000
,
00010000
00001000
00000000
00010000
00000100
00000000
00000000
00000010
,
00000000
00002002
00000000
00000000
,
00000000
00000000
00000000
00000000
00000000
00000000
00000000
00003003
,
00000000
00000000
00000101
00000000
00000000
00000000
00000000
00000000
00000000
00000000
00000000
00001010
00000000
00000000
00000000
00000000
,
00000000
00000000
00000000
00000000
00010010
00000000
00000000
00000000
00000000
00000000
00000000
00000000
00000000
00010000
00000000
00001000
,
00000000
00011000
00000000
00000000
00010000
00000000
00001000
00000000
01000000
00010000
00000000
00100000
00000000
01000000
00000000
10000000
,
00000000
00010000
01000000
00000000
00100000
00000000
01000000
00000000
00010000
00000000
10000000
01000000
00000000
00000000
10000000
00000000
,
00100000
00000000
00000000
00010000
00000000
00000000
00001000
00000000
00100000
00000000
00010000
00000000
00100000
00000000
00001000
00000000
00000000
00000000
00022000
00000000
00000000
00000000
00000000
00000000
,
00000000
00000000
00000000
00000000
00000000
00000000
00000000
00033000
00000000
00000000
00000000
00010100
00000000
00000000
00000000
00001100
,
00000000
00000000
00001010
00000000
00000000
00000010
00000000
00000100
00000000
00000000
00000001
00000000
00000000
00000010
00000000
00000000
,
00000100
00000000
00000000
00001000
00000000
00000010
00000000
00010000
00000000
00000000
00001000
00000000
00000000
00010000
00000000
00001000
,
00000000
00000000
00100000
00000000
00000000
00010000
00000000
20000000
00000000
00000000
00000000
30000000
00000000
00100000
00000000
01000000
,
00000000
10010000
00000000
00000000
00000000
00000000
00000000
00000000
10000000
00000000
00000000
00000000
00000000
00010000
00000000
01000000
,
00000000
00000000
00100000
00000000
00000000
00010000
00000000
00001000
00000000
00010000
00000000
00001000
00000000
00000000
00010000
00000000
,
00000010
00000000
00000000
00000000
00001000
00000000
00000000
00000001
00000000
00000010
00000000
00000100
00000000
00001000
00000000
00000000
,
00000000
00000100
00010000
00000000
00000100
00010000
00000000
00000000
00000000
00000000
00000000
00000000
00000000
00000000
00000000
00001000
,
00010000
00000000
00001000
00010000
00000000
00000000
00000000
00000000
00000000
00000000
00000000
00000000
00000000
00000000
00000000
00001000
,
00010000
00100000
10000000
01000000
00100000
00001000
00010000
00000000
,
00000000
00022000
00000000
00000000
00000000
00000000
00000000
00000000
00000000
00000000
00000000
00000000
00000000
00033000
00000000
00000000
,
00000000
00010000
00000000
00001000
00000000
00000100
00000001
00000000
00000010
00000000
00000100
00000000
00000010
00000000
00000001
00000100
,
00000000
00001000
00000000
00001000
00000000
00010000
00000000
00010000
00000000
00001000
01000000
00000000
00010000
20000000
00000000
32000000
,
00000000
03200000
00000000
00320000
00000000
00032000
00000000
00003200
00000000
00000320
00000000
00000032
00000000
00000203
00000000
00000320
,
00000000
00002030
00000000
00023000
00000000
02030000
00000000
03200000
00000000
10300000
00000000
00010000
00000000
01000000
00001000
00000000
,
00010000
00000000
00001000
00000000
00010000
00000000
00001000
00100000
00000000
01000000
00000000
10000000
00000000
00100000
00000000
00010000
,
00000000
00001000
00000000
00010000
00000000
00011000
00000000
00000000
00010100
00000000
00000000
00000000
00000110
00000000
00000000
00001001
,
00000000
00000000
00000000
00000001
00000000
00000000
00000100
00000000
00000000
00001000
00000000
00000000
00010000
00000000
00000000
01000000
,
00000000
00000000
00000000
00000000
00000000
01000000
00000000
00000000
00000000
10000000
00000000
00000000
00000000
00000000
00000000
00000000
00000000
10000000
00000000
00000000
00000000
00100000
00000000
00000000
00000000
00000000
00000000
00000000
00000000
00100000
00000000
00000000
00000000
01000000
00000000
00000000
00000000
00000000
00000000
00000000
00000000
01000000
00000000
00000000
00000000
00010000
00000000
00000000
,
00000000
00000000
00000000
00000000
00000000
00010000
00000000
00000000
00000000
00100000
00000000
00000000
00000000
00000000
00000000
00000000
00000000
00100000
00000000
00000000
00000000
00001000
00000000
00000000
00000000
00000000
00000000
00000000
00000000
00000000
00000000
00000000
00000000
00010000
00000000
00000000
00000000
00000000
00000000
00000000
00000000
00000000
00000000
00000000
00000000
00011000
00000000
00000000
,
00000000
00000000
00000000
00000000
00000000
00000000
00000000
00000000
00000000
00010000
00000000
00000000
00000000
00000100
00000000
00000000
00000000
00010000
00000000
00000000
00000000
00000100
00000000
00000000
00000000
00000000
00000000
00000000
00000000
00000000
00000000
00000000
00000000
00001000
00000000
00000000
00000000
00000000
00000000
00000000
00000000
00000000
00000000
00000000
00000000
00001010
00000000
00000000
,
00000000
00000000
00000000
00000000
00000000
00000000
00000000
00000000
00000000
00000010
00000000
00000000
00000000
00000100
00000000
00000000
00000000
00000010
00000000
00000000
00000000
00000100
00000000
00000000
00000000
00000000
00000000
00000000
00000000
00000000
00000000
00000000
00000000
00000001
00000000
00000000
00000000
00000000
00000000
00000000
00000000
00000000
00000000
00000000
00000000
00000011
00000000
00000000
,
00000000
00000000
00000000
00000000
00000000
00000110
00000000
00000000
00000000
00000000
00000000
00001100
00000000
00000000
00000000
00010000
,
00001000
00000000
00001000
00100000
00000000
00010000
00000000
01000000
00000000
00100000
00000000
10000000
00000000
00010000
01000000
00000000
,
01000000
00100000
00000000
00010000
00000000
00001000
00000000
00000000
00010000
00000000
00000100
00000000
00000010
00000001
00000000
00000001
,
00000100
00000000
00001000
00000000
00010000
00000000
00001000
00020000
00000000
00000000
00000000
00000000
00000000
00000000
00000000
00000000
,
00000000
00000000
00000000
00030000
00000000
00000000
00000000
00000000
00000000
00000000
00000000
00000000
00001000
00000000
00000000
00000000
00000000
00000000
00010000
00000000
00000000
00000000
00001000
00000000
00010000
00000000
00000000
00000000
00001000
00000000
00010000
00000000
00000000
00000000
00000000
00000000
00100000
00000000
00000000
00000000
01000000
00000000
00010000
00000000
00000000
00000000
01000000
00000000
,
00010000
00000000
00000000
00100000
00000000
00001000
00010000
00000000
00001000
00010000
00000000
00000000
00000010
00000000
00001000
00000100
00000000
00001000
00000100
00000000
00000010
00000001
00000010
00000001
,
00001000
00000001
00000100
00002000
00023000
02030000
20000000
00000000
00000000
33000000
00000000
00000000
,
00000000
00000000
00000000
00000000
00000000
10000000
00000000
00000000
,
00100000
00000000
01000000
00000000
00010000
00000000
00000000
00100000
,
00000000
00001000
00010000
00000100
,
00001000
00000010
00000100
00000002
,
00000003
00000000
00000000
00001001
00000000
00000000
00000000
00000000
00000000
00000000
00000000
00000000
00001000
00000000
00000000
00000000
00000001
00000000
00000100
00000000
00000000
00000000
00000010
00000000
,
00001000
00000000
00000100
00010000
00000000
00022000
00000000
00000000
00000000
00000000
00000000
00000000
,
00000000
00000000
00000000
00000000
00000000
00000000
00033000
00000000
00000000
00001000
00000000
01000000
,
00010000
00000000
10000000
01000000
00000000
00100000
00010000
00000000
10000000
00100000
00000000
00000000
,
10000000
10000000
10000000
01000000
,
01000000
01000000
00010000
00010000
,
00010000
00001000
00001000
00001000
,
00011000
00000000
00000000
00000000
00000000
00000000
00000000
00000110
,
00000000
00000001
00001000
00000000
00002002
00000000
00003003
00000000
,
00000001
00000100
00001000
00010000
,
00100000
00000000
01000000
00001000
00000000
00001000
00010000
00000000
,
01000000
00000000
10000000
00000000
00100000
01000000
00000000
00010000
,
00000000
00100000
00001000
00000000
00010000
00001000
00000000
00011000
,
00000000
00001000
01000000
00100000
,
10000000
00000000
00000000
10010000
00000000
10000000
00000000
01000000
,
00100000
00001000
00010000
00001000
,
00000010
00000001
00000010
00000001
00000000
00000000
00000000
00000000
,
00002002
00003003
00000000
00000000
,
00002200
00003300
00020200
00030300
,
00010000
00000000
00001000
00000000
00010000
00100000
00000000
01000000
,
00000000
00010000
00100000
00000000
00001000
00010000
00000000
00001000
,
00000000
00000000
00010000
00001000
00010000
00000100
00001000
00000010
,
00000100
00000000
00000000
00001001
00000000
00000000
00000001
00000000
,
00000010
00000100
00001000
00000010
,
00010000
00001000
00010000
00001000
00000000
00100000
00010000
00100000
,
00010000
00000000
01000000
00100000
01000000
00100000
00000000
10000000
,
00000000
01000000
00000000
10000000
00000000
01000000
00000000
00010000
,
00000000
00001000
00000000
00010000
00000000
00001000
00000000
00010000
,
00001000
00000100
00001000
00000100
,
00000001
00000000
00000010
00000000
00000000
00001100
00000000
00020200
,
00000000
00000000
00030300
00000000
00000000
00011000
00000000
00000000
00000000
00000000
00000000
00000000
00000000
00000000
00011000
00000000
,
00000000
00000000
00000000
00000000
00000000
00000000
00000000
00011000
00000000
00000000
00000000
00000000
00000000
00000000
00000000
00000000
,
01000000
00000000
00100000
00000000
10010000
00000000
00000000
00010000
00000000
01000000
00100000
00000000
10000000
00000000
01000000
00000000
,
00100000
00000000
00001000
00010000
00000000
00000100
00000000
00001000
00000000
00000010
00000000
00000100
00000000
00000001
00001000
00000000
,
00000000
00000000
00000000
00000001
00000000
00000000
00000000
00000000
00000000
00000010
00000000
00000000
00000000
00000000
00000000
00001000
00000000
00000000
00000000
00000000
00000000
00010000
00000000
00000000
00000000
00000010
00000000
00000000
00000000
00001000
00000000
00000000
00000000
00000010
00000000
00000000
00000000
00010000
00000000
00000000
00000000
00000000
00000000
00000000
00000000
00022000
00000000
00000000
,
00000000
00000000
00000000
00000000
00000000
00033000
00000000
01001000
,
00000000
00000000
01100000
00000000
00000000
00010000
00000000
10000000
00000000
00100000
00000000
01000000
00000000
00001000
00000000
00010000
,
00000000
00000100
00000000
00000010
00000000
00000000
00000000
00000000
00002002
00000000
00000000
00000000
00000000
00000000
00003003
00000000
,
00000000
00000220
00000000
00000000
00000330
00000000
00000000
00000000
,
00000000
00000000
00000000
00000000
;
#NOTES:
     dance-double:
     :
     Hard:
     17:
     :
00000000
00000000
00000000
00000000
,
00000000
00000000
00000000
00000000
,
00000000
00000000
00000000
00000000
,
00000000
00000000
00000000
00000000
,
00001000
00010000
00000000
00001000
01000000
00100000
00000000
10100000
,
00000000
20020000
00000000
00000000
,
00000000
00000000
00000000
00000000
00000000
00000000
00000000
30030000
,
00000000
00000000
00110000
00000000
00100000
00000000
01000000
10000000
00000000
00100000
00000000
01100000
00000000
01000000
00000000
00010000
,
00100000
00000000
00001000
00000000
00011000
00000000
00010000
00000000
00000100
00000010
00000000
00000001
00000000
00001001
00000000
00000110
,
00000000
00001001
00000000
00000000
00001000
00000000
00000001
00000100
00001000
00010000
00000000
00001000
00000000
00010000
00000000
00001000
,
00010000
00100000
10000000
00000000
00010000
00000000
01000000
00000000
00100000
00000000
00010000
00001000
00000000
00000000
00010000
00000000
,
00000100
00000000
00000000
00010000
00000000
00000000
00001000
00000000
00000010
00000000
00000001
00000000
00000100
00000000
00001000
00000000
00000000
00000000
00022000
00000000
00000000
00000000
00000000
00000000
,
00000000
00000000
00000000
00000000
00000000
00000000
00000000
00033000
00000000
00000000
00000000
00001000
01000000
00000000
00000000
00100000
,
10000000
00000000
00010000
00000000
10000000
01000000
00000000
00100000
00010000
00000000
01000000
00000000
00001000
00010000
00000010
00000000
,
00001000
00000100
00001000
00000100
00000010
00000000
00000100
00001000
00000001
00000100
00000010
00000000
00001000
00000100
00000000
00010000
,
00000000
00001000
01000000
00100000
00000000
10000000
00010000
00100000
00010000
01000000
00100000
10000000
00000000
11000000
00000000
01100000
,
00000000
00110000
00000000
00000000
00000000
00000000
00000000
00000000
00010000
10000000
00000000
00100000
00000000
10000000
01000000
00100000
,
00000000
00010000
01000000
00010000
01000000
00100000
00000000
00010000
00001000
00010000
00000100
00010000
00000000
00001000
00000010
00000000
,
00000001
00000000
00000010
00000100
00001000
00000010
00000000
00010000
00001000
00100000
00010000
01000000
00100000
10000000
00000000
00000000
,
00000000
01000000
00010000
00000000
00001000
00000020
00000000
00000000
00000000
00000000
00000000
00000000
00000031
00000000
00000000
00000100
,
00001000
00000000
00010000
00200000
00000000
00000000
00000000
00000000
00000000
00000000
00300000
00000000
00000000
00000000
00000000
10000000
,
02000000
03000000
00002000
00003000
00020000
00030000
20000000
30000000
00200000
00300000
00020000
00030000
00002000
00003000
00000000
00000000
,
00000000
00022000
00000000
00000000
00000000
00000000
00000000
00000000
00000000
00000000
00000000
00000000
00000000
00033000
00000000
00000000
,
00000000
00011000
00000000
00001000
00000000
00000100
00000010
00000000
00001000
00000000
00000100
00000000
00000001
00000000
00000100
00000010
,
00000000
00000001
00000000
00001000
00000000
00010000
00000000
10000000
00000000
00100000
01000000
00100000
01000000
20000000
00000000
32000000
,
00000000
03200000
00000000
00320000
00000000
00032000
00000000
00003200
00000000
00000320
00000000
00002030
00000000
00203000
00000000
00320000
,
00000000
00032000
00000000
00003200
00000000
00000320
00000000
00000032
00000000
00001003
00000000
00000100
00000000
00000001
00000010
00000000
,
00001000
00000000
00010000
00000000
01000000
00000000
00010000
00001000
00000000
00010000
00000000
00100000
00000000
10000000
00000000
01000000
,
00000000
00010000
00001000
00000010
00000001
00001000
00000010
00000000
00000110
00000000
00000000
00000000
00000010
00001000
00000000
00001100
,
00000000
00000000
00000000
00010100
00000000
00000000
00000101
00000000
00000000
00010100
00000000
00000000
00000101
00000000
00000000
00010100
,
00000000
00000000
00000000
00000000
00000000
00010000
00000000
00000000
00000000
00001000
00000000
00000000
00000000
00000000
00000000
00000000
00000000
00100000
00000000
00000000
00000000
00010000
00000000
00000000
00000000
00000000
00000000
00000000
00000000
01000000
00000000
00000000
00000000
00100000
00000000
00000000
00000000
00000000
00000000
00000000
00000000
10000000
00000000
00000000
00000000
01000000
00000000
00000000
,
00000000
00000000
00000000
00000000
00000000
00010000
00000000
00000000
00000000
00001000
00000000
00000000
00000000
00000000
00000000
00000000
00000000
00000010
00000000
00000000
00000000
00000001
00000000
00000000
00000000
00000000
00000000
00000000
00000000
00000000
00000000
00000000
00000000
00001000
00000000
00000000
00000000
00000010
00000000
00000000
00000000
00010000
00000000
00000000
00000000
00001000
00000000
00000000
,
00000000
00000000
00000000
00000000
00000000
00000000
00000000
00000000
00000000
00100000
00000000
00000000
00000000
00010000
00000000
00000000
00000000
01000000
00000000
00000000
00000000
00100000
00000000
00000000
00000000
00000000
00000000
00000000
00000000
00000000
00000000
00000000
00000000
10000000
00000000
00000000
00000000
01000000
00000000
00000000
00000000
00010000
00000000
00000000
00000000
00001000
00000000
00000000
,
00000000
00000000
00000000
00000000
00000000
00000000
00000000
00000000
00000000
00010000
00000000
00000000
00000000
00001000
00000000
00000000
00000000
00000100
00000000
00000000
00000000
00000001
00000000
00000000
00000000
00000000
00000000
00000000
00000000
00000000
00000000
00000000
00000000
00000010
00000000
00000000
00000000
00000100
00000000
00000000
00000000
00001000
00000000
00000000
00000000
00001001
00000000
00000000
,
00000000
00000000
00000000
00000000
00000000
00011000
00000000
00000000
00000000
00000000
00000000
10010000
00000000
10000000
00000000
00100000
,
00100000
00000000
01000000
00010000
10000000
00000000
01000000
01000000
00000000
00100000
00001000
00010000
00000000
00001000
00001000
00000000
,
00010000
00000100
00001000
00000010
00000100
00000001
00000011
00000000
00000010
00000100
00001000
00000000
00000010
00000010
00000000
00010000
,
00001000
00000000
00000000
00010000
00000000
00000000
00000000
00000000
00000000
00011000
00000000
00000000
00000000
00000000
00000000
00000000
00000000
00001000
00000000
00010000
00000000
00001000
00000000
00010000
00000000
00001000
00000000
00010000
00000000
00001000
00000000
00010000
00000000
00001000
00000000
00010000
00000000
00001000
00000000
00010000
00000000
00001000
00000000
00010000
00000000
00001000
00000000
00000000
,
00000000
00000000
00000000
00022000
00000000
00000000
00000000
00000000
00000000
00000000
00000000
00000000
00033000
00000000
00000000
00000000
00000000
00000000
00010000
00000000
00000000
00000000
00010000
00000000
00100000
00000000
00000000
00000000
00100000
00000000
10000000
00000000
00000000
00000000
10000000
00000000
01000000
00000000
00000000
00000000
01000000
00000000
00010000
00000000
00000000
00000000
00010000
00000000
,
00001000
00000000
00001000
00000100
00000000
00000100
00000001
00000000
00000001
00000010
00000000
00000010
00001000
00000000
00001000
00010000
00000000
00010000
00001000
00000000
01000000
00010000
01000000
00010000
,
00100000
00000000
00000000
00000000
00000000
00000000
00000000
00000000
01000000
00000000
00000000
00000000
00000000
00000000
00000000
00000000
10000000
00000000
00000000
00000000
00000000
00000000
00000000
00000000
00200000
00000000
00000000
00000000
00000000
00000000
00000000
00000000
00320000
00000000
00000000
00000000
00000000
00000000
00000000
00000000
00030200
00000000
00000000
00000000
00000000
00000000
00000000
00000000
00000020
00000000
00000000
00000000
00000000
00000000
00000000
00000000
00000000
00000000
00000000
00000000
00000000
00000000
00000000
00000000
00000000
00000000
00000000
00000000
00000000
00000330
00000000
00000000
00000001
00000000
00000000
00000000
00000000
00000000
00000000
00000000
00000000
00000000
00000000
00000000
00000010
00000000
00000000
00000000
00000000
00000000
00000000
00000000
00000000
00000000
00000000
00000000
,
00000100
00001000
00000000
00000000
00000001
00000100
00000000
00000010
,
00010000
00000000
00000000
00001000
00010000
00000000
00000000
00001000
00010000
00000000
00000000
00000000
00100000
00000000
10000000
00000000
,
00000000
00000000
10000000
00000000
01000000
00000000
00000000
00010000
00001000
00000000
00000000
00010000
00001000
00000000
00000000
00000000
,
00000010
00000000
00000000
00000001
00000000
00000000
00000000
00000000
00000000
00000000
00000100
00000000
00000010
00000000
00000000
00000000
00000000
00000000
00020000
00000000
00000000
00000000
00000000
00000000
,
00030000
00000000
00000000
00011000
00000000
00000000
00000000
00000000
00000000
00000000
00000000
00000000
00010000
00000000
00001000
00000000
01000000
00000000
00010000
00000000
10000000
00000000
00010000
00000000
,
00100000
00010000
10000000
00010000
01000000
00002000
00000000
00000000
00000000
00000000
00000000
00000000
,
00000000
00000000
00000000
00000000
00000000
00000000
00003000
00000000
00000000
00010000
00001000
00010000
,
00000100
00001000
00000100
00010000
00001000
00010000
00000010
00001000
00000001
00001000
00000100
00000010
,
00000001
00000100
00001000
00010000
,
00001000
00010000
00100000
10000000
,
01000000
00100000
00010000
10000000
,
10010000
00000000
10000000
01000000
00100000
00000000
00000000
00011000
,
00000000
00000010
00000100
00000000
00002002
00000000
00003003
00000000
,
00000001
00000010
00000100
00001000
00000001
00000100
00001000
00010000
,
00001000
00100000
00010000
00100000
01000000
10000000
00100000
10000000
,
00010000
01000000
00010000
00000000
00100000
01000000
00000000
10000000
,
00000000
00100000
00010000
00000000
00001000
00010000
00000000
00010100
,
00000000
00000000
00000011
00000010
00000100
00001000
00000100
00010000
,
00001000
00000000
00000000
00011000
00000000
00001000
00000000
00000100
,
00000001
00000010
00001000
00010000
,
01000000
10000000
00010000
01000000
00000000
00100000
01100000
00000000
,
02000000
03002000
00023000
01030000
,
22000000
33000000
02200000
03300000
,
00001000
00000000
00010000
00001000
00000100
00000010
00001000
00000001
,
00001000
00000001
00000100
00001000
00010000
00001000
00010000
00100000
,
00000000
00000000
00010000
00001000
00010000
00000000
01000000
00100000
,
00010000
00000000
10000000
00100000
00000000
01000000
00010000
00000000
,
10000000
01000000
00100000
00001000
00010000
00000100
00000010
00000001
,
00001000
00000010
00000100
00000010
00010000
00001000
00100000
01000000
,
00100000
00001000
00010000
00000010
00000100
00000010
00010000
00001000
,
00010000
00001000
00010000
00100000
00010000
00100000
10000000
00100000
,
10000000
01000000
00010000
01000000
00010000
00001000
00010000
00001000
,
00000010
00001000
00000010
00001000
00000010
00000001
00000010
00000001
,
00000010
00000000
00000000
00000100
00000000
00000000
00001000
00000000
00000000
00000000
00000000
00000000
00000001
00000000
00000000
00000100
00000000
00000000
00000000
00001000
00000000
00020000
00000000
00000000
,
00000000
00000000
00030000
00000000
00000000
00011000
00000000
00000000
00000000
00000000
00000000
00000000
00000000
00000000
00011000
00000000
,
00000000
00000000
00000000
00000000
00000000
00000000
00000000
00011000
00000000
00001000
00100000
00010000
00100000
01000000
10000000
00000000
,
10010000
00000000
01100000
00000000
10010000
00000000
00000000
10000000
00000000
01000000
00100000
00010000
00100000
00001000
00010000
00000100
,
00001000
00000001
00000100
00000010
00000100
00000010
00000100
00000001
00001000
00000100
00000000
00010000
00000000
00001000
00010000
00000000
,
00000000
00000000
00000000
00001000
00000000
00000000
00000000
00000000
00000000
01000000
00000000
00000000
00000000
00000000
00000000
00001000
00000000
00000000
00000000
00000000
00000000
00010000
00000000
00000000
00000000
00100000
00000000
00000000
00000000
10000000
00000000
00000000
00000000
01000000
00000000
00000000
00000000
00010000
00000000
00000000
00000000
00000000
00000000
00000000
00000000
00022000
00000000
00000000
,
00000000
00000000
00000000
00000000
00000000
00000000
00000000
00000000
00000000
00000000
00033000
00000000
00000000
00000000
00010000
00000010
,
00000000
00000000
00000100
00000001
00000000
00000010
00000000
00001000
00000000
00010000
00000000
00100000
00000000
10000000
00000000
01000000
,
00000000
00010000
00000000
00011000
00000000
00000000
00000000
00000000
00000220
00000000
00000000
00000000
00000000
00000000
00000330
00000000
,
00000000
00002002
00000000
00000000
00003003
00000000
00000000
00000000
,
00000000
00000000
00000000
00000000
;
