
//----- song ID: koma -----//
#TITLE:Komainu Adventure!;
#ARTIST:BEMANI Sound Team "Coyaan & KE!JU";
#BANNER:Komainu Adventure!.png;
#BACKGROUND:Komainu Adventure!-bg.png;
#CDTITLE:./CDTitles/DDR WORLD.png;
#MUSIC:Komainu Adventure!.ogg;
#SAMPLESTART:70.168;
#SAMPLELENGTH:15;
#BPMS:0=180;
#NOTES:
     dance-single:
     :
     Beginner:
     3:
     :
0000
0000
0000
0000
,
0000
0000
0000
0000
,
0000
0000
0000
0000
,
0000
0000
0000
0000
,
0000
0000
0000
0000
,
1000
0000
1000
0000
,
0010
0000
0000
0000
,
1000
0000
0010
0000
,
1000
0000
0000
0000
,
0010
0000
0010
0000
,
0001
0000
0000
0000
,
0010
0000
0001
0000
,
0010
0000
0000
0000
,
0002
0000
0000
0000
,
0003
0000
0000
0000
,
0001
0000
0001
0000
,
0010
0000
0000
0000
,
0020
0000
0000
0000
,
0030
0000
0000
0000
,
0010
0000
0010
0000
,
1000
0000
0000
0000
,
1001
0000
0000
0000
,
0000
0000
0000
0000
,
1000
0000
1000
0000
,
0100
0000
0000
0000
,
1000
0000
1000
0000
,
0010
0000
1000
0000
,
0010
0000
0000
0000
,
0000
0000
0000
0000
,
0010
0000
0010
0000
,
0001
0000
0010
0000
,
0001
0000
0000
0000
,
0000
0000
0000
0000
,
0001
0000
0001
0000
,
0100
0000
0001
0000
,
0001
0000
0000
0000
,
0000
0000
0000
0000
,
0001
0000
0001
0000
,
0010
0000
0010
0000
,
0001
0000
0000
0000
,
0000
0000
0000
0000
,
0010
0000
0010
0000
,
1000
0000
0010
0000
,
1000
0000
0000
0000
,
0000
0000
0000
0000
,
1001
0000
0000
0000
,
1000
0000
0000
0000
,
0010
0000
0000
0000
,
0100
0000
0000
0000
,
1001
0000
0000
0000
,
0001
0000
0000
0000
,
0010
0000
0000
0000
,
0100
0000
0000
0000
,
1001
0000
0000
0000
,
0000
0000
0000
0000
,
1000
0000
0010
0000
,
1000
0000
0000
0000
,
0010
0000
0000
0000
,
0000
0000
0000
0000
,
0001
0000
0010
0000
,
0001
0000
0000
0000
,
0001
0000
0001
0000
,
0010
0000
0000
0000
,
0010
0000
0100
0000
,
0010
0000
0000
0000
,
0020
0000
0000
0000
,
0030
0000
0000
0000
,
2000
0000
0000
0000
,
3000
0000
0000
0000
,
1001
0000
0000
0000
,
0000
0000
0000
0000
,
1001
0000
0000
0000
,
0000
0000
0000
0000
,
0000
0000
0000
0000
,
1000
0000
0000
0000
,
0100
0000
0000
0000
,
0010
0000
0000
0000
,
0000
0000
0000
0000
,
0001
0000
0000
0000
,
0100
0000
0000
0000
,
0010
0000
0000
1000
,
0000
0000
1000
0000
,
0000
0001
0000
0000
,
0000
0000
0000
0000
,
0000
0000
0000
1001
,
0000
0000
0000
0000
;
#NOTES:
     dance-single:
     :
     Easy:
     7:
     :
0000
0000
0000
0000
,
0000
0000
0000
0000
,
0000
0000
0000
0000
,
0000
0000
0000
0000
,
0000
0000
0000
0000
,
1000
0000
0100
0000
,
0010
0001
0010
0000
,
0001
0000
0100
0000
,
0010
1000
0010
0000
,
1000
0001
1000
0000
,
0001
1000
0001
0000
,
0100
0010
0100
0000
,
0220
0000
0000
0330
,
1000
0000
1000
0000
,
1000
0010
0100
0000
,
0001
0000
0001
0000
,
0001
0010
0100
0000
,
1000
0100
1000
0000
,
0001
0100
0001
0000
,
1000
0000
0000
1000
0000
0000
0001
0000
,
0000
0001
0000
0000
1000
0000
0000
0000
,
1001
0000
0000
0000
,
0000
0000
0000
0000
,
0020
0000
0000
0030
,
0200
0000
0000
0300
,
1001
0000
1001
0000
,
0001
1000
0001
0000
,
1000
0010
1000
0010
,
0100
0000
0000
0000
,
0001
0100
0001
0010
,
0001
0100
0001
0000
,
1000
0100
1000
0010
,
1000
0100
1000
0000
,
0001
0001
0010
0000
,
0001
0001
0100
0000
,
0001
0100
0010
1000
,
0010
0000
0000
0000
,
2000
0000
0000
3000
,
0100
0000
0100
0000
,
0020
0000
0000
0030
,
0001
0000
0001
0000
,
0002
0000
0000
0003
,
0100
0000
0100
0000
,
0020
0000
0000
0030
,
1000
0000
1000
0000
,
1001
0000
0000
0000
,
1000
0010
0100
0001
,
1000
0000
0000
0000
,
0001
0010
0100
1000
,
0001
0000
1001
0000
,
1000
0000
1001
0000
,
0100
0000
0010
0000
,
0110
0000
0000
0000
,
1000
0100
1000
0000
,
1000
0010
1000
0000
,
1000
0100
0010
0010
,
0002
0000
0000
0003
,
0001
0010
0001
0000
,
0001
0100
0001
0000
,
0001
0010
0100
0100
,
2000
0000
0000
3000
,
1000
0001
0010
0100
,
1000
0001
0010
0000
,
0001
1000
0010
0100
,
0001
0001
1000
0000
,
0001
0100
0001
0100
,
0010
1000
0010
1000
,
0010
0100
0010
0100
,
0220
0000
0000
0330
,
1000
1000
1000
0000
,
0001
0001
0001
0000
,
1000
0010
1000
0001
,
0020
0000
0000
0000
,
0030
0000
0000
0000
,
0110
0000
0000
0000
,
0001
0000
0010
0000
,
1000
0000
0000
0000
,
1000
0000
0010
0000
,
0001
0000
0000
0000
,
0001
1000
0001
1000
,
0010
0000
0000
0100
,
0000
0000
0010
0000
,
0000
1000
0000
0001
,
0000
1000
0001
1000
,
0001
1000
0000
1001
,
0000
0000
0000
0000
;
#NOTES:
     dance-single:
     :
     Medium:
     11:
     :
0000
0000
0000
0000
,
0000
0000
0000
0000
,
0000
0000
0000
0000
,
0000
0000
0000
0000
,
0000
0000
0000
0000
,
1000
0000
0001
0000
0100
0010
0000
1000
,
0000
0100
1000
0000
0001
0000
0000
0000
,
1000
0000
0001
0000
0010
0100
0000
1000
,
0000
1000
0001
0000
0010
0000
0001
0000
,
1000
0000
0010
0000
0100
0000
0001
1000
,
0000
1000
0001
0000
0010
0000
0110
0000
,
1000
0100
1000
0100
0010
0001
0010
0001
,
0000
0000
1000
0000
0000
0001
0000
0000
1000
0000
0000
0001
0000
0000
0000
0000
,
2000
0000
0000
3000
,
1000
0010
0100
0010
1000
0010
0100
0000
,
0002
0000
0000
0003
,
1000
0000
0000
0100
0000
0000
0010
0000
0000
0000
0001
0000
1000
0000
0000
0000
,
0001
0000
0001
0100
0001
0000
0100
0010
,
0000
0010
1000
0000
1010
0000
1001
0000
,
1000
0000
1000
0100
0000
0100
0010
0000
,
0010
0001
0000
0001
1000
0000
0001
0000
,
2002
0000
0000
0000
,
0000
0000
0000
3003
,
1000
0000
0100
0010
0000
0001
1000
0001
,
0000
0001
0100
0000
0010
0000
0100
0000
,
0002
0000
0013
0000
0020
0000
0130
1000
,
0000
1000
0001
0000
0100
0000
0100
0000
,
0001
0000
0010
0000
1000
0010
0001
0010
,
0000
0001
1000
0000
0200
0000
0300
0000
,
1000
1100
1000
1010
,
1000
0000
1100
0000
1000
0100
0010
0000
,
0001
0101
0001
0011
,
0001
0000
0101
0000
0001
0010
0100
0000
,
1000
0000
1000
0000
0010
0100
0010
0100
,
0001
0000
0001
0000
0010
0100
0010
0100
,
1000
0100
0001
0100
,
1000
0100
0010
0001
1000
0100
0010
0000
,
0002
0000
1003
0000
,
2000
0010
3010
0000
,
2000
0000
3001
0000
,
0002
0010
0013
0000
,
0001
0000
0100
0001
0000
0100
0001
0000
,
1000
0010
0000
1000
0010
0000
0000
0000
,
2002
0000
0000
0000
,
0000
0000
0000
3003
,
0001
1000
0010
0100
,
0001
0000
1000
0000
0010
0100
0010
0100
,
0000
0100
0010
0000
1000
0000
0001
0000
,
0100
0000
0010
0000
1000
0001
1000
0000
,
0001
0001
1000
1000
,
0100
0100
0010
0010
,
0001
1000
0001
0000
1000
0001
1000
0000
,
0010
0000
0000
0010
0000
0000
0010
0000
0000
0000
0000
0000
0000
0000
0000
0000
,
1000
0000
0100
0000
0010
0001
0100
0000
,
0010
1000
0001
1000
0010
0000
0000
0000
,
1000
0000
0001
0000
0100
0001
0010
0000
,
0001
1000
0001
0000
1001
0000
0000
0000
,
1000
0000
0100
0000
0001
0100
1000
0000
,
0001
0000
0100
0000
1000
0100
0001
0000
,
1000
0010
1000
0000
0001
0010
0001
0000
,
2002
0000
0000
3003
,
0001
0000
0010
0000
0100
1000
0010
0000
,
0100
0001
1000
0001
0100
0000
0000
0000
,
0001
0000
1000
0000
0010
1000
0100
0000
,
1000
0001
1000
0000
1001
0000
0000
0000
,
0001
0000
0010
0000
1000
0010
0001
0000
,
1000
0000
0010
0000
0001
0010
1000
0000
,
0001
0100
0001
0000
1000
0100
1000
0001
,
0000
0000
0000
1000
0000
0000
0000
0000
,
0002
0010
1000
0010
,
2003
0010
0001
0010
,
3001
0100
0001
0000
1000
0100
1000
0100
,
0000
0100
0000
0000
0010
0000
0000
0100
,
0000
0010
0110
0000
,
2002
0000
0000
3003
,
1000
0010
0100
0000
0001
0010
0100
0000
,
0220
0000
0000
0330
,
1000
0000
0000
0001
0000
0000
1000
0000
0000
0000
0000
0000
0000
0000
0000
0000
,
0001
0000
0010
0100
1000
0010
1000
0100
,
0000
0100
0010
0000
0001
1000
0001
0000
,
1000
0000
0010
1000
0000
0100
1000
0000
,
0001
0010
0000
0001
0100
0000
0010
0100
,
0000
0001
1000
0000
0100
0000
0001
0000
,
0100
0000
1000
0000
0100
0000
0010
0001
,
0010
0001
0010
0000
0000
0000
2002
0000
,
0000
0000
0000
0000
,
0000
0000
0000
3003
,
0000
0000
0000
0000
;
#NOTES:
     dance-single:
     :
     Hard:
     13:
     :
0000
0000
0000
0000
,
0000
0000
0000
0000
,
0000
0000
0000
0000
,
0000
0000
0000
0000
,
0000
0000
0000
0000
,
0001
0000
0010
0000
1000
0010
0000
0001
,
0000
0000
1000
0100
1000
0000
0001
0000
1000
0000
0000
0000
0010
0000
0100
0000
,
0010
0000
0100
0000
1000
0100
0000
0001
,
0000
1000
1010
0000
1100
0000
1001
0000
,
1000
0100
1000
0100
0010
0001
0010
0001
,
0000
0001
0100
1000
0200
0000
0301
0000
,
0101
0000
0000
0011
0000
0001
0010
0100
,
0000
0000
1000
0000
0000
1000
0000
0000
0010
0000
0000
0010
0000
0000
0010
0000
,
0200
1000
0001
1000
,
0301
1000
0001
0000
0010
0000
0100
0000
1000
0000
0001
0000
2000
0000
0000
0000
,
3200
0001
1000
0001
,
1300
0000
0000
1010
0000
0000
1001
0000
0000
0000
0001
0000
1000
0000
0000
0000
,
0002
0000
0000
0000
0103
0000
0010
0100
0010
0000
1000
0000
0010
0000
1000
0000
,
0000
1000
0001
0000
2000
0000
3200
0000
,
0320
0001
0031
0200
0001
0301
2000
0010
,
3010
2000
0100
3100
1100
0000
0011
0000
,
1001
0000
1000
0000
0010
0100
0001
0100
,
0000
0001
0010
0100
1000
0000
1001
0000
,
0001
0010
0100
0010
0001
0100
0010
1000
,
0100
0001
0100
1000
0010
0001
0010
1000
,
0001
0100
0010
0100
0001
0010
0100
0010
,
0001
1000
0100
0010
0011
0000
1001
0000
,
1000
0010
1000
0010
0001
0010
1000
0010
,
0100
1000
0100
0001
0100
1000
0100
0000
,
0001
0010
0100
1000
0001
0010
0100
0001
,
0100
0010
0001
1000
0100
0010
0001
1000
,
0020
0000
0130
0100
0001
1000
0100
0010
,
0000
0010
0002
0000
2003
0000
3002
0000
,
1003
0000
0000
0001
0000
0000
1001
0000
0000
0000
1000
0000
0010
0000
0001
0000
,
0000
0001
0020
0000
2030
0000
3200
0000
,
0301
0100
0010
0001
0100
0010
0001
0010
,
1000
0100
0010
0001
1000
0100
0010
1000
,
0020
0000
0031
0001
0000
0001
1000
0001
,
0000
0001
0100
0000
0110
0000
1001
0000
,
0002
0000
1003
1000
0000
1000
0100
1000
,
0000
1000
0010
0000
0110
0000
1001
0000
,
2000
0000
3100
0002
0000
1003
0020
0000
,
0031
2000
0000
3100
0020
0000
0032
0000
,
2003
0000
0000
0000
,
0000
0000
0000
3000
,
1000
0001
0101
0100
0010
1000
1010
0001
,
0010
0001
0101
0100
0010
0010
1000
1010
,
0000
1010
1010
0001
0100
0001
0011
0010
,
0001
0100
0110
0010
1000
0001
0001
0000
,
1000
0100
1100
0001
0100
0001
0011
1000
,
0010
1000
1100
0001
0100
0001
0011
0000
,
1001
0001
0010
1000
0010
0001
1001
0000
,
1000
0000
0000
0010
0000
0000
1001
0000
0000
0000
1000
0001
1000
0000
0000
0000
,
0001
0100
0010
1000
0001
0010
0100
1000
,
0001
0001
0010
0001
0001
0100
1001
0000
,
1000
0100
0010
0001
1000
0010
0100
0001
,
1000
1000
0010
1000
1000
0100
1001
0000
,
0000
0001
0010
1000
0001
0100
1000
0001
,
0000
0001
0100
0010
1010
0000
1001
0000
,
2000
0000
0000
0000
3000
0000
1000
0001
1000
0000
0010
0000
0100
0000
0010
0000
,
0000
0010
0010
0000
0110
0000
1001
0000
,
0001
0010
1000
0010
0001
0100
1000
0100
,
0001
0010
0001
0100
0010
1000
1001
0000
,
1000
0010
0001
0010
1000
0100
0001
0100
,
1100
1000
1010
0000
0101
0001
0011
0000
,
0001
0100
0001
0100
1000
0100
1000
0100
,
0001
0010
0001
0010
1000
0010
1000
0010
,
0001
0010
0100
1000
0001
0010
0100
1000
,
0000
0001
0100
0001
0000
0001
0000
0001
,
0000
0001
0100
0001
0010
0100
1000
0010
,
0100
0000
0001
1000
0001
0000
0100
0000
0000
0000
0100
0000
0010
0000
1000
0000
,
0100
0010
0100
0010
0001
1000
0001
1000
,
0000
0000
0010
0000
0000
1010
0000
0000
1000
0000
0000
1001
0000
0000
0001
0000
,
0000
0000
0000
0011
0000
0000
0000
0000
0000
0000
0000
0000
0010
0000
0000
0000
0000
0000
0000
0000
0010
0000
0000
0000
0002
0000
0000
0000
0000
0000
0000
0000
0000
0000
0000
0000
2003
0000
0000
0000
0000
0000
0000
0000
0000
0000
0000
0000
,
3001
0000
1000
0000
0100
0000
0010
0001
0010
0000
0001
0000
1000
0000
0000
0000
,
0001
0000
0100
0010
0100
0000
0010
0000
1000
0000
0000
0000
1001
0000
0000
0000
,
0001
0000
0100
0000
0010
0000
1000
0001
1000
0000
0100
0000
0010
0000
0100
0000
,
1000
0000
0000
1010
0000
0000
2002
0000
0000
0000
0000
0000
3003
0000
0000
0000
,
0001
0000
0000
0000
1001
0000
1000
0010
1000
0000
0010
0000
0100
0000
0001
0000
,
0010
0100
1000
0001
0010
0100
1000
0000
,
0001
0100
0100
0010
1000
0010
1000
0100
,
0100
0010
0001
0001
1000
0010
0010
0001
,
0010
0010
1000
0100
0001
0100
1000
0100
,
0001
0100
1000
0100
0001
0100
1000
0100
,
0001
0100
1000
0000
0000
0000
2002
0000
,
0000
0000
0000
0000
,
0000
0000
0000
3003
,
0000
0000
0000
0000
;
#NOTES:
     dance-single:
     :
     Challenge:
     17:
     :
0000
0000
0000
0000
,
0000
0000
0000
0000
,
0000
0000
0000
0000
,
0000
0000
0000
0000
,
0000
0000
0000
0000
,
0002
0000
0000
0000
1003
0100
0000
0110
,
0000
0000
0010
0001
1000
0000
0010
0000
0100
0000
0001
1000
0001
0000
0000
0000
,
2000
0000
0000
0000
3001
0100
0000
0110
,
0000
0010
1010
0000
1001
0000
1100
0000
,
0000
1000
0100
0100
0001
0100
0100
1000
,
0000
1000
0010
0000
1010
0000
1001
0000
,
0002
0000
0103
0002
0000
0013
0001
0002
,
0000
0000
1000
0000
0000
1000
0000
0000
1000
0000
0000
1000
0000
0000
1003
0000
,
0001
0000
0010
0000
0011
0000
0010
0001
0100
0010
0100
0010
1000
0000
0100
0000
,
0000
1000
0010
1000
0010
0000
1000
0100
0010
0000
0011
0000
0001
0000
1001
0000
,
1000
0000
0010
0000
1010
0000
1000
0010
0100
0001
0100
0001
0010
0000
0001
0100
,
0010
0000
1000
0100
0000
0010
0100
0000
0010
0001
0010
0001
1000
0001
1000
0001
,
2000
0000
0000
0000
3000
0000
1000
0010
0100
0001
0010
0100
0010
0000
0011
0000
,
0000
0000
0001
0100
0010
0000
1010
0000
2000
0000
0000
0000
3002
0000
0000
0000
,
2003
0000
0000
0000
0000
0000
0000
0000
0000
0000
0000
0000
0000
0000
0000
0000
0001
0000
0000
0000
0000
0000
0000
3000
2001
0000
0000
0000
0000
0000
0000
0000
0000
0000
0000
0000
0000
0000
0000
0000
0010
0000
0000
0000
0000
0000
0000
3000
2010
0000
0000
0000
0000
0000
0000
0000
0000
0000
0000
0000
0000
0000
0000
0000
,
0100
0000
0000
0000
0000
0000
0000
3000
2100
0000
0000
0000
0000
0000
0000
0000
0000
0000
0000
0000
0000
0000
0000
0000
0001
0000
0000
0000
0000
0000
0000
3000
1001
0000
0000
0000
0000
0000
0000
0000
0000
0000
0000
0000
0000
0000
0000
0000
1001
0000
0000
0000
0000
0000
0000
0000
0000
0000
0000
0000
0000
0000
0000
0000
,
0000
0000
0000
0000
,
0000
0000
0000
0000
,
0001
0000
1000
0010
0000
0010
1000
1010
,
0000
1000
1100
0000
0110
0000
0011
0000
,
0002
0000
0000
0000
0103
0010
0100
0010
1000
0000
1010
0000
0110
0000
0101
0000
,
0000
0001
1001
0000
2000
0000
3002
0000
,
1003
0000
1100
0000
0100
0100
0010
0100
,
1000
0100
1000
0100
0010
0001
0010
0001
0010
0100
0010
0100
1000
0001
0010
0100
,
1000
0000
0001
0100
0010
0100
0010
1000
,
0000
1000
0010
1000
0100
1000
1000
0001
,
0010
0001
0010
0001
0100
0000
0110
0000
0000
0000
0010
0100
0010
0000
0010
1000
,
0020
2030
3002
0203
,
0301
0010
0100
1000
0010
0100
0001
0000
0000
0000
1000
0100
0010
0000
0011
0000
,
0000
0000
0001
1000
0002
0000
0000
0000
0023
0000
0000
0000
0230
0000
0000
0000
,
1300
0000
0000
0000
1010
0000
0000
0000
0010
0000
0100
0001
1000
0000
0100
0000
,
0010
0000
0001
1000
0001
0000
0100
0000
0001
1000
0001
1000
0001
0100
0010
0100
,
0010
0000
0000
0010
1000
0000
0000
0001
,
0000
0001
1000
0000
0100
0000
0010
0000
,
0001
0000
0000
0001
0100
0000
0000
0010
,
0000
0010
1000
0000
0001
0000
0010
0000
,
0001
0100
1000
1000
0100
0001
0001
0010
,
1000
1000
0010
0001
0001
0000
1000
0000
,
0220
0000
0000
0000
,
0000
0000
0000
0330
,
1000
0000
0001
0000
0110
0000
1000
0010
0100
0001
1000
0001
0100
0000
0110
0000
,
0010
1000
0010
1000
0001
0100
0001
1000
0100
0000
0110
0000
0010
0000
0011
0000
,
0000
0000
1001
0000
1000
0001
0010
0100
1000
0000
0010
0100
0010
0000
1000
0000
,
0001
0000
0100
0010
0100
0000
0001
0000
0000
0000
1001
0000
1001
0000
0000
0000
,
2010
0000
0000
0000
0000
0000
0000
0000
0001
0000
0000
0000
0000
0000
0000
3000
2001
0000
0000
0000
0000
0000
0000
0000
0010
0000
0000
3000
2000
0000
0000
0000
0100
0000
0000
0000
0000
0000
0000
0000
0001
0000
0000
0000
0000
0000
0000
3000
2001
0000
0000
0000
0000
0000
0000
0000
0100
0000
0000
3000
2000
0000
0000
0000
,
3002
0000
0000
0000
0000
0000
0000
0000
1000
0000
0000
0000
0000
0000
0000
0003
1002
0000
0000
0000
0000
0000
0000
0000
0010
0000
0000
0003
0002
0000
0000
0000
0100
0000
0000
0000
0000
0000
0000
0003
0002
0000
0000
0000
0000
0000
0000
0003
1001
0000
0000
0000
0000
0000
0000
0000
0000
0000
0000
0000
0000
0000
0000
0000
,
1000
0010
1000
0010
0100
0001
0100
0001
0010
0001
0010
0001
1000
0000
0000
0000
,
0001
0000
0010
1000
0000
0010
0001
0000
1000
0100
0010
0001
1000
0010
0100
0001
,
1000
0000
0001
0010
0001
0000
1000
0010
1000
0000
0001
0100
0010
0000
1010
0000
,
0000
0000
1000
0010
0100
0010
0100
0010
1000
0000
0001
0010
0100
0000
1000
0000
,
0001
0000
1000
0100
1000
0000
0001
0100
0001
0000
1000
0100
0010
0000
0011
0000
,
0000
0000
0001
0010
0100
0010
0100
0010
0100
1000
0100
1000
0100
0000
0000
0000
,
1100
0000
0100
0010
0001
0000
1000
0000
1010
0000
0010
0100
0001
0000
0010
0000
,
0011
0000
0001
1000
0010
0000
0100
0000
0101
0000
0000
0000
1001
0000
0000
0000
,
2000
0000
0000
0000
3100
0000
0010
0001
0100
0000
0010
0000
0100
0000
0010
0000
,
1000
0100
0010
0001
1000
0001
0010
0100
1000
0001
0010
0100
1000
0100
0010
0000
,
0001
0000
1000
0100
1000
0000
0001
0100
0001
0000
1000
0010
0100
0000
0101
0000
,
0000
0000
0001
0100
0010
0100
0010
0100
0001
0000
1000
0100
0010
0000
0001
0000
,
1000
0000
0001
0010
0001
0000
1000
0010
1000
0000
0001
0010
0100
0000
1100
0000
,
0000
0000
1000
0100
0010
0100
0010
0100
0010
0001
0010
0001
0010
0000
0000
0000
,
0011
0000
0010
0100
1000
0000
0001
0000
0101
0000
0100
0010
1000
0000
0100
0000
,
1100
0000
1000
0001
0100
0000
0010
0000
1010
0000
1000
0000
1001
0000
0000
0000
,
0001
0010
0001
0010
0001
0010
0001
0010
0100
1000
0100
1000
0001
1000
0001
0000
,
0000
0001
0100
0110
0000
1010
0000
1001
,
0000
0000
0000
0000
0000
0000
0000
0000
0001
0000
0000
0000
1000
0000
0000
0000
0200
0000
0000
0000
0000
0000
0000
0300
1200
0000
0000
0000
0000
0000
0000
0000
0000
0000
0000
0000
0000
0000
0000
0000
1000
0000
0000
0000
0001
0000
0000
0300
0200
0000
0000
0000
0000
0000
0000
0300
0201
0000
0000
0000
0000
0000
0000
0000
,
0000
0000
0000
0000
0000
0000
0000
0000
0001
0000
0000
0000
1000
0000
0000
0300
0020
0000
0000
0000
0000
0000
0000
0030
1020
0000
0000
0000
0000
0000
0000
0000
0000
0000
0000
0000
0000
0000
0000
0000
1000
0000
0000
0000
0001
0000
0000
0030
0020
0000
0000
0000
0000
0000
0000
0030
0021
0000
0000
0000
0000
0000
0000
0030
,
0010
0001
0010
0001
1000
0010
1000
0010
0100
0001
0100
0001
1000
0100
1000
0100
,
0000
0000
1000
0001
0010
0001
1000
0010
1000
0001
0100
0001
1000
0100
0010
0001
,
1000
0000
0000
0010
0000
0000
1000
0000
0000
0001
0000
0000
0100
0000
0000
0001
0000
0000
1000
0000
0000
0100
0000
0000
0010
0000
0000
0000
0001
0000
0000
0000
0100
0000
0000
0000
0010
0000
0000
0000
0000
0000
1000
0000
0000
0000
0000
0000
,
0200
0001
0010
1300
,
0001
0010
0100
1000
0001
0100
0010
1000
0001
0000
1000
0000
1001
0000
0001
0000
,
0200
1000
0010
0301
,
1000
0100
1000
0100
0010
0100
0020
0000
0000
0000
0001
0000
0031
0000
0000
0000
,
2002
0000
0000
0000
3003
0000
1000
0100
1000
0010
1000
0010
0100
0000
0101
0000
,
0000
0000
0001
0010
0100
0000
1100
0000
2000
0000
0000
0000
3001
0000
0000
0000
,
0011
0000
0010
0001
0100
0000
0110
0000
0010
1000
0001
0000
1001
0000
1000
0100
,
0010
0000
0011
0000
0001
1000
0100
0000
0110
0000
0010
0001
1000
0000
1010
0000
,
0010
0000
0000
0000
1000
0000
0000
0000
0001
0000
0000
0000
0000
0000
0000
0000
1001
0000
0000
0000
0000
0000
0000
0000
1000
0000
0000
0000
0200
0000
0300
0000
1000
0000
0000
0000
0001
0000
0000
0000
0200
0000
0000
0300
0001
0000
0000
0000
1000
0000
0000
0000
0200
0000
0000
0000
1300
0000
0000
0000
0001
0000
0000
0000
,
0200
0000
0000
0000
0001
0300
0000
0000
1000
0000
0000
0000
0200
0000
0000
0000
1000
0000
0300
0000
0001
0000
0000
0000
0200
0000
0000
0000
0001
0000
0000
0300
1000
0000
0000
0000
0200
0000
0000
0000
1000
0000
0000
0000
0301
0000
0000
0000
0200
0000
0000
0000
0001
0000
0000
0000
1000
0300
0000
0000
0200
0000
0000
0000
,
1000
0000
0000
0000
0001
0000
0000
0300
0200
0000
0000
0000
0001
0000
0000
0000
1300
0000
0000
0000
0000
0000
0000
0000
0000
0000
0000
0000
0000
0000
0000
0000
0000
0000
0000
0000
0000
0000
0000
0000
0000
0000
0000
0000
0000
0000
0000
0000
2002
0000
0000
0000
0000
0000
0000
0000
0000
0000
0000
0000
0000
0000
0000
0000
,
0000
0000
0000
0000
,
0000
0000
0000
3003
,
0000
0000
0000
0000
;
#NOTES:
     dance-double:
     :
     Easy:
     7:
     :
00000000
00000000
00000000
00000000
,
00000000
00000000
00000000
00000000
,
00000000
00000000
00000000
00000000
,
00000000
00000000
00000000
00000000
,
00000000
00000000
00000000
00000000
,
10000000
00000000
01000000
00000000
,
00100000
00010000
00100000
00000000
,
00001000
00000000
00010000
00000000
,
00011000
00000000
00000000
00000000
,
00001000
00010000
00000100
00000000
,
00001000
00000010
00001000
00000000
,
00000001
00000000
00000100
00000000
,
00000220
00000000
00000000
00000330
,
00000001
00000000
00000001
00000000
,
00000001
00001000
00000100
00000000
,
00010000
00000000
00010000
00000000
,
00001000
00010000
00011000
00000000
,
00001000
00010000
00001000
00000000
,
01000000
00010000
01000000
00000000
,
00010000
00000000
00000000
00010000
00000000
00000000
10000000
00000000
,
00000000
10000000
00000000
00000000
01000000
00000000
00000000
00000000
,
01100000
00000000
00000000
00000000
,
00000000
00000000
00000000
00000000
,
10000000
00000000
10000000
00000000
,
00010000
00000000
00100000
00000000
,
00002000
00000000
00000000
00003000
,
00020000
00000000
00000000
00030000
,
00001000
00000000
00010000
00000000
,
00011000
00000000
00000000
00000000
,
00001000
00010000
00001000
00010000
,
00000100
00001000
00000010
00000000
,
00001000
00000100
00000010
00000001
,
00000100
00000010
00001000
00000000
,
00000001
00000001
00000100
00000000
,
00000010
00000010
00001000
00000000
,
00000010
00010000
00001000
00010000
,
00011000
00000000
00000000
00000000
,
00001000
00000000
00010000
00000000
,
00001000
01000000
00001000
00000000
,
01000000
00000000
00010000
00000000
,
10000000
01000000
10000000
00000000
,
01000000
00000000
00100000
00000000
,
00001000
00010000
00001000
00000000
,
00022000
00000000
00000000
00000000
,
00033000
00000000
00000000
00000000
,
00010000
00000000
00001000
00000000
,
00010000
00000010
00001000
00000010
,
00000100
00000000
00000001
00000000
,
00000010
00000100
00000010
00000000
,
00000001
00000000
00001000
00000000
,
00000100
00001000
00000100
00010000
,
00001000
00000000
00010000
00000000
,
00011000
00000000
00000000
00000000
,
00001000
00010000
00001000
00000000
,
00100000
00010000
00100000
00000000
,
00010000
01000000
00010000
01000000
,
00200000
00000000
00000000
00300000
,
10000000
00000000
00010000
00000000
,
01000000
00100000
01000000
00000000
,
00001000
00000000
00010000
00000000
,
00011000
00000000
00000000
00000000
,
00001000
00010000
00001000
00010000
,
00000100
00001000
00000010
00000000
,
00000100
00000001
00000010
00000100
,
00001000
00000100
00010000
00000000
,
00001000
00010000
00001000
00010000
,
00001000
01000000
00010000
00100000
,
00001000
00000000
00010000
00100000
,
20000000
00000000
00000000
30000000
,
10000000
10000000
01000000
00000000
,
00100000
00100000
00010000
00000000
,
00100000
00001000
00010000
00001000
,
00020000
00000000
00000000
00000000
,
00030000
00000000
00000000
00000000
,
00011000
00000000
00000000
00000000
,
00010000
00000000
00000100
00000000
,
00001000
00000000
00000000
00000000
,
00000001
00000000
00000010
00000000
,
00000110
00000000
00000001
00000100
,
00000010
00001000
00000010
00000000
,
00010000
00000000
00000000
00001000
,
00000000
00000000
01000000
00000000
,
00000000
00100000
00000000
01100000
,
00000000
10000000
00010000
10000000
,
00010000
10000000
00000000
10010000
,
00000000
00000000
00000000
00000000
;
#NOTES:
     dance-double:
     :
     Medium:
     11:
     :
00000000
00000000
00000000
00000000
,
00000000
00000000
00000000
00000000
,
00000000
00000000
00000000
00000000
,
00000000
00000000
00000000
00000000
,
00000000
00000000
00000000
00000000
,
10000000
00000000
00010000
00000000
01000000
00100000
00000000
00100000
,
00000000
10000000
00010000
00100000
00010000
00000000
00000000
00000000
,
00100000
00000000
00001000
00000000
00010000
00001000
00000000
00011000
,
00000000
00020000
00030200
00002300
,
00003001
00000000
00000100
00000000
00000010
00000000
00001000
00000001
,
00000000
00000001
00000010
00000000
00000100
00000000
00001000
00000000
,
00000100
00000000
00010000
00001000
00000000
00001000
00010000
00001000
,
00000000
00000000
00100000
00000000
00000000
00010000
00000000
00000000
01000000
00000000
00000000
00010000
00000000
00000000
00000000
00000000
,
00200000
00000000
00000000
00300000
,
00010000
00100000
01000000
00000000
10000000
00100000
01000000
00010000
,
20000000
00000000
00000000
30000000
,
10000000
00000000
00000000
01000000
00000000
00000000
00010000
00000000
00000000
00000000
00001000
00000000
00010000
00000000
00000000
00000000
,
00022000
00000000
00033000
00000000
00010000
00000100
00001000
00000010
,
00000000
00000010
00000100
00000000
00000001
00001000
00000001
00000000
,
00000010
00000000
00000010
00000100
00000000
00000100
00010000
00000000
,
00010000
00001000
00000000
00001000
01000000
00000000
00010000
00000000
,
20020000
00000000
00000000
00000000
,
00000000
00000000
00000000
30030000
,
10000000
00000000
01000000
00100000
00000000
00001000
00010000
00001000
,
00000000
00001000
01000000
00000000
00100000
00000000
01000000
00000000
,
00010000
00000000
00100000
00000000
00001000
00010000
00001000
00010000
,
00000000
00011000
00010000
00000100
,
00001000
00000000
00000010
00000000
00000100
00000001
00000010
00000001
,
00000000
00000001
00001000
00000000
00000200
00000000
00000300
00000000
,
00001000
00000000
00000001
00000000
00000100
00000000
00001000
00010000
,
00000000
00010000
00001000
00000000
00100000
00000000
00010000
00000000
,
01000000
00000000
00010000
00100000
00000000
00100000
00010000
10000000
,
00000000
00000000
10010000
00000000
10000000
01000000
00100000
00000000
,
00001000
00000000
00010000
00000000
00001000
00000010
00001000
00000000
,
00010000
00000000
00001000
00000000
00010000
00100000
00010000
00000000
,
00001000
00000000
00011000
00000000
00010000
00000100
00001000
00000000
,
00000010
00000100
00000010
00000100
00000001
00001000
00000001
00000000
,
00002000
00000000
00003200
00000000
,
00020300
00000000
00000000
00000000
00031000
00100000
00001000
00000000
,
00020000
00000000
02030000
00000000
,
23000000
00000000
00000000
00000000
30010000
00100000
00010000
00000000
,
10000000
00000000
01000000
00100000
00000000
01000000
00100000
00000000
,
00001000
00010000
00000000
00001000
00010000
00000000
00000000
00000000
,
00022000
00000000
00000000
00000000
,
00000000
00000000
00000000
00033000
,
00010000
00000100
00001000
00000100
,
00000010
00000000
00000001
00000000
00000100
00000010
00000100
00000010
,
00000000
00000010
00001000
00000000
00000010
00000000
00010000
00000000
,
00001000
00000000
00010000
00000000
00001000
00010000
00001000
00000000
,
00100000
00100000
00010000
00010000
,
01000000
01000000
01100000
00000000
,
10000000
00100000
01000000
00000000
00010000
00100000
01000000
00000000
,
10000000
00000000
00000000
00010000
00000000
00000000
10000000
00000000
00000000
00000000
00000000
00000000
00000000
00000000
00000000
00000000
,
10000000
00000000
00100000
00000000
01000000
00000000
00001000
00010000
,
00000000
00010000
00001000
00000000
00010000
00000100
00001000
00000000
,
00000100
00000000
00000010
00000000
00000001
00000000
00000100
00000001
,
00000000
00000001
00000010
00000000
00000100
00001000
00000100
00000000
,
00010000
00000000
00001000
00000000
00010000
00000000
01000000
00100000
,
00000000
00001000
00010000
00000000
00001000
00000000
00011000
00000000
,
00010000
00000000
00001000
00000010
00000000
00000100
00001000
00000200
,
00000000
00000010
00000310
00000000
,
00000001
00000000
00000010
00000000
00000100
00000000
00010000
00001000
,
00000000
00001000
00010000
00000000
00001000
01000000
00010000
00000000
,
01000000
00000000
00100000
00000000
10000000
00000000
01000000
10000000
,
00000000
10000000
00100000
00000000
01000000
00010000
01000000
00000000
,
00001000
00000000
00010000
00000000
00001000
00000000
00000100
00000010
,
00000000
00010000
00001000
00000000
00010000
00000000
00011000
00000000
,
00001000
00000000
00010000
00100000
00000000
01000000
00010000
02000000
,
00000000
00000000
00000000
00100000
00000000
00100000
00000000
03100000
,
00000000
20000000
32000000
03200000
,
00320000
00032000
00003200
00000320
,
00000031
00000100
00000010
00000000
00001000
00000010
00010000
00001000
,
00000000
00001000
00000000
00000000
00010000
00000000
00000000
00001000
,
00000000
00010000
00011000
00000000
,
00001000
00000000
00010000
00000000
00100000
01000000
00100000
00000000
,
10000000
00100000
00010000
00100000
,
10000000
00000000
01000000
00000000
00100000
00010000
00100000
00000000
,
00001000
00000000
00000000
00010000
00000000
00000000
00001000
00000000
00000000
00000000
00000000
00000000
00000000
00000000
00000000
00000000
,
00022000
00000000
00033000
00000000
00010000
00001000
00010000
00000010
,
00000000
00000010
00001000
00000000
00000100
00000010
00000001
00000000
,
00001000
00000000
00000001
00000100
00000000
00000100
00000010
00000000
,
00000010
00010000
00000000
00010000
00001000
00000000
00001000
01000000
,
00000000
01000000
00010000
00000000
10000000
00000000
01000000
00000000
,
00010000
00001000
00000010
00000001
,
00000100
00001000
00010000
00000000
00000000
00000000
00022000
00000000
,
00000000
00000000
00000000
00000000
,
00000000
00000000
00000000
00033000
,
00000000
00000000
00000000
00000000
;
#NOTES:
     dance-double:
     :
     Hard:
     13:
     :
00000000
00000000
00000000
00000000
,
00000000
00000000
00000000
00000000
,
00000000
00000000
00000000
00000000
,
00000000
00000000
00000000
00000000
,
00000000
00000000
00000000
00000000
,
10000000
01000000
00100000
00000000
00010000
01000000
00100000
01000000
,
00000000
00000000
01000000
00010000
01000000
00000000
00001000
00000000
00010000
00000000
00000000
00000000
00011000
00000000
00000000
00000000
,
00001000
00010000
00001000
00000000
00010000
00000010
00001000
00000010
,
00000000
00000010
00001000
00000010
00000100
00000001
00000100
00000000
,
00000001
00000100
00000010
00001000
00000100
00000010
00001000
00010000
,
00000000
00010000
00001000
00000000
00022000
00000000
00033000
00000000
,
00001000
01000000
01000000
00010000
00100000
00100000
00010000
01000000
,
00000000
00000000
00100000
00000000
00000000
00100000
00000000
00000000
10000000
00000000
00000000
10000000
00000000
00000000
10000000
00000000
,
00020000
00100000
00000000
10030000
,
10000000
01000000
00010000
00001000
00000010
00000001
00001000
00000000
,
00002000
00000010
00000000
00003001
,
00000001
00000000
00000000
00001000
00000000
00000000
00000100
00000000
00000000
00000000
00000100
00000000
00010000
00000000
00000000
00000000
,
00022000
00000000
00000000
00000000
00033000
00000000
00001000
00010000
00001000
00000000
00100000
00000000
00010000
00000000
01000000
00000000
,
00000000
01000000
00010000
00000000
20000000
00000000
32000000
00000000
,
03100000
00001000
00001000
00010000
00001000
00001000
00000100
00001000
,
00001000
00010000
00001000
00001000
00010000
00000000
00011000
00000000
,
00010000
00001000
00000010
00000000
00000001
00001000
00000001
00000100
,
00000000
00000001
00000010
00000100
00001000
00000000
00001001
00000000
,
00000001
00001000
00000001
00001000
00000010
00000100
00000010
00000100
,
00001000
00010000
00100000
00010000
00001000
00100000
00010000
00100000
,
00001000
00010000
01000000
00010000
01000000
10000000
00010000
00100000
,
01000000
10000000
00010000
00000000
01000000
00010000
10000000
00000000
,
00010000
01000000
00100000
10000000
01000000
00100000
00001000
00010000
,
00000100
00001000
00000100
00000010
00000100
00000001
00000100
00000000
,
00001000
00000001
00000010
00000100
00001000
00000100
00000010
00000001
,
00000100
00000010
00000100
00000010
00010000
00001000
00010000
00001000
,
01000000
00000000
01100000
00000000
00100000
10000000
01000000
00100000
,
00000000
00100000
00002000
00000000
00023000
00000000
00032000
00000000
,
00013000
00000100
00001000
00000010
00010000
00000100
00001000
00000010
,
00000100
00001000
00000100
00000000
00000001
00000010
00000100
00000000
,
00001000
00000001
00000100
00000010
00000100
00001000
00010000
00001000
,
00010000
00100000
01000000
00100000
10000000
00010000
01000000
00000000
,
00020000
00000000
10030000
00100000
00000000
00100000
10000000
01000000
,
00000000
01000000
00100000
00000000
00001000
00010000
00001000
00000000
,
00020000
00000000
00030100
00001000
00000000
00001000
00000010
00000100
,
00000000
00000100
00000001
00000000
00000020
00000000
00000230
00000000
,
00001300
00000000
00000100
00010000
00000000
00001000
00100000
00000000
,
00010000
01000000
00000000
00100000
10000000
00000000
00010000
00000000
,
20020000
00000000
00000000
00000000
,
00000000
00000000
00000000
30030000
,
10000000
00100000
01100000
01000000
00001000
00010000
01000000
00100000
,
00001000
00010000
00011000
00001000
00000010
00001000
00010000
00001000
,
00000000
00001000
00000100
00000010
00001000
00000001
00001001
00001000
,
00000100
00000010
00001000
00010000
00100000
00010000
00001000
00000000
,
00010000
00001000
00010000
00001000
00010000
01000000
00010000
01000000
,
10000000
00100000
10000000
00100000
00010000
00001000
00011000
00000000
,
00010000
00001000
00000010
00000001
00001000
00000100
00000010
00000000
,
00000001
00000000
00000000
00000001
00000000
00000000
00001000
00000000
00000000
00000000
00001000
00000001
00001000
00000000
00000000
00000000
,
00000001
00001000
00000100
00000010
00000100
00001000
00000010
00000100
,
00001000
00010000
00001000
01000000
00010000
00100000
00010000
00000000
,
10000000
01000000
00010000
00001000
00100000
01000000
00010000
00001000
,
00000010
00000100
00000010
00001000
00000010
00000001
00000010
00000000
,
00000010
00000001
00000100
00001000
00010000
00100000
10000000
00010000
,
00100000
01000000
00010000
01000000
11000000
00000000
10010000
00000000
,
00010000
00100000
00001000
00010000
00000010
00001000
00000100
00010000
,
00001000
00100000
00100000
00010000
00010000
10000000
00010000
00000000
,
10000000
00010000
01000000
00100000
01000000
00010000
00100000
01000000
,
00010000
00001000
00010000
00000100
00001000
00000010
00001000
00000000
,
00000001
00000100
00001000
00010000
00000010
00000100
00001000
00010000
,
00100000
01000000
00100000
00010000
00100000
10000000
00100000
00000000
,
00100000
10000000
01000000
00010000
00001000
00000010
00000001
00001000
,
00000010
00000100
00001000
00000100
00000101
00000000
00001001
00000000
,
00001000
00000010
00010000
00001000
00100000
00010000
01000000
00001000
,
00000000
00001000
00010000
00001000
00000000
00011000
00000000
00011000
,
00000000
00010000
00001000
00000010
00000100
00010000
00001000
00000010
,
00000001
00000100
00000001
00000010
00000100
00010000
00001000
00000000
,
00010000
00001000
01000000
00010000
00100000
01000000
10000000
00010000
,
00000000
00000000
10000000
00000000
00000000
10100000
00000000
00000000
00100000
00000000
00000000
01100000
00000000
00000000
01000000
00000000
,
00000000
00000000
00000000
01010000
00000000
00000000
00000000
00000000
00000000
00000000
00000000
00000000
00010000
00000000
00000000
00000000
00000000
00000000
00000000
00000000
00010000
00000000
00000000
00000000
00200000
00000000
00000000
00000000
00000000
00000000
00000000
00000000
00000000
00000000
00000000
00000000
00301000
00000000
00000000
00000000
00000000
00000000
00000000
00000000
00000000
00000000
00000000
00000000
,
00010000
00000000
00001000
00000000
00011000
00000000
00000000
00000000
00010000
00000000
00000100
00000000
00001000
00000000
00000010
00000100
,
00000010
00001000
00000001
00000100
00000010
00001000
00000100
00000000
,
00001000
00000000
00000010
00000000
00010000
00000000
00001000
00010000
00001000
00000000
00100000
00010000
00100000
00000000
00001000
00000000
,
01000000
00000000
00000000
00010000
00000000
00000000
20000000
00000000
00000000
00000000
00000000
00000000
30000000
00000000
00000000
00000000
,
00010000
00000000
00000000
00000000
10010000
00000000
10000000
01000000
10000000
00000000
00010000
00000000
00100000
00000000
00010000
00000000
,
00000000
00010000
00100000
01000000
00010000
00001000
00010000
00000000
,
00001000
00000010
00000010
00001000
00010000
00010000
00001000
01000000
,
01000000
00010000
00100000
00100000
00001000
00010000
00010000
00001000
,
00000100
00000100
00001000
00010000
00100000
00010000
00001000
00000010
,
00001000
00010000
01000000
00010000
00001000
00000100
00001000
00010000
,
00100000
00010000
00001000
00000000
00000000
00000000
00022000
00000000
,
00000000
00000000
00000000
00000000
,
00000000
00000000
00000000
00033000
,
00000000
00000000
00000000
00000000
;
#NOTES:
     dance-double:
     :
     Challenge:
     17:
     :
00000000
00000000
00000000
00000000
,
00000000
00000000
00000000
00000000
,
00000000
00000000
00000000
00000000
,
00000000
00000000
00000000
00000000
,
00000000
00000000
00000000
00000000
,
20000000
00000000
00000000
00000000
31000000
00100000
00000000
01100000
,
00000000
00000000
00100000
00010000
00100000
00000000
00001000
00000000
00010000
00000000
00000100
00000000
00001000
00000000
00000010
00000000
,
00002000
00000000
00000000
00000000
00003001
00000010
00000000
00000110
,
00000000
00000000
00000010
00000100
00000020
00000000
00000000
00000000
00000032
00000000
00000000
00000000
00002003
00000000
00000000
00000000
,
00003100
00010000
00001000
01000000
00010000
00100000
00001000
00010000
,
00000000
00000000
00010000
00000000
00000010
00000000
00001000
00000000
00000001
00000100
00000001
00000100
00000001
00000000
00000000
00000000
,
00002000
00000000
00000010
00000000
00003010
00000000
00020000
00000000
00001000
00000000
00031000
00000000
01000000
00010000
01000000
00010000
,
00000000
00000000
10000000
00000000
00000000
10000000
00000000
00000000
01000000
00000000
00000000
01000000
00000000
00000000
01000000
00000000
,
00100000
00001000
00010000
01000000
10000000
00010000
00100000
00001000
,
00000010
00000001
00000100
00001000
00000100
00000010
00010000
00001000
,
00010000
00000010
00000100
00001000
00010000
00100000
01000000
00001000
,
00010000
00000000
01000000
10000000
00000000
01000000
00010000
00000000
00001000
00010000
00001000
00100000
00001000
00010000
00001000
00100000
,
00001000
00000000
00000000
00000000
00011000
00000000
00001000
00010000
00000100
00001000
00000100
00000000
00001000
00000010
00001000
00000000
,
00000000
00000000
00001000
00000100
00000010
00000000
00000001
00000000
00000100
00000000
00001000
00000000
00020000
00000000
00000000
00000000
,
00032000
00000000
00000000
00000000
00000000
00000000
00000000
00000000
00000000
00000000
00000000
00000000
00000000
00000000
00000000
00000000
00100000
00000000
00000000
00000000
00000000
00000000
00000000
00003000
00102000
00000000
00000000
00000000
00000000
00000000
00000000
00000000
00000000
00000000
00000000
00000000
00000000
00000000
00000000
00000000
00010000
00000000
00000000
00000000
00000000
00000000
00000000
00003000
00012000
00000000
00000000
00000000
00000000
00000000
00000000
00000000
00000000
00000000
00000000
00000000
00000000
00000000
00000000
00000000
,
00000100
00000000
00000000
00000000
00000000
00000000
00000000
00003000
00002100
00000000
00000000
00000000
00000000
00000000
00000000
00000000
00000000
00000000
00000000
00000000
00000000
00000000
00000000
00000000
00010000
00000000
00000000
00000000
00000000
00000000
00000000
00003000
00011000
00000000
00000000
00000000
00000000
00000000
00000000
00000000
00000000
00000000
00000000
00000000
00000000
00000000
00000000
00000000
00011000
00000000
00000000
00000000
00000000
00000000
00000000
00000000
00000000
00000000
00000000
00000000
00000000
00000000
00000000
00000000
,
00000000
00000000
00000000
00000000
,
00000000
00000000
00000000
00000000
,
00001000
00010000
00100000
01000000
00001000
00010000
01000000
10000000
,
00000000
10000000
10100000
00000000
01100000
00000000
01010000
00000000
,
00010000
00000000
00100000
00000000
00001000
00010000
00001000
00010000
00000100
00000000
00001000
00000010
00000100
00000000
00000101
00000000
,
00000000
00000000
00000001
00001000
00000001
00000000
00001000
00000100
00002000
00000000
00000000
00000000
00003020
00000000
00000000
00000000
,
00010030
00001000
00000010
00000100
00010000
00001000
00000100
00000010
,
00001000
00000010
00001000
00000010
00010000
00001000
00010000
00001000
01000000
00010000
01000000
00010000
00100000
00010000
00100000
00010000
,
10000000
00000000
00010000
01000000
10000000
00010000
00100000
10000000
,
01000000
00010000
00001000
00000010
00000100
00000010
00001000
00010000
,
00001000
00000100
00001000
00000100
00000010
00000000
00001000
00000100
00000010
00000000
00000001
00001000
00000001
00000000
00000100
00000010
,
00020000
00032000
02003000
03020000
,
10030000
00100000
01000000
00010000
01000000
00100000
10000000
00000000
00010000
00000000
10000000
01000000
00100000
00001000
00010000
00000000
,
00000000
00000000
00010000
00001000
00020000
00000000
00000000
00000000
00030200
00000000
00000000
00000000
00002300
00000000
00000000
00000000
,
00003001
00000000
00000000
00000000
00000011
00000000
00000000
00000000
00000010
00000000
00000001
00001000
00000010
00000000
00000100
00000000
,
00001000
00000000
00010000
00100000
00010000
00000000
00001000
00000000
00010000
00001000
00010000
00001000
01000000
00001000
01000000
00001000
,
00010000
00000000
00000000
00010000
00001000
00000000
00000000
00011000
,
00000000
00001000
00010000
01000000
10000000
00000000
00010000
00000000
,
10000000
00000000
01100000
00000000
00010000
00000000
01100000
10000000
,
00000000
10000000
00010000
00100000
00001000
00000010
00000001
00000000
,
00001000
00000000
00000100
00010000
00000000
00001000
00100000
00010000
,
10000000
01000000
00000000
01000000
00010000
00000000
00001000
00000000
,
00022000
00000000
00000000
00000000
,
00000000
00000000
00000000
00033000
,
00001000
00000000
00010000
00000000
00000010
00000000
00001000
00000000
00000100
00000010
00000001
00000010
00000001
00000000
00001000
00000001
,
00001000
00000010
00001000
00000000
00000100
00010000
00000100
00010000
00001000
00000000
00011000
00000000
00010000
00000000
00011000
00000000
,
00000000
00000000
00001000
00010000
00001000
00000000
01000000
00010000
01000000
00100000
01000000
00000000
00100000
00000000
10000000
01000000
,
00100000
00000000
00010000
00100000
00010000
00000000
00100000
00000000
00001000
00010000
00001000
00010000
00001000
00000000
00000000
00000000
,
00021000
00000000
00000000
00000000
00000000
00000000
00000000
00000000
00000100
00000000
00000000
00000000
00000000
00000000
00000000
00030000
00020100
00000000
00000000
00000000
00000000
00000000
00000000
00000000
00000010
00000000
00000000
00030000
00020000
00000000
00000000
00000000
00001000
00000000
00000000
00000000
00000000
00000000
00000000
00000000
00000100
00000000
00000000
00000000
00000000
00000000
00000000
00030000
00020100
00000000
00000000
00000000
00000000
00000000
00000000
00000000
00000010
00000000
00000000
00030000
00020000
00000000
00000000
00000000
,
00032000
00000000
00000000
00000000
00000000
00000000
00000000
00000000
01000000
00000000
00000000
00000000
00000000
00000000
00000000
00003000
01002000
00000000
00000000
00000000
00000000
00000000
00000000
00000000
00100000
00000000
00000000
00003000
00002000
00000000
00000000
00000000
00010000
00000000
00000000
00000000
00000000
00000000
00000000
00000000
01000000
00000000
00000000
00000000
00000000
00000000
00000000
00003000
01001000
00000000
00000000
00000000
00000000
00000000
00000000
00000000
00000000
00000000
00000000
00000000
00000000
00000000
00000000
00000000
,
00001000
00010000
00001000
00010000
00000010
00001000
00000010
00001000
00000001
00000100
00000001
00000100
00000010
00000000
00000000
00000000
,
00001000
00000000
00000100
00000001
00000000
00000100
00001000
00000000
00000001
00000010
00000100
00001000
00000100
00010000
00001000
00000000
,
00010000
00000000
00001000
01000000
00001000
00000000
00100000
00010000
00100000
00000000
00010000
01000000
00100000
00000000
10100000
00000000
,
00000000
00000000
10000000
00010000
10000000
00010000
00100000
00010000
00100000
00000000
00001000
00010000
00001000
00010000
00000100
00000000
,
00001000
00000000
00000010
00000100
00000010
00000000
00001000
00000001
00001000
00000000
00000001
00000010
00000100
00000000
00001100
00000000
,
00000000
00000000
00001000
00000100
00010000
00001000
00010000
00001000
01000000
00010000
01000000
00010000
01000000
00000000
00000000
00000000
,
01010000
00000000
00010000
10000000
00100000
00000000
01000000
00000000
01001000
00000000
00001000
00010000
00001000
00000000
00010000
00000000
,
00010100
00000000
00000100
00001000
00000010
00000000
00000100
00000000
00000101
00000000
00000000
00000000
00001001
00000000
00000000
00000000
,
00000001
00000000
00000100
00000000
00001000
00000000
00010000
00000000
00100000
00000000
10000000
00000000
00010000
00100000
00010000
00000000
,
10000000
01000000
10000000
01000000
00100000
00010000
00100000
00001000
00010000
00001000
01000000
00010000
01000000
00100000
00010000
00000000
,
00001000
00000000
00010000
00000100
00010000
00000000
00000010
00001000
00000010
00000000
00001000
00000100
00000010
00000000
00000011
00000000
,
00000000
00000000
00000001
00001000
00000001
00001000
00000010
00001000
00000010
00000000
00010000
00001000
00010000
00001000
01000000
00000000
,
00010000
00000000
00100000
01000000
00100000
00000000
00010000
10000000
00010000
00000000
10000000
00100000
01000000
00000000
01010000
00000000
,
00000000
00000000
00010000
01000000
00001000
00010000
00001000
00010000
00000100
00001000
00000100
00001000
00000100
00000000
00000000
00000000
,
00001100
00000000
00001000
00000001
00000010
00000000
00000100
00000000
00010100
00000000
00010000
00001000
00010000
00000000
00001000
00000000
,
01001000
00000000
01000000
00010000
00100000
00000000
01000000
00000000
11000000
00000000
10000000
00000000
10010000
00000000
00000000
00000000
,
10000000
01000000
10000000
01000000
00100000
01000000
00100000
01000000
00100000
00010000
00100000
00010000
00100000
00001000
00010000
00000000
,
00000000
00010000
00001000
00000100
00000000
00000110
00000000
00001001
,
00000000
00000000
00000000
00000000
00000000
00000000
00000000
00000000
00001000
00000000
00000000
00000000
00000100
00000000
00000000
00000000
00020000
00000000
00000000
00000000
00000000
00000000
00000000
00030000
00021000
00000000
00000000
00000000
00000000
00000000
00000000
00000000
00000000
00000000
00000000
00000000
00000000
00000000
00000000
00000000
00001000
00000000
00000000
00000000
00100000
00000000
00000000
00030000
00020000
00000000
00000000
00000000
00000000
00000000
00000000
00030000
01020000
00000000
00000000
00000000
00000000
00000000
00000000
00000000
,
00000000
00000000
00000000
00000000
00000000
00000000
00000000
00000000
00100000
00000000
00000000
00030000
00002000
00000000
00000000
00000000
00010000
00000000
00000000
00000000
00000000
00000000
00000000
00003000
00012000
00000000
00000000
00000000
00000000
00000000
00000000
00000000
00000000
00000000
00000000
00000000
00000000
00000000
00000000
00000000
00010000
00000000
00000000
00000000
00000100
00000000
00000000
00003000
00002000
00000000
00000000
00000000
00000000
00000000
00000000
00003000
00001010
00000000
00000000
00000000
00000000
00000000
00000000
00000000
,
00000010
00001000
00000010
00001000
00000001
00000010
00000001
00000010
00000100
00001000
00000100
00010000
00001000
00010000
00001000
00000000
,
00000000
00000000
00100000
00010000
00100000
00010000
01000000
00010000
00100000
00001000
00010000
00000010
00010000
00001000
01000000
00001000
,
00010000
00000000
00000000
00000100
00000000
00000000
00010000
00000000
00000000
00001000
00000000
00000000
00010000
00000000
00000000
00000010
00000000
00000000
00001000
00000000
00000000
00000010
00000000
00000000
00000100
00000000
00000000
00000000
00000001
00000000
00000000
00000000
00000100
00000000
00000000
00000000
00000001
00000000
00000000
00000000
00000000
00000000
00000000
00000000
00000000
00000000
00000000
00000000
,
00002000
00000000
00000000
00000000
00000001
00000000
00000000
00000000
00003010
00000100
00000010
00000100
00001000
00000000
00010000
00001000
,
00010000
00000000
00001000
01000000
00010000
00000000
00100000
01000000
10000000
00000000
00100000
01000000
00010000
00000000
10000000
00000000
,
00020000
00000000
00000000
00000000
10000000
00000000
00000000
00000000
00130000
01000000
00100000
01000000
00010000
00000000
00001000
00010000
,
00001000
00000000
00010000
00000010
00000000
00001000
00000200
00000000
00000000
00000000
00000010
00000000
00000310
00000000
00000000
00000000
,
00002002
00000000
00000000
00000000
00003003
00000000
00000001
00000100
00000010
00001000
00000010
00001000
00000010
00000000
00010000
00000000
,
00000000
00000000
00010000
00001000
00010000
00000000
00011000
00000000
00002000
00000000
00000000
00000000
00103000
00000000
00000000
00000000
,
00110000
00000000
00010000
10000000
02000000
00000000
03100000
00000000
00100000
00001000
00020000
00000000
00031000
00000000
00001000
00010000
,
00000020
00000000
00001030
00000000
00001000
00000100
00000020
00000000
00000031
00000000
00000001
00001000
00000020
00000000
00000130
00000000
,
00000100
00000000
00000000
00000000
00000010
00000000
00000000
00000000
00002000
00000000
00000000
00000000
00000000
00000000
00000000
00000000
00003010
00000000
00000000
00000000
00000000
00000000
00000000
00000000
00010000
00000000
00000000
00000000
00001000
00000000
00000000
00000000
00010000
00000000
00000000
00000000
00000020
00000030
00000000
00000000
00002000
00003000
00000000
00000000
00000020
00000030
00000000
00000000
00020000
00030000
00000000
00000000
00002000
00003000
00000000
00000000
00020000
00030000
00000000
00000000
00002000
00000000
00003000
00000000
,
00200000
00000000
00300000
00000000
00002000
00000000
00003000
00000000
02000000
00000000
03000000
00000000
00020000
00000000
00030000
00000000
02000000
00000000
03000000
00000000
00020000
00000000
00000000
00030000
00200000
00000000
00000000
00300000
00020000
00000000
00000000
00030000
00200000
00000000
00000000
00000000
00302000
00000000
00000000
00000000
00203000
00000000
00000000
00000000
00302000
00000000
00000000
00000000
00020000
00003000
00000000
00000000
00002000
00030000
00000000
00000000
00020000
00003000
00000000
00000000
00000200
00000000
00030000
00000000
,
00020000
00000000
00000300
00000000
00000020
00000000
00030000
00000000
00002000
00000000
00000000
00000030
00000020
00000000
00000000
00003000
00001030
00000000
00000000
00000000
00000000
00000000
00000000
00000000
00000000
00000000
00000000
00000000
00000000
00000000
00000000
00000000
00000000
00000000
00000000
00000000
00000000
00000000
00000000
00000000
00000000
00000000
00000000
00000000
00000000
00000000
00000000
00000000
00002002
00000000
00000000
00000000
00000000
00000000
00000000
00000000
00000000
00000000
00000000
00000000
00000000
00000000
00000000
00000000
,
00000000
00000000
00000000
00000000
,
00000000
00000000
00000000
00003003
,
00000000
00000000
00000000
00000000
;
