
//----- song ID: koiu -----//
#TITLE:恋歌疾風!かるたクイーンいろは;
#ARTIST:ねこまんまチーム!;
#TITLETRANSLIT:Koiuta shippuu! Karuta queen Iroha;
#ARTISTTRANSLIT:Nekomanma team!;
#BANNER:Koiuta shippuu! Karuta queen Iroha.png;
#BACKGROUND:Koiuta shippuu! Karuta queen Iroha-bg.png;
#CDTITLE:./CDTitles/pnm éclale.png;
#MUSIC:Koiuta shippuu! Karuta queen Iroha.ogg;
#SAMPLESTART:89.368;
#SAMPLELENGTH:15;
#BPMS:0=120,41=168;
#NOTES:
     dance-single:
     :
     Beginner:
     3:
     :
0000
0000
0000
0000
,
0000
0000
0000
0000
,
0000
0000
0000
0000
,
0000
0000
0000
0000
,
0000
0000
0000
0000
,
0000
0000
0000
0000
,
0001
0000
0001
0000
,
0010
0000
0000
0000
,
0010
0000
0010
0000
,
1000
0000
0000
0000
,
0000
0000
0000
0000
,
0000
0000
1000
0000
,
0000
0000
1000
0000
,
0000
0000
0010
0000
,
0000
0000
0010
0000
,
0000
0000
0100
0000
,
0000
0000
0100
0000
,
0000
0000
0001
0000
,
0000
0000
0001
0000
,
0000
0000
0002
0000
,
0000
0000
0003
0000
,
0000
0000
0020
0000
,
0000
0000
0030
0000
,
0000
0000
2000
0000
,
0000
0000
3000
0000
,
0000
0000
1000
0000
,
1000
0000
0010
0000
,
0000
0000
1000
0000
,
1000
0000
0010
0000
,
0000
0000
1000
0000
,
0010
0000
1000
0000
,
0000
0000
0010
0000
,
0000
0000
0010
0000
,
0000
0000
0001
0000
,
0000
0000
0000
0000
,
0000
0000
0001
0000
,
0000
0000
0001
0000
,
0000
0000
0010
0000
,
0000
0000
0000
0000
,
0000
0000
0001
0000
,
0001
0000
0010
0000
,
0000
0000
0001
0000
,
0001
0000
0100
0000
,
0000
0000
1000
0000
,
1000
0000
0010
0000
,
0000
0000
1000
0000
,
1000
0000
0100
0000
,
0000
0000
2000
0000
,
0000
0000
3000
0000
,
0000
0000
0010
0000
,
0010
0000
0010
0000
,
0000
0000
0002
0000
,
0000
0000
0003
0000
,
0000
0000
0010
0000
,
0010
0000
0010
0000
,
0000
0000
1001
0000
,
0000
0000
0010
0000
,
0010
0000
0010
0000
,
0000
0000
1001
0000
,
0000
0000
0001
0001
,
0010
0000
0010
0000
,
1000
0000
1000
0000
,
0000
0000
1001
0000
,
0000
0000
1000
1000
,
0010
0000
0010
0000
,
0010
0000
0001
0000
,
0000
0000
0002
0000
,
0000
0000
0003
0000
,
0000
0000
0001
0000
,
0001
0000
0100
0000
,
0000
0000
0020
0000
,
0000
0000
0030
0000
,
0000
0000
0010
0000
,
0010
0000
1000
0000
,
0000
0000
1001
0000
,
0000
0000
1001
0000
,
0000
0000
0001
0000
,
0001
0000
0010
0000
,
0000
0000
1001
0000
,
0000
0000
1001
0000
,
0000
0000
1000
0000
,
1000
0000
0010
0000
,
0000
0000
0110
0000
,
0000
0000
0000
0000
;
#NOTES:
     dance-single:
     :
     Easy:
     7:
     :
0000
0000
0000
0000
,
0000
0000
0000
0000
,
0000
0000
0000
0000
,
0000
0000
0000
0000
,
0000
0000
0000
0000
,
0000
0000
0000
0000
,
0001
0001
0100
0100
,
0010
1000
0010
0000
,
1000
1000
0100
0100
,
0010
0001
0010
0000
,
0000
0000
0000
0000
,
0000
0000
0001
0001
,
0100
0100
0001
0100
,
0001
0000
1000
1000
,
0100
0100
1000
0100
,
1000
0000
0010
0100
,
0010
0100
0010
0100
,
0110
0000
1000
0001
,
1000
0001
1000
0001
,
1001
0000
0001
1000
,
0001
0000
0001
0010
,
0100
0000
0100
1000
,
0100
1000
0002
0000
,
0000
0003
1000
1000
,
1000
0000
0010
0010
,
0010
0000
0100
0001
,
0100
0000
0020
0000
,
0030
0000
1000
0100
,
1000
0100
0010
0001
,
0010
0000
0001
0100
,
0001
0100
0010
1000
,
0010
0000
1000
1000
,
0100
0000
1000
1000
,
0010
0000
1000
0001
,
1000
0001
2000
0000
,
0000
3000
0001
0001
,
0100
0000
0001
0001
,
0010
0000
0001
1000
,
0001
1000
0001
0000
,
1001
0000
1000
1000
,
0010
0010
1000
1000
,
0010
0010
1000
0001
,
1000
0001
1000
0000
,
1001
0000
0001
0001
,
0010
0010
0001
0001
,
0010
0010
0001
1000
,
0001
1000
0001
0000
,
1001
0000
0002
0000
,
0000
0003
0200
0000
,
0000
0300
0020
0000
,
0000
0030
2000
0000
,
0000
3000
1000
0100
,
0010
0001
0100
0010
,
1000
0000
0001
0100
,
0010
1000
0100
0100
,
0010
0010
0100
0100
,
0010
0010
0001
0001
,
1000
1000
0002
0000
,
0000
0000
0003
0000
1001
0000
0000
1001
,
0000
0001
0100
0100
,
0010
0100
0010
0000
1000
0000
0010
0000
,
0001
0010
1000
0000
,
1001
0000
0000
0000
0001
1000
0001
0000
,
0000
0001
0010
0100
,
0110
0000
1000
0001
,
1000
1000
0001
1000
,
0001
0001
0200
0000
,
0000
0300
0010
0010
,
0010
0000
0110
0000
,
1001
0000
1000
0001
,
1000
0000
0001
0010
,
0100
1000
0001
0010
,
0100
1000
0002
0000
,
0000
0003
2000
0000
,
0000
0000
3000
0000
0010
0000
0000
0010
,
0000
0000
0010
0000
0100
0000
0000
0100
,
0000
0100
0001
0010
,
1000
0010
0001
1000
,
0001
0000
0000
0000
1000
0000
0000
1000
,
0000
0000
1000
0000
0001
0000
0000
0001
,
0000
0001
1000
0010
,
0100
0001
1000
0100
,
0010
0000
0220
0000
,
0000
0000
0000
0000
,
0000
0000
0330
0000
,
0000
0000
0000
0000
;
#NOTES:
     dance-single:
     :
     Medium:
     12:
     :
0000
0000
0000
0000
,
0000
0000
0000
0000
,
0000
0000
0000
0000
,
0000
0000
0000
0000
,
0000
0000
0000
0000
,
0000
0000
0000
0000
,
1000
0100
0010
0001
,
1000
1000
0010
0010
,
0100
0001
0010
0100
,
1000
0001
2000
0000
,
0000
0000
3000
0000
,
0000
0000
0000
0000
1000
0100
1000
0000
,
0001
0100
0001
0000
1000
0100
1000
0000
,
0001
0100
0001
0000
1000
0010
1000
0000
,
0001
0010
0001
0000
1000
0010
1000
0000
,
0001
0010
0001
0000
0000
0010
0000
0010
,
0000
0010
0000
0010
0000
0010
0000
0010
,
0000
0010
0000
0010
0000
0100
0000
0100
,
0000
0100
0000
0100
0000
0100
0000
0100
,
0000
0100
0010
0000
0220
0000
0000
0000
,
0000
0330
2002
0000
,
0000
3003
1000
0100
,
0001
0100
2000
0000
,
0000
3000
0001
0010
,
0001
0010
0100
1000
,
0100
0000
1000
0000
0001
0100
0010
0000
,
1000
0000
0100
0000
0010
0000
0000
0000
0001
0000
0000
0001
1000
0000
0000
0000
,
2002
0000
3003
0000
1000
0100
0010
0100
,
1000
0100
0010
0100
1000
0100
0010
0100
,
1000
0000
1001
0000
0001
0100
0010
0100
,
0001
0100
0010
0100
0001
0100
0010
0100
,
0001
1000
0001
0000
1000
0100
0000
0100
,
0010
0000
0001
0000
1000
0010
0000
0010
,
0100
0001
1000
0001
0100
0000
0110
0000
,
0010
1010
2000
3002
,
0013
0100
0010
0000
0001
0010
0000
0010
,
0100
0000
1000
0000
0001
0100
0000
0100
,
0010
1000
0001
1000
0010
0000
0110
0000
,
0100
0101
0002
2003
,
3100
0010
0100
0000
1000
0100
0010
0001
,
0000
1000
1000
0000
0001
0100
0010
1000
,
0000
0001
0001
0000
1000
0100
0001
0100
,
1000
0100
0001
0100
1000
0000
0110
0000
,
0001
0001
1000
1000
0001
0100
0010
1000
,
0000
0001
0001
0000
1000
0100
0010
0001
,
0000
1000
1000
0000
0001
0100
1000
0100
,
0001
0100
1000
0100
0001
0000
0110
0000
,
1000
0001
1000
0000
0002
0000
0000
0000
,
0203
0000
0320
0000
,
0000
0030
2000
0000
,
3200
0000
0320
0000
,
0000
0030
0001
0100
,
0010
1000
0100
0000
0010
0001
0100
0000
,
0010
0000
1000
0010
1000
0000
0100
0010
,
0001
0000
1000
0010
1000
0001
1000
0000
,
0001
1000
0001
0000
0100
0010
0100
0000
,
0010
0100
0010
0000
1000
0100
0010
0001
,
1000
0100
0010
0000
0000
0001
0001
0000
,
1000
0000
0000
0000
1001
0000
0000
0000
0001
1000
0000
0001
0000
1000
0001
0000
,
0000
0001
0100
0000
0010
0000
0010
0000
,
1000
0000
1000
0000
0001
0100
1000
0000
,
1000
0100
0001
0000
1000
0100
0001
0100
,
1000
0000
0000
0000
0001
0001
0001
0000
,
1000
0000
0100
0000
1000
0000
0010
0000
0100
0000
0000
0000
0010
0000
0000
0110
,
0000
0100
0100
0000
0001
0001
0001
0000
,
0010
0010
0010
0000
0100
0100
0100
0100
,
0000
1000
1000
1000
2000
0000
0000
0000
,
0000
0000
3000
0000
1000
0100
0010
0001
,
0100
0010
1000
0000
0001
0100
0010
1000
,
0100
0010
0001
0000
0011
0000
0101
0000
,
1010
0000
1100
0000
0000
1000
0000
1000
,
0000
1010
0000
1010
0000
0001
0000
0001
,
0000
0010
0011
0000
0001
0000
0001
0100
,
0000
0000
0110
0000
1000
0000
1000
0100
,
0000
0000
0000
0000
0110
0000
0000
0000
0001
0000
0000
0001
0000
0000
0001
0000
,
0000
0000
0001
0000
0010
0000
0100
0000
1000
0000
0000
1000
0000
0000
1000
0000
,
0000
1000
0010
0100
0001
1000
0001
0000
,
0100
0010
0100
0000
0001
0010
0100
1000
,
0100
0000
0010
0000
0001
0000
0000
0000
0010
0000
0000
0010
0000
0000
0010
0000
,
0000
0000
0010
0000
0001
0000
1000
0000
0100
0000
0000
0100
0000
0000
0100
0000
,
0000
0100
1000
0001
0100
0010
1000
0000
,
0100
0010
0001
0000
1000
0010
0100
0001
,
1000
0000
0000
0001
0000
0001
0000
0000
2000
0000
0000
0000
0000
0000
0000
0000
,
0000
0000
0000
0000
,
0000
0000
3000
0000
,
0000
0000
0000
0000
;
#NOTES:
     dance-single:
     :
     Hard:
     15:
     :
0000
0000
0000
0000
,
0000
0000
0000
0000
,
0000
0000
0000
0000
,
0000
0000
0000
0000
,
0000
0000
0000
0000
,
0000
0000
0000
0000
,
1000
0100
1000
0100
0010
0001
0010
0001
,
0100
0010
1000
0001
0100
0110
1001
0000
,
0001
0100
0001
0100
0010
1000
0100
1000
,
0010
0100
0010
1000
0002
0000
0000
0000
,
0000
0000
1003
0001
2000
0000
0000
0000
,
3100
0000
0100
0000
0200
0000
0300
0000
1000
0000
0010
0000
1000
0100
0000
0000
,
1000
0000
0010
0000
0100
0001
0000
0000
1000
0000
0010
0000
1000
0100
0000
0000
,
1000
0000
0010
0000
0100
0001
0000
0000
0001
0000
0010
0000
0001
0100
0000
0000
,
0001
0000
0010
0000
0100
1000
0000
0000
0001
0000
0010
0000
0001
0100
0000
0000
,
0001
0010
0100
0000
1000
0000
0001
0000
1000
0000
0100
0000
0001
0000
0100
0000
,
1000
0010
0001
0010
1000
0100
0001
0100
,
1000
0000
0010
0100
0001
0000
1000
0000
0001
0000
0100
0000
1000
0000
0100
0000
,
0001
0010
1000
0010
0001
0100
1000
0100
,
0001
1000
0001
1000
0001
0000
0000
0000
1000
0000
0100
0000
0010
0000
0001
0000
,
0100
0000
0110
0000
0010
1000
0000
1000
,
0001
0100
0010
1000
0200
0000
0302
0000
,
2003
0000
3020
0000
0031
0100
0010
1000
,
0001
0000
1000
0001
1000
0000
0000
0000
0001
0000
0010
0000
0001
0000
0010
0000
,
0001
0100
0001
0100
0010
1000
0010
1000
,
0100
1000
0100
1000
0010
0010
0100
0100
,
0101
0000
0101
0000
1001
0000
0000
0000
1000
0000
0000
0010
0001
0000
0010
0000
,
2000
0000
0000
0000
3000
0000
0000
0000
1000
0000
0100
0000
0010
0001
0000
0000
,
1000
0000
0010
0000
0100
0001
0000
0000
1000
0000
0100
0000
0010
0001
0000
0000
,
1000
0000
0010
0000
0100
0001
0100
0000
0001
0000
0010
0000
0100
1000
0000
0000
,
0001
0000
0100
0000
0010
1000
0000
0000
0001
0010
0001
0000
0010
0100
0010
0000
,
0100
1000
0100
0000
1000
0001
1000
0000
0001
0000
0000
0000
1000
0010
1000
0000
,
0010
0000
0000
0000
0100
0001
0100
0000
0001
0000
0100
0000
0110
0000
0000
0000
,
0010
0000
0010
0000
1000
0000
1000
0000
0100
0010
0001
0000
1000
0100
0010
0000
,
0001
1000
0100
0000
0010
0001
1000
0000
0100
0000
0001
0000
1000
0000
0010
0000
,
0001
0000
1000
0000
1001
0000
0000
0000
1000
0000
0000
0000
0001
1000
0001
0000
,
0010
0000
0000
0000
0100
1000
0100
0000
1000
0000
0100
0000
0110
0000
0000
0000
,
0010
0000
0010
0000
0001
0000
0001
0000
0100
0010
1000
0000
0001
0100
0010
0000
,
1000
0001
0100
0000
0010
1000
0001
0000
0100
0000
0010
0000
1010
0000
1000
0000
,
2002
0000
0000
0000
3003
0000
0000
0000
1000
0100
1000
0000
0010
0000
1000
0000
,
0000
0000
1010
0000
1001
0000
0000
0000
0001
0100
0001
0000
0010
0000
0001
0000
,
0000
0000
0011
0000
1001
0000
0000
0000
1000
0000
0100
0000
0010
0100
0010
0000
,
0100
0010
0100
0000
0010
0000
0001
0000
1000
0001
1000
0001
1000
0000
0001
0000
,
1001
0000
0001
0000
1000
0000
1001
0000
0001
0010
0001
0000
0100
0000
0001
0000
,
0000
0000
0101
0000
1001
0000
0000
0000
1000
0010
1000
0000
0100
0000
1000
0000
,
0000
0000
1100
0000
1001
0000
0000
0000
0001
0010
0001
0000
1000
0010
1000
0000
,
0001
0000
0000
0100
0000
0000
0001
0000
0000
0100
0000
0000
0001
0000
0000
0000
0000
0000
1000
0000
0000
0000
0000
0000
0010
0000
0000
0000
0100
0000
0000
0000
0010
0000
0000
0000
0100
0000
0000
0000
0010
0000
0000
0000
0100
0000
0000
0000
,
0010
1000
0001
0000
2000
0000
0000
0000
,
3200
0000
0320
0000
,
0030
0000
0001
0010
0002
0000
0000
0000
,
0203
0000
0320
2030
,
3002
0000
0203
0000
0310
1000
0010
1000
,
0100
0010
0100
0000
0010
0001
0010
0001
,
0100
0010
0100
0000
0001
0000
0001
0100
,
0010
0000
1000
0000
0010
0000
0000
0000
1000
0100
0010
0001
1000
0000
0000
0000
,
0001
0010
0100
1000
0001
0000
0000
0000
1000
0010
0100
0001
1000
0000
0000
0000
,
0001
0100
0010
1000
0001
0000
0000
0000
1000
0000
0100
0000
0010
0001
1000
0000
,
0001
0000
0100
0000
0010
1000
0001
0000
0000
0000
0001
0000
0100
0000
1000
0000
,
0100
0000
0001
0000
1000
0000
0100
0000
1000
0001
0000
1001
0000
1000
0001
0000
,
0000
0000
0001
0000
0010
0000
0100
0000
1000
0000
0000
0010
0000
0000
0010
0000
,
0100
0000
0001
0000
1000
0000
0001
0000
0100
0010
0000
0100
0010
0000
1000
0000
,
0100
0010
0100
0010
0100
0000
0010
0000
0001
0100
0001
0000
1000
0100
1000
0000
,
0010
0000
0010
0000
0100
0000
0100
0000
0001
1000
0001
1000
0001
0000
0000
0000
,
0000
0000
0001
0000
0100
0000
1000
0000
0100
0010
0100
0000
0001
1000
0000
2000
,
0000
0000
0100
0000
3100
0000
0000
0000
1000
0100
0000
0100
0010
0000
0010
0000
,
0001
0100
0000
0100
0010
0000
0010
0000
1000
0010
0000
0010
0100
0000
0100
0000
,
0000
0001
1000
0001
1000
1000
0100
0100
,
0010
0000
0010
0000
0001
0000
0001
0000
1000
0100
1000
0000
0100
0010
0100
0000
,
0010
0001
0010
0000
0001
0000
1000
0000
0001
0000
0001
0000
0100
0000
0100
0000
,
0010
0000
0010
0000
1000
0000
1000
0000
0001
0100
0001
0000
0100
0010
0100
0000
,
0010
1000
1001
0000
1000
0010
0001
0010
,
1000
0100
0001
0100
1000
0010
0001
0010
,
1000
0100
0010
0001
1000
0000
1000
0010
,
0000
0100
0101
0000
0001
0000
0001
0010
,
0000
0000
0100
0000
1100
0000
0000
0000
1000
0100
0000
1000
0100
0000
1000
0100
,
0000
0000
0010
0000
0001
0000
1000
0000
0001
0100
0000
0001
0100
0000
0001
0100
,
0000
0001
1000
0100
0010
0001
0100
0001
,
0010
0000
0100
1000
0010
0000
0100
0000
1000
0000
0100
0000
0010
0000
0100
0000
,
0001
1000
0001
1000
0001
0000
0100
0000
0001
0010
0000
0001
0010
0000
0001
0010
,
0000
0000
0100
0000
1000
0000
0001
0000
1000
0010
0000
1000
0010
0000
1000
0010
,
0000
1000
0001
0010
0100
1000
0010
1000
,
0100
0000
0010
0001
0100
0000
0010
0000
0001
0000
0010
0000
0100
0000
0010
0000
,
1000
0001
0000
0100
0000
0010
0000
0100
0002
0000
0000
0000
0000
0000
0000
0000
,
0000
0000
0000
0000
,
0000
0000
0003
0000
,
0000
0000
0000
0000
;
#NOTES:
     dance-single:
     :
     Challenge:
     17:
     :
0000
0000
0000
0000
,
0000
0000
0000
0000
,
0000
0000
0000
0000
,
0000
0000
0000
0000
,
0000
0000
0000
0000
,
0000
0000
0000
0000
,
0000
1000
0100
0010
0001
0100
1000
0100
,
0001
0010
0001
0010
0100
0100
2000
0000
,
3000
1000
0010
0001
0010
1000
0001
0100
,
1000
0100
0001
0100
0020
0000
0000
0000
,
0000
0000
0130
0010
0000
0000
0000
0000
,
1000
0000
0010
0000
0100
0000
0001
0000
1000
0000
1000
0000
1000
0100
0000
0000
,
1000
0000
1000
0000
1000
0001
0000
0000
1000
0000
1000
0000
1000
0010
0000
0000
,
1000
0000
1000
0000
1000
0001
0000
0000
0001
0000
0001
0000
0001
0100
0000
0000
,
0001
0000
0001
0000
0001
1000
0000
0000
0001
0000
0001
0000
0001
0010
0000
0000
,
0001
0010
0100
1000
0100
0010
0001
0000
1000
0000
1010
0000
1000
0000
1100
0000
,
1000
1010
1000
1100
0001
0011
0001
0101
,
0001
0011
0001
0101
1000
1010
0001
0011
,
1000
1100
0001
0101
1000
1010
0001
0011
,
1000
1100
1001
0000
0002
0000
0000
0000
,
0000
0000
0203
0000
,
0000
0000
2300
0000
,
0000
0000
3020
0000
,
0000
0000
0031
0001
,
0001
0001
0100
0100
,
0100
0000
0100
0000
1000
0010
0100
0010
,
1000
0000
1000
0000
1000
0000
0000
0000
1001
0000
0000
0100
0010
0000
0100
0000
,
2002
0000
0000
0000
3003
0000
0000
0000
1000
0000
1010
0000
1000
0100
0000
0000
,
0001
0000
0011
0000
0001
0100
0000
0000
1000
0000
1010
0000
1000
0100
0000
0000
,
0001
0000
0011
0000
0001
1000
0001
1000
0001
0000
0101
0000
0001
0010
0000
0000
,
1000
0000
1100
0000
1000
0010
0000
0000
1000
0000
0110
0000
0001
0000
0110
0000
,
1000
0000
0110
0000
0001
0000
0110
0000
1000
0000
0000
0010
0100
0010
1000
0100
,
0010
0000
0000
0001
0100
0010
1000
0001
0100
0000
0010
0000
1000
0000
0000
0000
,
1100
0000
1100
0000
0110
0000
0110
0000
0001
0010
0001
0010
0100
1000
0100
1000
,
0001
0010
0100
1000
0001
0000
1000
0100
0010
0000
0001
0100
0010
0000
1000
0100
,
0010
0000
0110
0000
1001
0000
0000
0000
0001
0000
0000
0010
0100
0010
0001
0100
,
0010
0000
0000
0010
1000
0100
0010
0001
0100
0000
1000
0000
0100
0000
0000
0000
,
0101
0000
0101
0000
0110
0000
0110
0000
1000
0010
1000
0010
0100
0001
0100
0001
,
1000
0010
0100
0001
1000
0010
0100
0001
1000
0000
1100
0000
0010
0000
0011
0000
,
2002
0000
0000
0000
3003
0000
0000
0000
0001
0100
0010
0000
0100
0010
1000
0000
,
0100
0010
0100
0000
1001
0000
0000
0000
1000
0100
0010
0000
0100
0010
0001
0000
,
0100
0010
0100
0000
1001
0000
0000
0000
0001
0100
0010
0000
1000
0100
1000
0010
,
1000
0100
1000
0010
1000
0100
1000
0000
0001
0010
0001
1000
0001
0100
0001
0000
,
1001
0000
0110
0000
1001
0000
0110
0000
1000
0010
0100
0000
0100
0001
1000
0000
,
1000
0100
0010
0000
0110
0000
0000
0000
0001
0010
0100
0000
0100
1000
0001
0000
,
0001
0100
0010
0000
0110
0000
0000
0000
0001
0010
0001
0000
0001
1000
0001
1000
,
0001
0000
0000
0100
0000
0000
0001
0000
0000
0100
0000
0000
0001
0000
0000
0000
0000
0000
0001
0000
0000
0000
0000
0000
1000
0000
0000
0000
0100
0000
0000
0000
0010
0000
0000
0000
0001
0000
0000
0000
0100
0000
0000
0000
0010
0000
0000
0000
,
1000
1001
0110
0000
1000
0010
0100
0010
,
1000
0000
0100
0001
0200
0000
0000
0000
,
0300
0000
0100
0010
0001
0001
0000
0001
,
0200
0320
1030
1010
,
1100
0000
0101
0000
0001
0010
0001
0100
,
0001
0010
0001
0100
0010
1000
0100
0010
,
0001
0000
0001
0100
2000
0000
3000
1000
,
0100
0000
0100
0010
0100
0000
0010
0000
1000
0100
0001
0100
1000
0000
0000
0000
,
0001
0100
1000
0100
0001
0000
0000
0000
1000
0010
0001
0010
1000
0000
0000
0000
,
0001
0010
1000
0010
0001
0000
0000
0000
1000
0100
0010
0001
0100
0010
0100
0010
,
1000
0001
0010
0100
1000
0010
0100
0010
0000
0000
0010
0000
1000
0000
1000
0000
,
0001
0000
0001
0000
0100
0000
0100
0000
0010
0010
0000
1000
0000
1010
1010
0000
,
0000
0000
1000
0000
0010
0000
0100
0000
0002
0000
0000
1000
0000
0000
1000
0000
,
2003
0000
0010
0000
0010
0000
3010
0000
1000
0100
0000
0100
0010
0000
0010
0000
,
0001
1000
0001
1000
0001
0100
0001
0000
1000
0100
0010
0001
1000
0100
0010
0001
,
1000
0000
0100
0000
0001
0000
0100
0000
1000
1000
0001
0001
1001
0000
0000
0000
,
0000
0000
1000
0000
0010
0000
0100
0000
0001
0010
0100
1000
0010
0100
0000
0002
,
0000
0000
1000
0000
1003
0000
0000
0000
1000
0100
0000
0100
1000
0000
1100
0000
,
0001
0100
0001
0100
0001
0000
0101
0000
1000
0010
0000
0010
1000
0010
1000
0000
,
0000
1000
0001
0001
1000
1010
0010
1010
,
1000
0000
1010
0000
0010
0000
1010
0000
1000
0100
1000
0100
0010
0001
0010
0001
,
0010
0100
0010
0100
0010
0001
0010
0000
0001
0000
0101
0000
0100
0000
0101
0000
,
0001
0000
0101
0000
0100
0000
0101
0000
0001
0010
0001
0010
0100
1000
0100
1000
,
0100
0000
0110
0000
1001
0000
0000
0000
0001
0100
0010
0000
0100
0000
1001
0000
,
1000
0100
0010
0000
0100
0000
1001
0000
0001
0010
0100
0000
1000
0000
0110
0000
,
1000
0000
0110
0000
1001
0000
0000
0000
1000
0000
0100
0010
0100
0000
1000
0000
,
0001
0000
0010
0100
2000
0000
0000
0000
3001
0000
0100
0010
0100
0000
0001
0000
,
1000
0000
0010
0100
0002
0000
0000
0000
1003
0100
0000
0010
0001
0000
1000
0100
,
0000
0000
0011
0000
0100
0000
1001
0000
0001
0100
0000
0010
1000
0000
0001
0100
,
0000
1010
0100
1001
1000
0010
0001
0010
,
1000
0000
0100
0010
0001
0000
1000
0000
0001
0000
0010
0000
1000
0000
0010
0000
,
0001
0100
0010
0100
0010
0000
1000
0000
0001
0100
0000
0010
1000
0000
0001
0100
,
0000
0000
1010
0000
0100
0000
1001
0000
1000
0100
0000
0010
0001
0000
1000
0100
,
0000
0011
0100
1001
0001
0010
1000
0010
,
0001
0000
0100
0010
1000
0000
0001
0000
1000
0000
0010
0000
0001
0000
0010
0000
,
1000
0100
0000
0010
0000
0010
0000
0001
2000
0000
0000
0000
0000
0000
0000
0000
,
0000
0000
0000
0000
,
0000
0000
3000
0000
,
0000
0000
0000
0000
;
#NOTES:
     dance-double:
     :
     Easy:
     7:
     :
00000000
00000000
00000000
00000000
,
00000000
00000000
00000000
00000000
,
00000000
00000000
00000000
00000000
,
00000000
00000000
00000000
00000000
,
00000000
00000000
00000000
00000000
,
00000000
00000000
00000000
00000000
,
00001000
00001000
00010000
00010000
,
00001000
00100000
00010000
00000000
,
00100000
00100000
00010000
10000000
,
01000000
00000000
01100000
00000000
,
00000000
00000000
00000000
00000000
,
00000000
00000000
10000000
10000000
,
01000000
00000000
00100000
00100000
,
00010000
00000000
00100000
00100000
,
00001000
00000000
00010000
00001000
,
00010000
00000000
00001000
00010000
,
00001000
00010000
00000100
00001000
,
00000100
00000000
00001000
00000001
,
00001000
00000001
00000100
00000010
,
00000110
00000000
00000001
00001000
,
00000001
00000000
00000100
00000010
,
00000100
00000000
00000010
00001000
,
00000010
00010000
00002000
00000000
,
00000000
00003000
00010000
00010000
,
00010000
00000000
00001000
00001000
,
00001000
00000000
00001000
00100000
,
00010000
00100000
02000000
00000000
,
03000000
00000000
10000000
00100000
,
10000000
00100000
01000000
00010000
,
01000000
00000000
00010000
01000000
,
00010000
00100000
00001000
00100000
,
00001000
00000000
00010000
00000100
,
00010000
00000000
00010000
00001000
,
00010000
00000000
00001000
00010000
,
00000100
00001000
00000200
00000000
,
00000000
00000300
00000100
00000100
,
00000010
00000010
00000001
00001000
,
00000100
00001000
00000010
00010000
,
00001000
00010000
00001000
00000000
,
00011000
00000000
00001000
00001000
,
00100000
00000000
00010000
00010000
,
00100000
00000000
00010000
01000000
,
10000000
01000000
00010000
00000000
,
10010000
00000000
10000000
10000000
,
01000000
00000000
10000000
10000000
,
00100000
00000000
10000000
01000000
,
00010000
00001000
00010000
00000000
,
00011000
00000000
00002000
00000000
,
00000000
00003000
00020000
00000000
,
00000000
00030000
00000020
00000000
,
00000000
00000030
00002000
00000000
,
00000000
00003000
00000001
00000100
,
00000010
00000000
00001000
00000100
,
00000010
00000000
00000001
00000100
,
00000001
00000100
00001000
00001000
,
00001000
00000000
00010000
00010000
,
00010000
00000000
00001000
00010000
,
00100000
10000000
00020000
00000000
,
00000000
00000000
00030000
00000000
10010000
00000000
00000000
10010000
,
00000000
10000000
01000000
01000000
,
00100000
01000000
00100000
00000000
00010000
00000000
00100000
00000000
,
00001000
00010000
00001000
00100000
,
00001000
00000000
00011000
00011000
,
00000000
00010000
00001000
00000010
,
00000110
00000000
00000001
00000001
,
00001000
00001000
00000100
00000100
,
00010000
00010000
00002000
00000000
,
00000000
00003000
00001000
00010000
,
00100000
00000000
01100000
00000000
,
10010000
00000000
10000000
01000000
,
00100000
00010000
10000000
10000000
,
01000000
00000000
00100000
00100000
,
00010000
00000000
00200000
00000000
,
00000000
00300000
00002000
00000000
,
00000000
00000000
00003000
00000000
00010000
00000000
00000000
00010000
,
00000000
00000000
00010000
00000000
00001000
00000000
00000000
00001000
,
00000000
00001000
00010000
00000100
,
00001000
00000100
00000010
00000001
,
00001000
00000000
00000000
00000000
00000001
00000000
00000000
00000001
,
00000000
00000000
00000001
00000000
00001000
00000000
00000000
00001000
,
00000000
00001000
00000010
00000100
,
00000010
00001000
00000010
00010000
,
00001000
00000000
00022000
00000000
,
00000000
00000000
00000000
00000000
,
00000000
00000000
00033000
00000000
,
00000000
00000000
00000000
00000000
;
#NOTES:
     dance-double:
     :
     Medium:
     12:
     :
00000000
00000000
00000000
00000000
,
00000000
00000000
00000000
00000000
,
00000000
00000000
00000000
00000000
,
00000000
00000000
00000000
00000000
,
00000000
00000000
00000000
00000000
,
00000000
00000000
00000000
00000000
,
00001000
00010000
00001000
00010000
,
00000100
00001000
00000010
00000010
,
00000100
00000001
00000010
00000100
,
00001000
00000100
00020000
00000000
,
00000000
00000000
00030000
00000000
,
00000000
00000000
00000000
00000000
00001000
00010000
00001000
00000000
,
00100000
00010000
00100000
00000000
00001000
00010000
00001000
00000000
,
01000000
00010000
01000000
00000000
00001000
00010000
00001000
00000000
,
00010000
00000010
00010000
00000000
00001000
00010000
00001000
00000000
,
00010000
00000100
00010000
00000000
00000000
00001000
00000000
00001000
,
00000000
00001000
00000000
00001000
00000000
00001000
00000000
00001000
,
00000000
00001000
00000000
00001000
00000000
00010000
00000000
00010000
,
00000000
00010000
00000000
00010000
00000000
00010000
00000000
00010000
,
00000000
00010000
00001000
00000000
00010000
00000000
00001000
01000000
,
00001000
00000000
01000000
00000000
00010000
00100000
00000000
00100000
,
01000000
01000000
20000000
30200000
,
02300000
03002000
00023000
00000000
,
00000000
00000000
00030000
00000000
00001000
00010000
00000000
00010000
,
00000010
00000000
00001000
00000000
00000010
00000100
00000000
00000100
,
00000001
00001000
00000001
00000000
00000020
00000000
00002030
00000000
,
00023000
00000000
00000000
00000000
02030000
00000000
00000000
00000000
13000000
00000000
00000000
10000000
00010000
00000000
00000000
00000000
,
20020000
00000000
30030000
00000000
10000000
01000000
00100000
00000000
,
00010000
01000000
00100000
00000000
10000000
01000000
00010000
00000000
,
00001000
00000010
00000001
00000000
00000001
00000100
00000010
00000000
,
00001000
00000100
00000010
00000000
00000001
00000100
00000010
00000100
,
00001000
00000100
00000010
00000000
00001000
00000001
00000000
00000001
,
00000100
00000000
00001000
00000000
00010000
00100000
00000000
00100000
,
01000000
00100000
10000000
00010000
02000000
00000000
03002000
00000000
,
00023000
00000000
02030000
00000000
13000000
00100000
01000000
00010000
,
01000000
00001000
00010000
00000000
00001000
00010000
00000000
00010000
,
00000010
00000000
00001000
00000000
00000100
00000001
00000000
00000001
,
00000100
00000010
00000001
00000000
00000011
00000000
00000110
00000000
,
00000100
00001000
00000100
00000000
00020000
00000000
00031000
00000000
,
00022000
00000000
00033000
00000000
00001000
00010000
00100000
10000000
,
00000000
00010000
00010000
00000000
10000000
01000000
00100000
00010000
,
00000000
10000000
10000000
00000000
10000000
01000000
00010000
00000000
,
00001000
00000010
00000001
00000000
00001001
00000000
00000110
00000000
,
00000001
00000001
00001000
00001000
00000001
00000100
00000010
00001000
,
00000000
00000001
00000001
00000000
00001000
00000100
00010000
00001000
,
00000000
00010000
00010000
00000000
00001000
00010000
00100000
00000000
,
10000000
01000000
00010000
00000000
00010000
01000000
10000000
00010000
,
00100000
00001000
00010000
00000000
00002000
00000000
00003000
00000000
,
00020000
00030000
00022000
00000000
,
00000000
00033000
00020000
00030000
,
00002000
00003000
00000010
00000010
,
00000001
00000000
00000001
00000100
,
00000010
00001000
00000010
00000000
00001000
00000010
00010000
00000000
,
00001000
00000000
00001000
00010000
,
00100000
01000000
00100000
00000000
10000000
01000000
00010000
00000000
,
00001000
00000000
00000010
00000000
00000001
00000100
00001000
00000000
,
00010000
00100000
10000000
01000000
,
00100000
00010000
00100000
00001000
00000000
00010000
00010000
00000000
,
00001000
00000000
00000000
00000000
00011000
00000000
00000000
00000000
00010000
00001000
00000000
00010000
00000000
00001000
00010000
00000000
,
00000000
00010000
00001000
00000000
00010000
00000000
00000100
00000000
,
00001000
00000000
00000010
00000000
00000100
00000001
00000010
00000000
,
00000100
00001000
00000010
00000000
00000100
00000001
00000100
00001000
,
00000100
00000000
00001000
00000000
00010000
00010000
00010000
00000000
,
00000000
00000000
00000000
00000000
00011000
00000000
00000000
00000000
00001000
00000000
00000000
00000000
00100000
00000000
00000000
00100000
,
00000000
00010000
00010000
00000000
10000000
10000000
10000000
00000000
,
01000000
01000000
01000000
00000000
00100000
00010000
00100000
00001000
,
00000000
00010000
00001000
00010000
00002000
00000000
00000000
00000000
,
00000000
00000000
00003000
00000000
00001000
00010000
00000100
00001000
,
00000100
00000010
00000001
00000000
00001000
00000010
00000100
00000010
,
00001000
00000100
00010000
00000000
00001000
00010000
00001000
00100000
,
00010000
01000000
00010000
00000000
00000000
10000000
00000000
10000000
,
00000000
10100000
00000000
10100000
00000000
00100000
00000000
00100000
,
00000000
01000000
01010000
00000000
00010000
00000000
00010000
00100000
,
00000000
00100000
00001000
00000000
00011000
00000000
00010000
00000100
,
00000000
00000000
00000100
00000000
00001000
00000000
00000000
00000000
00000010
00000000
00000000
00000010
00000000
00000000
00000010
00000000
,
00000000
00000000
00000010
00000000
00001000
00000000
00000100
00000000
00010000
00000000
00000000
00010000
00000000
00000000
00010000
00000000
,
00000000
00010000
00001000
01000000
00010000
00100000
00010000
00000000
,
10000000
00100000
10000000
00000000
00010000
00100000
01000000
10000000
,
00100000
00000000
01000000
00000000
00010000
00000000
00000000
00000000
00100000
00000000
00000000
00100000
00000000
00000000
00100000
00000000
,
00000000
00000000
00100000
00000000
00010000
00000000
01000000
00000000
00001000
00000000
00000000
00001000
00000000
00000000
00001000
00000000
,
00000000
00001000
00010000
00000100
00001000
00000010
00001000
00000000
,
00000001
00000010
00000001
00000000
00001000
00000010
00000100
00000001
,
00000010
00000000
00000000
00000100
00000000
00000100
00000000
00000000
00020000
00000000
00000000
00000000
00000000
00000000
00000000
00000000
,
00000000
00000000
00000000
00000000
,
00000000
00000000
00030000
00000000
,
00000000
00000000
00000000
00000000
;
#NOTES:
     dance-double:
     :
     Hard:
     15:
     :
00000000
00000000
00000000
00000000
,
00000000
00000000
00000000
00000000
,
00000000
00000000
00000000
00000000
,
00000000
00000000
00000000
00000000
,
00000000
00000000
00000000
00000000
,
00000000
00000000
00000000
00000000
,
00001000
00010000
00001000
00010000
00001000
01000000
00010000
01000000
,
00100000
10000000
01000000
00000000
01100000
00000000
10010000
00000000
,
10000000
01000000
10000000
01000000
00010000
01000000
00010000
00001000
,
00010000
00001000
00000010
00000001
00000020
00000000
00000000
00000000
,
00000000
00000000
00000031
00001000
00000002
00000000
00000000
00000000
,
00001003
00000000
00001000
00000000
00002000
00000000
00003000
00000000
00000010
00000000
00001000
00000000
00000010
00001000
00000000
00000000
,
00000100
00000000
00010000
00000000
00000100
00010000
00000000
00000000
00001000
00000000
00010000
00000000
00001000
00010000
00000000
00000000
,
00001000
00000000
00100000
00000000
00010000
00000000
00010000
00000000
10000000
00000000
01000000
00000000
10000000
01000000
00000000
00000000
,
00100000
00000000
01000000
00000000
00100000
01000000
00000000
00000000
00100000
00000000
00001000
00000000
00100000
00001000
00000000
00000000
,
00010000
00001000
00010000
00000000
00001000
00000000
00000000
00000000
00010000
00000000
00001000
00000000
00000010
00000000
00000100
00000000
,
00010000
00001000
00000100
00000010
00010000
00001000
00000010
00000100
,
00010000
00000000
00001000
00010000
00001000
00000000
00010000
00000000
00001000
00000000
00010000
00000000
00100000
00000000
01000000
00000000
,
00001000
00010000
01000000
00100000
00001000
00010000
00100000
01000000
,
00001000
00010000
00001000
00010000
00001000
00000000
00000000
00000000
00010000
00000000
00001000
00000000
00000010
00000000
00000001
00000000
,
00001000
00000000
00001001
00000000
00000001
00000100
00000000
00000100
,
00000010
00001000
00000010
00010000
00002000
00000000
00023000
00000000
,
02030000
00000000
23000000
00000000
30010000
01000000
00100000
10000000
,
01000000
00000000
00100000
01000000
00100000
00000000
00000000
00000000
00100000
00000000
00001000
00000000
00100000
00000000
00001000
00000000
,
00010000
00001000
00010000
00001000
00000010
00001000
00000010
00001000
,
00000010
00000001
00001000
00000001
00000100
00000100
00001000
00001000
,
00010000
00000000
00010000
00000000
00100000
00000000
00100000
00000000
10000000
00000000
00000000
10000000
00010000
00000000
01000000
00000000
,
00200000
00000000
00000000
00000000
00300000
00000000
00000000
00000000
00100000
00000000
10000000
00000000
01000000
10000000
00000000
00000000
,
00100000
00000000
01000000
00000000
00010000
00100000
00000000
00000000
00001000
00000000
00100000
00000000
00001000
00010000
00000000
00000000
,
00001000
00000000
00010000
00000000
00000100
00001000
00000100
00000000
00000010
00000000
00000001
00000000
00000100
00000001
00000000
00000000
,
00000010
00000000
00000100
00000000
00001000
00000010
00000000
00000000
00010000
00000010
00010000
00000000
00001000
00010000
00001000
00000000
,
00100000
00001000
00100000
00000000
00010000
00100000
00010000
00000000
01000000
00000000
00000000
00000000
00010000
10000000
00010000
00000000
,
00100000
00000000
00000000
00000000
01000000
00100000
01000000
00000000
10000000
00000000
00100000
00000000
01100000
00000000
00000000
00000000
,
01000000
00000000
01000000
00000000
00010000
00000000
00010000
00000000
01000000
00000000
00001000
00010000
00001000
00000000
00010000
00000010
,
00010000
00000000
00000010
00001000
00000010
00000000
00000100
00000001
00000100
00000000
00000000
00000000
00001001
00000000
00000000
00000000
,
00000001
00000000
00000110
00000000
00001001
00000000
00000000
00000000
00000001
00000000
00000000
00000000
00001000
00000001
00001000
00000000
,
00000010
00000000
00000000
00000000
00000100
00000010
00000100
00000000
00000001
00000000
00000010
00000000
00000110
00000000
00000000
00000000
,
00000100
00000000
00000100
00000000
00001000
00000000
00001000
00000000
00000100
00000000
00010000
00001000
00010000
00000000
00001000
00100000
,
00001000
00000000
00100000
00010000
00100000
00000000
01000000
10000000
01000000
00000000
10000000
00100000
01000000
00000000
00010000
00100000
,
02000000
00000000
00000000
00000000
03000000
00000000
00000000
00000000
10000000
01000000
00100000
00000000
00001000
00000000
00010000
00000000
,
00000000
00000000
00011000
00000000
00011000
00000000
00000000
00000000
00010000
00000010
00001000
00000000
00000010
00000000
00000100
00000000
,
00000000
00000000
00000110
00000000
00000110
00000000
00000000
00000000
00000010
00000000
00000100
00000000
00001000
00010000
00001000
00000000
,
00100000
00010000
00100000
00000000
00001000
00010000
00001000
00000000
00100000
01000000
00010000
00000000
00001000
00000000
00000010
00000100
,
00000010
00000000
00000001
00000000
00001000
00000000
00001000
00000000
00000001
00000100
00000010
00000000
00010000
00000000
00001000
00000000
,
00000000
00000000
00011000
00000000
00011000
00000000
00000000
00000000
00001000
00100000
00010000
00000000
00100000
00000000
01000000
00000000
,
00000000
00000000
01100000
00000000
01100000
00000000
00000000
00000000
00100000
00000000
01000000
00000000
00010000
00001000
00010000
00000000
,
00000010
00000000
00000000
00001000
00000000
00000000
00000010
00000000
00000000
00000000
00000000
00000000
00010000
00000000
00000000
00001000
00000000
00000000
00010000
00000000
00000000
00000000
00000000
00000000
00000010
00000000
00000000
00000000
00000100
00000000
00000000
00000000
00001000
00000000
00000000
00000000
00010000
00000000
00000000
00000000
00100000
00000000
00000000
00000000
01000000
00000000
00000000
00000000
,
00100000
10000000
00010000
00000000
20000000
00000000
00000000
00000000
,
32000000
00000000
03020000
00000000
,
00030000
00000000
00001000
00010000
00002000
00000000
00000000
00000000
,
00003020
00000000
00000032
00000000
,
00000000
00000000
00000003
00000000
00000001
00000010
00000100
00001000
,
00000001
00000100
00000010
00001000
00010000
01000000
00100000
10000000
,
00010000
00100000
01000000
10000000
00010000
00000000
10000000
01000000
,
00010000
00000000
00001000
00000000
00000010
00000000
00000001
00000000
00000010
00000100
00000010
00000100
00000010
00000000
00000000
00000000
,
00000001
00001000
00000001
00001000
00000001
00000000
00000000
00000000
00000100
00000010
00000100
00000010
00000100
00000000
00000000
00000000
,
00001000
00010000
00001000
00010000
00001000
00000000
00000000
00000000
00010000
00000000
00100000
00000000
10000000
00000000
01000000
00000000
,
00010000
00001000
00000010
00000001
00000000
00000001
00001000
00000100
,
00000001
00000000
00000100
00000000
00001000
00000000
00000000
00000000
00000001
00000100
00000000
00001000
00000000
00010000
00100000
00000000
,
00000000
00000000
00100000
00000000
10000000
00000000
00010000
00000000
01000000
00000000
00000000
00100000
00000000
00000000
00100000
00000000
,
10000000
00000000
01000000
00000000
00100000
00000000
00001000
00000000
00010000
00000100
00000000
00010000
00000100
00000000
00001000
00000000
,
00000010
00000100
00000010
00000100
00000010
00000000
00001000
00000000
00000001
00000000
00000100
00000000
00001000
00000000
00010000
00000000
,
00100000
00000000
10000000
00000000
00010000
00000000
00000000
00000000
10000000
01000000
00100000
00010000
10000000
00000000
00000000
00000000
,
00000000
00000000
10000000
00000000
00100000
00000000
00010000
00000000
00001000
00010000
00001000
00010000
00001000
00010000
00000000
00002000
,
00000000
00000000
00010000
00000000
00013000
00000000
00000000
00000000
00010000
00001000
00000000
00001000
00010000
00000000
00000100
00000000
,
00001000
00000010
00000000
00000010
00001000
00000000
00000001
00000000
00000100
00001000
00000000
00001000
00010000
00000000
00100000
00000000
,
00000000
00100000
10000000
00000000
00010000
10000000
01000000
00010000
,
00001000
00000010
00000100
00010000
00001000
00000100
00000001
00000010
,
00001000
00010000
01000000
10000000
00010000
10000000
00100000
00010000
,
00001000
00000100
00000010
00010000
00001000
00000010
00000001
00000100
,
00001000
00010000
00100000
10000000
01000000
00010000
00001000
00000010
,
00001000
00010000
00100000
00010000
00001000
00000100
00001000
00010000
,
01000000
00010000
00001000
00000010
00000001
00000100
00000010
00000110
,
00000000
00000100
00000010
00010000
00001000
00010000
00001000
00101000
,
00000000
00000000
00100000
00000000
00010000
00000000
01000000
00000000
00100000
10000000
00000000
00100000
10000000
00000000
00100000
10000000
,
00000000
00000000
10000000
00000000
01000000
00000000
00010000
00000000
00001000
00010000
00000000
00001000
00010000
00000000
00001000
00010000
,
00000000
00010000
00000100
00001000
00000010
00000100
00000001
00000010
,
00000001
00000000
00000100
00000010
00001000
00000000
00000100
00000000
00000001
00000000
00000100
00000000
00010000
00000000
00000100
00000000
,
00000010
00000100
00000010
00000000
00000001
00000000
00000000
00000000
00000010
00000001
00000000
00000010
00000001
00000000
00000010
00000001
,
00000000
00000000
00000001
00000000
00000100
00000000
00001000
00000000
00010000
00001000
00000000
00010000
00001000
00000000
00010000
00001000
,
00000000
00001000
01000000
00010000
00100000
01000000
10000000
00100000
,
10000000
00000000
01000000
00100000
00010000
00000000
01000000
00000000
10000000
00000000
01000000
00000000
00001000
00000000
01000000
00000000
,
00100000
01000000
00000000
00100000
00000000
00010000
00000000
00001000
00020000
00000000
00000000
00000000
00000000
00000000
00000000
00000000
,
00000000
00000000
00000000
00000000
,
00000000
00000000
00030000
00000000
,
00000000
00000000
00000000
00000000
;
#NOTES:
     dance-double:
     :
     Challenge:
     17:
     :
00000000
00000000
00000000
00000000
,
00000000
00000000
00000000
00000000
,
00000000
00000000
00000000
00000000
,
00000000
00000000
00000000
00000000
,
00000000
00000000
00000000
00000000
,
00000000
00000000
00000000
00000000
,
00000000
10000000
00100000
10000000
01000000
00100000
00010000
00100000
,
00001000
00001000
00010000
00010000
00000010
00001000
00000002
00000000
,
00000003
00000001
00000100
00000010
00001000
00010000
01000000
00100000
,
10000000
01000000
00010000
01000000
20000000
00000000
00000000
00000000
,
00000000
00000000
30010000
10000000
00000000
00000000
00000000
00000000
,
10000000
00000000
01000000
00000000
00100000
00000000
00010000
00000000
10000000
00000000
10000000
00000000
10000000
00100000
00000000
00000000
,
01000000
00000000
01000000
00000000
01000000
00010000
00000000
00000000
00100000
00000000
00100000
00000000
00100000
00001000
00000000
00000000
,
00010000
00000000
00010000
00000000
00010000
00000100
00000000
00000000
00000100
00000000
00000100
00000000
00000100
00010000
00000000
00000000
,
00000010
00000000
00000010
00000000
00000010
00001000
00000000
00000000
00000001
00000000
00000001
00000000
00000001
00000100
00000000
00000000
,
00000001
00000010
00000001
00000010
00000100
00001000
00000100
00001000
00000001
00000000
00000100
00000010
00001000
00000000
00000100
00000010
,
00000001
00000000
00000100
00000010
00001000
00000000
00000100
00000010
00000001
00000000
00000100
00000010
00001000
00000000
00000100
00010000
,
00001000
00000000
00100000
00000000
00010000
00000000
01000000
00000000
00010000
00000000
00100000
01000000
10000000
00000000
00100000
01000000
,
00010000
00000000
00100000
01000000
10000000
00000000
00100000
01000000
00010000
00000000
00100000
01000000
00010000
00000000
00001000
00010000
,
00001000
00010000
00011000
00000000
00020000
00000000
00000000
00000000
,
00000000
00000000
00032000
00000000
,
00000000
00000000
00003020
00000000
,
00000000
00000000
00000032
00000000
,
00000000
00000000
00000000
00000000
00000000
00000000
00000000
00000000
00001003
00000000
00000100
00000000
00000000
00000000
00001000
00000010
,
00001000
00000000
00001010
00000000
00000010
00000100
00000000
00000100
,
00001000
00010000
00100000
10000000
00010000
00010000
00100000
00100000
,
01000000
00000000
00010000
00000000
00001000
00000000
00000000
00000000
00011000
00000000
00000000
00001000
00010000
00000000
00001000
00000000
,
00022000
00000000
00033000
00000000
00000000
00011000
00000000
00001100
,
00000000
00000110
00000000
00001001
00000000
00000011
00000000
00001100
,
00000000
00000110
00001001
00000000
00000000
00000101
00000000
00001100
,
00000000
00000000
00011000
00000000
00000000
00000000
00110000
00000000
01100000
00000000
01100000
00000000
10000000
00010000
01000000
00000000
,
00010000
10000000
01000000
00000000
00100000
00001000
00010000
00000000
00001000
00000000
00000000
00001000
00010000
00000100
00001000
00000100
,
00000010
00000000
00000000
00000010
00000001
00001000
00000010
00001000
00000100
00000000
00010000
00000000
00001000
00000000
00000000
00000000
,
00101000
00000000
00101000
00000000
00110000
00000000
00110000
00000000
00010000
00100000
01000000
00000000
10000000
00100000
01000000
00000000
,
00010000
10000000
01000000
00100000
00010000
00000000
00100000
00001000
00010000
00000000
00000100
00001000
00000100
00000000
00000010
00000001
,
00000100
00000000
00000110
00000000
00001001
00000000
00000000
00000000
00000001
00000000
00000000
00000100
00000010
00000100
00000010
00001000
,
00000010
00000000
00000000
00001000
00000010
00010000
00001000
00010000
00001000
00000000
00010000
00000000
00100000
00000000
00000000
00000000
,
10100000
00000000
10100000
00000000
10010000
00000000
10010000
00000000
00010000
01000000
00010000
01000000
00001000
00010000
00001000
00010000
,
00000010
00001000
00000010
00001000
00000001
00000100
00000001
00000100
00001000
00000000
00010000
00000000
00011000
00000000
00000000
00000000
,
00022000
00000000
00000000
00000000
00033000
00000000
00000000
00000000
00001000
00010000
00100000
00000000
10000000
00000000
01000000
00000000
,
00000000
00000000
01100000
00000000
01100000
00000000
00000000
00000000
01000000
00010000
00001000
00000000
00000010
00000000
00000001
00000000
,
00000000
00000000
00001001
00000000
00001001
00000000
00000000
00000000
00000001
00000100
00000010
00000000
00010000
00001000
00010000
00000100
,
00010000
00001000
00010000
00000100
00010000
00001000
00010000
00000000
00001000
00010000
00001000
00000000
00010000
01000000
10000000
00000000
,
00100000
00000000
00010000
00000000
00001000
00000000
00011000
00000000
00010000
00001000
00000010
00000000
00000001
00000000
00000100
00000000
,
00000000
00000000
00000110
00000000
00000110
00000000
00000000
00000000
00000100
00001000
00010000
00000000
00100000
00000000
10000000
00000000
,
00000000
00000000
10010000
00000000
10010000
00000000
00000000
00000000
10000000
01000000
00100000
00000000
00001000
00010000
00001000
01000000
,
00001000
00000000
00000000
00010000
00000000
00000000
00001000
00000000
00000000
01000000
00000000
00000000
00001000
00000000
00000000
00010000
00000000
00000000
00001000
00000000
00000000
00000000
00000000
00000000
00010000
00000000
00000000
00000000
00001000
00000000
00000000
00000000
00010000
00000000
00000000
00000000
00001000
00000000
00000000
00000000
00000100
00000000
00000000
00000000
00000001
00000000
00000000
00000000
,
00000010
00001000
00010000
00000000
00001000
00010000
00001000
00010000
,
01000000
00000000
00100000
00010000
02000000
00000000
00000000
00000000
,
03000000
00000000
01000000
00100000
10000000
01000000
00000000
01000000
,
00020000
00032000
00003010
00000011
,
00001001
00000000
00000001
00000100
00001000
00000100
00001000
00010000
,
00001000
00010000
00100000
00010000
00100000
10000000
00010000
00100000
,
01000000
00000000
10000000
01000000
00020000
00000000
00030000
00010000
,
00001000
00000000
00000010
00000001
00000010
00000000
00000001
00000000
00000001
00000100
00001000
00010000
00100000
00000000
00000000
00000000
,
10000000
00010000
10000000
00010000
10000000
00000000
00000000
00000000
10000000
01000000
00010000
00001000
00000010
00000000
00000000
00000000
,
00000001
00001000
00000001
00001000
00000001
00000000
00000000
00000000
00000001
00000010
00000100
00001000
00000100
00010000
00001000
00010000
,
00001000
00100000
00010000
00100000
01000000
10000000
00010000
10000000
00000000
00000000
10000000
00000000
00100000
00000000
00100000
00000000
,
00010000
00000000
00010000
00000000
00001000
00000000
00001000
00000000
00010000
00010000
00000000
00001000
00000000
00011000
00011000
00000000
,
00000000
00000000
00010000
00000000
00001000
00000000
00000100
00000000
00000002
00000000
00000000
00001000
00000000
00000000
00001000
00000000
,
00000023
00000000
00000032
00000000
00002003
00000000
00003200
00000000
00010300
00001000
00000000
00001000
00100000
00000000
00010000
00000000
,
10000000
01000000
10000000
01000000
00100000
00000000
00010000
00000000
10000000
01000000
00010000
00000000
00001000
00000010
00000001
00000000
,
00000100
00000000
00000010
00000000
00000110
00000000
00000110
00000000
00000001
00000100
00001000
00010000
00100000
00000000
00000000
00000000
,
00000000
00000000
10000000
00000000
00100000
00000000
01000000
00000000
00010000
10000000
01000000
00100000
00010000
00100000
00000000
00002000
,
00000000
00000000
00010000
00000000
00013000
00000000
00000000
00000000
00010000
00000100
00000000
00000100
00001000
00000000
00000010
00000000
,
00000100
00000001
00000100
00000001
00000010
00000000
00000100
00000000
00010000
00001000
00000000
00001000
00010000
00001000
01000000
00000000
,
00001000
00000000
01000000
00000000
10000000
00000000
01000000
00000000
00100000
10000000
01000000
00000000
00100000
00010000
01000000
00000000
,
00100000
10000000
01000000
00000000
00100000
00001000
00010000
00000000
00001000
00010000
00000100
00001000
00000010
00000100
00000010
00001000
,
00000100
00010000
00001000
00010000
00000100
00001000
00000010
00000000
00000100
00000001
00000010
00000000
00000100
00001000
00000010
00000000
,
00000100
00000001
00000010
00000000
00000100
00010000
00001000
00000000
00010000
00001000
00100000
00010000
01000000
00100000
01000000
00010000
,
00100000
01000000
01100000
00000000
00000000
11000000
00000000
01010000
,
00000000
00011000
00000000
00001010
00000000
00000011
00000000
00000101
,
00000000
00000000
00000110
00000000
00001001
00000000
00000000
00000000
00000001
00000000
00000100
00000010
00000100
00000000
00001000
00000000
,
00010000
00000000
00100000
01000000
00200000
00000000
00000000
00000000
10300000
00000000
01000000
00100000
01000000
00000000
00010000
00000000
,
00001000
00000000
00000010
00000100
00000020
00000000
00000000
00000000
00000031
00000100
00000000
00001000
00000100
00000000
00000010
00000100
,
00000000
00000000
00000010
00000000
00000100
00000000
00001000
00000000
00010000
00100000
00000000
10000000
00100000
00000000
01000000
00100000
,
00000000
00000000
01000000
00000000
00010000
00000000
10000000
00000000
01000000
00100000
01000000
00000000
00010000
00000000
00001000
00000000
,
00000010
00000000
00000100
00001000
00000100
00000000
00010000
00000000
00000010
00000000
00000100
00000000
00001000
00000000
00010000
00000000
,
00100000
01000000
00100000
10000000
00100000
00000000
00000000
00000000
10000000
01000000
00000000
00010000
01000000
00000000
00100000
01000000
,
00000000
00000000
00100000
00000000
01000000
00000000
00010000
00000000
00001000
00000010
00000000
00000001
00000010
00000000
00000100
00000010
,
00000000
00000000
00000100
00000000
00001000
00000000
00000001
00000000
00000100
00000010
00000100
00000000
00001000
00000000
00010000
00000000
,
00100000
00000000
01000000
00010000
01000000
00000000
00001000
00000000
00100000
00000000
01000000
00000000
00010000
00000000
00001000
00000000
,
00000010
00000100
00000000
00010000
00000000
00010000
00000000
00001000
00020000
00000000
00000000
00000000
00000000
00000000
00000000
00000000
,
00000000
00000000
00000000
00000000
,
00000000
00000000
00030000
00000000
,
00000000
00000000
00000000
00000000
;
