
//----- song ID: knyo -----//
#TITLE:Knock Yourself Out XD;
#ARTIST:Porter Robinson;
#BANNER:Knock Yourself Out XD.png;
#BACKGROUND:Knock Yourself Out XD-bg.png;
#CDTITLE:./CDTitles/DDR WORLD.png;
#MUSIC:Knock Yourself Out XD.ogg;
#SAMPLESTART:45.334;
#SAMPLELENGTH:15;
#BPMS:0=87;
#NOTES:
     dance-single:
     :
     Beginner:
     2:
     :
0000
0000
0000
0000
,
0000
0000
0000
0000
,
0000
0000
0000
0000
,
1000
0000
0000
0000
,
1000
0000
0000
0000
,
0001
0000
0000
0000
,
0001
0000
0000
0000
,
0010
0000
0000
0000
,
1001
0000
0000
0000
,
0001
0000
0000
0000
,
1000
0000
0000
0000
,
0010
0000
0000
0000
,
1000
0000
0000
0000
,
0001
0000
0000
0000
,
1000
0000
0000
0000
,
0002
0000
0003
0000
,
1001
0000
0000
0000
,
1000
0000
1000
0000
,
0001
0000
0000
0000
,
0001
0000
0001
0000
,
1000
0000
0000
0000
,
1000
0000
1000
0000
,
0010
0000
0000
0000
,
0001
0000
0001
0000
,
0010
0000
0000
0000
,
1001
0000
0000
0000
,
0100
0000
0000
0000
,
0100
0000
0000
0000
,
0001
0000
0000
0000
,
0002
0000
0003
0000
,
2000
0000
3000
0000
,
0020
0000
0030
0000
,
2000
0000
3000
0000
,
0001
0000
0001
0000
,
1000
0000
1000
0000
,
0010
0000
0010
0000
,
1000
0000
1000
0000
,
0002
0000
0003
0000
,
2000
0000
3000
0000
,
0002
0000
0003
0000
,
0200
0000
0300
0000
,
0000
0000
0000
0000
;
#NOTES:
     dance-single:
     :
     Easy:
     5:
     :
0000
0000
0000
0000
,
0000
0000
0000
0000
,
0000
0000
0000
0000
,
0001
0010
0001
1000
,
0100
0010
0001
1000
,
1000
0010
1000
0001
,
0100
0001
0100
0010
,
2000
0000
0000
0000
,
3002
0000
1003
0100
,
1000
0001
0100
0001
,
2000
0000
3010
0100
,
0002
0000
0013
0100
,
2000
0000
3100
0010
,
0002
0000
0103
0010
,
2000
0000
3001
0100
,
0020
0000
0230
0000
,
0310
0000
1001
0000
,
1000
0100
1000
0001
,
0002
0000
2003
0010
,
3001
0100
0001
0100
,
0200
0000
0300
0001
,
0001
1000
0001
0010
,
0020
0000
0031
1000
,
0100
1000
0001
0010
,
0002
0000
0003
0000
,
2002
0000
0000
0000
,
0000
0000
0000
0000
,
0000
0000
0000
0000
,
3003
0000
0000
0000
,
0001
1000
0010
0100
,
0001
1000
0100
0010
,
0000
0001
0100
0010
,
1000
0100
0010
0001
,
0000
1000
0010
0100
,
0001
0010
0100
1000
,
0000
0010
0100
0001
,
0010
0100
1000
0000
,
0002
1000
0010
1000
,
0023
0100
0001
0130
,
0002
1000
0100
1000
,
0203
0010
0001
0310
,
0000
0000
0000
0000
;
#NOTES:
     dance-single:
     :
     Medium:
     11:
     :
0000
0000
0000
0000
,
0000
0000
0000
0000
,
0000
0000
0000
0000
1000
0001
2002
3003
,
1000
0000
0010
0000
0010
0100
0001
0000
1001
0000
0001
0000
0020
0000
0031
0000
,
0100
0000
0010
0000
0010
0100
0001
0000
1100
0000
0001
0000
0020
0000
0031
0000
,
0001
0000
0010
0000
0010
0100
1000
0000
1001
0000
1000
0000
0020
0000
1030
0000
,
1001
1100
0020
0031
1001
0101
0020
1030
,
0000
0001
0010
0100
1000
0010
0100
0001
,
2000
0000
3000
0000
0010
0100
0001
0010
,
0100
1000
0001
0010
1000
0001
0100
1000
,
0002
0000
0003
1000
0010
0100
0001
0010
,
0200
0000
0000
0000
0310
0100
0010
0100
2000
0000
0000
0000
3002
0000
0000
0023
,
0000
0000
0000
0031
0010
1000
0001
0100
,
2000
0000
0000
0000
3010
0100
0010
0100
0002
0000
0000
0000
2003
0000
0000
3200
,
0000
0000
0000
1300
0010
0001
1000
0100
,
0002
0000
2003
0000
,
3001
0000
0010
0000
0010
0100
1000
0000
1100
0000
1001
0000
0001
0200
0000
0000
,
0310
1000
0001
0100
2100
3000
0102
0003
,
0021
0000
0030
0000
0010
0001
1000
0010
,
0001
0010
1000
0020
0000
1030
0002
0000
,
0203
0000
0000
0000
0000
0000
0000
0000
0300
0000
0000
0000
0010
1000
0000
0000
,
0001
0010
1000
0010
0002
0000
0023
0000
,
2030
0000
3000
0000
0010
0001
1000
0010
,
0001
1000
0100
0001
0010
1000
0002
0000
,
0203
0000
0000
0000
0300
0010
0001
2000
,
0000
0000
0000
0002
0000
0000
0000
0000
,
3003
0000
0000
0000
,
0000
0000
0000
0000
,
1100
0000
0000
0011
0000
0000
1010
0000
0000
2002
0000
3003
0000
0001
1000
0001
,
0000
0000
1001
0000
0002
0000
0013
0100
1000
0001
1000
0002
0000
0103
0010
1000
,
0001
0000
1001
0000
2000
0000
3010
0100
0001
1000
0001
2000
0000
3100
0010
0000
,
1001
0000
0002
0000
0023
0000
0130
1000
0001
0010
0000
0020
0000
0130
1000
0001
,
1000
0000
0002
0000
0203
0000
0310
1000
0001
0100
0010
2000
0000
3001
0010
0000
,
0011
0000
0020
0000
0230
0000
1300
0010
0100
0001
0010
0200
0000
1300
0020
0000
,
0130
0000
0101
0000
0021
0000
0130
1000
0001
0100
1000
0100
0000
0100
0001
0000
,
1001
0000
1020
0000
0230
0000
0301
0010
1000
0010
0000
0010
0000
0010
0001
1000
,
0001
0000
0100
0000
0010
1000
0010
0001
0010
1000
0001
0000
0000
0000
0020
0000
,
0200
0000
0000
0330
,
1000
0000
0010
0000
0010
0100
0001
0000
1100
0000
0001
0000
0020
0000
0031
0000
,
0001
0000
0010
0000
0010
0100
1000
0000
1001
0000
1000
0000
0020
0000
1030
0000
,
1001
1100
0020
0031
1001
0101
0020
0130
,
0000
0000
0000
0000
;
#NOTES:
     dance-single:
     :
     Hard:
     13:
     :
0000
0000
0000
0000
,
0000
0000
0000
0000
,
0000
0000
0000
0000
0000
0000
0000
0000
0000
0000
0000
0000
1000
1000
0001
0001
,
1001
0000
0011
0000
0011
0001
1001
0000
1100
0000
0101
0000
0021
0000
0130
0000
,
1100
0000
1010
0000
1010
1000
1001
0000
0101
0000
1100
0000
1020
0000
0130
0000
,
1001
0000
0011
0000
0011
0001
1001
0000
1100
0000
0101
0000
1020
0000
0130
0000
,
0101
0000
1100
0000
0021
0000
0130
0000
1100
0000
0101
0000
0001
0001
1000
1000
,
0000
1100
0021
0130
1002
0103
2010
3001
,
0001
0100
0001
0100
0001
1000
0001
1000
1100
0000
0101
0000
0011
0000
1010
0000
,
1002
0023
1000
0031
1020
0100
0001
1030
,
1000
0100
1000
0100
1000
0001
1000
0001
0011
0000
1010
0000
1100
0000
0101
0000
,
0002
0000
0000
0000
0013
0010
0100
0100
0020
0000
0000
0130
2000
0000
0000
3002
,
0000
0000
0003
1001
0011
1100
1010
0101
,
2001
0000
0000
0000
3010
0010
0100
0100
0020
0000
0000
0000
2030
0000
0000
3002
,
0000
0000
0003
1001
0101
1010
1100
0011
,
0001
0010
0001
0010
0100
1000
0100
1000
0010
1000
0010
1000
0001
0100
0001
0100
,
0101
0000
1010
0000
0011
0001
1001
0000
1200
0300
0201
0300
0001
0200
0000
0000
,
0301
1000
0100
1000
0001
0100
0001
1000
0010
1000
0010
1000
0010
0100
0010
0100
,
0001
1000
0100
0010
0001
1000
0010
0100
0010
1000
0001
0010
0100
1000
0001
0100
,
0001
1000
0010
1000
0001
0010
0001
1000
0010
0100
0010
0100
0001
0100
0001
0100
,
0001
1000
0010
0100
0001
1000
0100
0010
0100
1000
0001
0100
0010
1000
0001
0010
,
0001
1000
0010
1000
0001
0010
0001
1000
0010
0100
0010
0100
0010
0001
0010
0001
,
0010
0100
0001
1000
0100
0010
0001
1000
0010
1000
0100
1000
0001
0010
0001
0100
,
0010
1000
0001
0010
1000
0010
0001
1000
0010
0100
0001
1000
0100
0001
0100
0010
,
0001
1000
0010
0100
0001
1000
0001
1000
0002
0000
0000
0000
0003
0000
0000
0000
,
2000
0000
3002
0000
0013
0100
0000
0000
0020
0000
0230
0000
1300
0001
0000
0000
,
2000
0000
0000
0000
3002
0000
1003
0100
0010
0000
0100
0000
0000
0000
0100
0000
0020
0000
0000
0000
0130
1000
0100
0000
1100
0000
0000
0000
1001
0000
0000
0000
,
2000
0000
0000
0000
3002
0000
0000
0000
0013
0000
0010
0000
0000
0000
0010
0100
0020
0000
0000
0000
0230
0000
0000
0000
1300
0000
1000
0100
0010
0000
0010
0000
,
0001
0000
0000
1100
0000
0000
1010
0000
0220
0330
2002
3003
0000
1000
0010
0001
,
1000
0000
1100
0000
0101
0000
0001
0010
1000
0010
0001
0010
1000
0010
0001
0001
,
0100
0010
1000
0001
1000
0100
0001
0100
1000
0100
0001
0100
1000
0001
0100
0100
,
0001
0000
2000
0000
3002
0000
0013
0100
0010
0001
0000
1002
0000
1003
0010
0100
,
0001
1000
0002
0000
2003
0000
3100
0001
1000
0010
0001
0200
0000
1300
0001
0010
,
1000
0000
0000
0000
1000
0001
0000
0000
0002
0000
0000
0000
0013
0000
0100
0000
1000
0000
0010
0000
0100
0000
0002
0000
0000
0000
0013
0000
0100
0000
1000
0000
,
0001
0000
0000
0000
0100
0000
0000
0000
0200
0000
0000
0000
0301
0000
0010
0000
0100
0000
1000
0000
1000
0001
2000
0000
0000
0000
3001
0000
0001
0000
0010
0000
,
0100
0000
0020
0000
0230
0000
0310
0100
0110
0110
0000
0020
0000
0130
1000
0001
,
1001
1000
0002
0000
0013
0100
0110
1000
0010
0100
0110
0000
0000
0000
0002
0000
,
1003
0000
0011
0000
0110
0100
1100
0000
0101
0000
1100
0000
0021
0000
0130
0000
,
1100
0000
1010
0000
0110
0100
0101
0000
1100
0000
0101
0000
1020
0000
0130
0000
,
1001
0000
0011
0000
0110
0100
1100
0000
0101
0000
1100
0000
0021
0000
0130
0000
,
1100
0101
1020
0130
0101
1100
0021
1030
,
0000
0000
0000
0000
;
#NOTES:
     dance-double:
     :
     Easy:
     6:
     :
00000000
00000000
00000000
00000000
,
00000000
00000000
00000000
00000000
,
00000000
00000000
00000000
00000000
,
00010000
00001000
00000100
00000001
,
00000001
00000010
00001000
00010000
,
00001000
00010000
01000000
10000000
,
10000000
00100000
00010000
00001000
,
00020000
00000000
00000000
00000000
,
00032000
00000000
00003100
00000001
,
00000010
00001000
00010000
01000000
,
00200000
00000000
01300000
10000000
,
00200000
00000000
01300000
00010000
,
20000000
00000000
31000000
00010000
,
00002000
00000000
00003010
00000001
,
00000200
00000000
00000310
00001000
,
00000200
00000000
00000320
00000000
,
00000130
00000000
00001001
00000000
,
00000001
00000100
00001000
00010000
,
00002000
00000000
00013000
00010000
,
00001000
00010000
01000000
10000000
,
00020000
00000000
00030000
00100000
,
00001000
00010000
00000100
00000010
,
00000020
00000000
00000031
00001000
,
00000010
00000100
00001000
00010000
,
00002000
00000000
00003000
00000000
,
00022000
00000000
00000000
00000000
,
00000000
00000000
00000000
00000000
,
00000000
00000000
00000000
00000000
,
00033000
00000000
00000000
00000000
,
00001000
00010000
00100000
01000000
,
00010000
10000000
01000000
00100000
,
01000000
00010000
00001000
00000010
,
00000001
00001000
00000010
00000100
,
00000001
00001000
00000010
00000100
,
00001000
00010000
00100000
01000000
,
00010000
10000000
01000000
00010000
,
00001000
00000010
00000001
00000100
,
00000020
00000100
00001000
00000100
,
00002030
00000001
00000100
00000001
,
00003200
00001000
00000010
00001000
,
00000320
00000001
00000100
00000031
,
00000000
00000000
00000000
00000000
;
#NOTES:
     dance-double:
     :
     Medium:
     11:
     :
00000000
00000000
00000000
00000000
,
00000000
00000000
00000000
00000000
,
00000000
00000000
00000000
00000000
00010000
00001000
00022000
00033000
,
00001000
00000000
00100000
00000000
00100000
00010000
10000000
00000000
01000000
00000000
00100000
00000000
00002000
00000000
00013000
00000000
,
00000100
00000000
00000010
00000000
00000010
00000001
00001000
00000000
00000100
00000000
00001000
00000000
00000020
00000000
00000130
00000000
,
00001000
00000000
00010000
00000000
00100000
10000000
00010000
00000000
01000000
00000000
00100000
00000000
00020000
00000000
00031000
00000000
,
00000100
00000001
00000020
00000130
00010000
00001000
00200000
01300000
,
00000000
10000000
00100000
01000000
00001000
00010000
00000100
00000010
,
00000002
00000000
00000003
00000000
00000010
00000100
00001000
00000010
,
00000100
00001000
00010000
00100000
10000000
01000000
00010000
00001000
,
00000020
00000000
00000030
00000001
00000100
00001000
00010000
00100000
,
20000000
00000000
00000000
00000000
30100000
01000000
00100000
01000000
00200000
00000000
00000000
00000000
00320000
00000000
00000000
00032000
,
00000000
00000000
00000000
00013000
00000010
00001000
00000001
00000100
,
00000002
00000000
00000000
00000000
00000013
00000100
00000010
00000100
00000020
00000000
00000000
00000000
00002030
00000000
00000000
00023000
,
00000000
00000000
00000000
00031000
00100000
00010000
10000000
01000000
,
00020000
00000000
00032000
00000000
,
00013000
00000000
00000010
00000000
00000010
00000100
00000001
00000000
00001001
00000000
00001100
00000000
00001000
00000200
00000000
00000000
,
00000310
00001000
00010000
01000000
21000000
30000000
10200000
00300000
,
02100000
00000000
03000000
00000000
00100000
10000000
00010000
00100000
,
00001000
00010000
00000010
00002000
00000000
00003001
00000200
00000000
,
00000320
00000000
00000000
00000000
00000000
00000000
00000000
00000000
00000030
00000000
00000000
00000000
00000010
00001000
00000000
00000000
,
00000001
00000010
00001000
00010000
02000000
00000000
03200000
00000000
,
00302000
00000000
00003000
00000000
00100000
00010000
10000000
00100000
,
01000000
00001000
00010000
00000010
00000100
00000010
00002000
00000000
,
00003002
00000000
00000000
00000000
00000003
00000010
00000100
00002000
,
00000000
00000000
00000000
00000002
00000000
00000000
00000000
00000000
,
00003003
00000000
00000000
00000000
,
00000000
00000000
00000000
00000000
,
00001100
00000000
00000000
00000011
00000000
00000000
00001010
00000000
00000000
00002002
00000000
00003003
00000000
00000001
00001000
00000001
,
00000000
00000000
00001001
00000000
00002000
00000000
00003010
00000100
00000001
00001000
00000010
00020000
00000000
00031000
01000000
00100000
,
10000000
00000000
10010000
00000000
00020000
00000000
00130000
01000000
10000000
00010000
00100000
00002000
00000000
00013000
00000010
00000000
,
00001001
00000000
00000002
00000000
00002003
00000000
00003010
00010000
00001000
00100000
00000000
00200000
00000000
00310000
10000000
00100000
,
01000000
00000000
00020000
00000000
02030000
00000000
03100000
10000000
00010000
01000000
00001000
00020000
00000000
00030010
00001000
00000000
,
00001001
00000000
00000002
00000000
00002003
00000000
00003010
00010000
00001000
00100000
00001000
00020000
00000000
00030100
00002000
00000000
,
00003001
00000000
00000101
00000000
00001020
00000000
00010030
00001000
00100000
00010000
10000000
01000000
00000000
01000000
00100000
00000000
,
00110000
00000000
10020000
00000000
02030000
00000000
03001000
00010000
00000010
00001000
00000000
00001000
00000000
00001000
00000010
00000100
,
00000001
00000000
00001001
00000000
00001000
00000100
00010000
00001000
00100000
00010000
10000000
00000000
00000000
00000000
00200000
00000000
,
02000000
00000000
00000000
03300000
,
01000000
00000000
00100000
00000000
00100000
10000000
00010000
00000000
01000000
00000000
00010000
00000000
00200000
00000000
01300000
00000000
,
00010000
00000000
00001000
00000000
00000010
00000001
00001000
00000000
00000100
00000000
00000010
00000000
00002000
00000000
00013000
00000000
,
01000000
10000000
00200000
01300000
00010000
00001000
00000020
00000130
,
00000000
00000000
00000000
00000000
;
#NOTES:
     dance-double:
     :
     Hard:
     13:
     :
00000000
00000000
00000000
00000000
,
00000000
00000000
00000000
00000000
,
00000000
00000000
00000000
00000000
00000000
00000000
00000000
00000000
00000000
00000000
00000000
00000000
00010000
00010000
00001000
00001000
,
00011000
00000000
00010010
00000000
00000110
00000100
00000101
00000000
00001010
00000000
00011000
00000000
02010000
00000000
13000000
00000000
,
01010000
00000000
10100000
00000000
10010000
00010000
00110000
00000000
00011000
00000000
00001100
00000000
00001020
00000000
00000031
00000000
,
00001010
00000000
00000011
00000000
00001001
00000001
00000101
00000000
00001100
00000000
00011000
00000000
00210000
00000000
10300000
00000000
,
01100000
00011000
00001020
00000031
00000110
00011000
00210000
10300000
,
20010000
30200000
00320000
00032000
00003020
00002030
00023000
00230000
,
02300000
00000000
00000000
00000000
03100000
00010000
00001000
00000100
,
00000001
00000002
00000023
00002030
00010000
00000100
00000001
00000010
,
00020000
00000000
00030000
00010000
00000010
00000001
00000100
00023000
,
02030000
00000000
00000000
00000000
03100000
00100000
01000000
01000000
00200000
00000000
00000000
00000000
00302000
00000000
00000000
00023000
,
00000000
00000000
00030000
00000200
00000320
00002030
00023000
00230000
,
02300000
00000000
00000000
00000000
03100000
00100000
01000000
01000000
00200000
00000000
00000000
00000000
00320000
00000000
00000000
00032000
,
00000000
00000000
00003000
00000100
00000010
00010000
00001000
00100000
,
02000000
00000000
00000000
00000000
00000000
13000000
00100000
00020000
00000000
00000000
00000000
00000000
00031000
00000000
00000000
00000000
,
00001100
00000000
00000101
00000000
00001001
00001000
00001100
00000000
00010100
00000000
01001000
00000000
20010000
00000000
00000000
00000000
,
30010000
01000000
00010000
01000000
00001000
00010000
00001000
00010000
00000200
00000000
00000000
00000000
00002300
00000000
00000000
00000000
,
00003020
00000000
00000000
00000000
00000000
00000000
00000030
00000000
00000010
00001000
00000100
00010000
00001000
01000000
00010000
10000000
,
00200000
00000000
20300000
00000000
30010000
01000000
00002000
00000000
00000000
00013000
00000020
00000000
00000230
00000000
00000000
00000000
,
00000302
00000000
00000000
00000000
00000000
00000000
00000000
00000000
00000003
00000000
00000000
00000000
00001000
00000200
00000000
00000000
,
00000310
00001000
00010000
01000000
10000000
00100000
00010000
00001000
00000200
00000000
00000000
00000000
00002300
00000000
00000000
00000000
,
00023000
00000000
00030000
00000000
00200000
00320000
00032000
00003020
,
00020030
00032000
02003000
03020000
20030000
30200000
00302000
00000000
,
00023000
00000000
00000000
00030000
00000000
00000000
00000000
00000000
,
00000020
00000000
00000230
00000000
00001300
00010000
00000000
00000000
00200000
00000000
02300000
00000000
03001000
00010000
00000000
00000000
,
00000020
00000000
00000000
00000000
00000230
00000000
00000301
00001000
00000100
00000000
00000100
00000000
00000000
00000000
00000100
00000000
00000020
00000000
00000000
00000000
00000130
00001000
00000100
00000000
00001100
00000000
00000000
00000000
00001001
00000000
00000000
00000000
,
00000002
00000000
00000000
00000000
00002003
00000000
00000000
00000000
00003010
00000000
00000010
00000000
00000000
00000000
00000010
00001000
00000020
00000000
00000000
00000000
00020030
00000000
00000000
00000000
00031000
00000000
00100000
00010000
10000000
00000000
10000000
00000000
,
00010000
00000000
00000000
11000000
00000000
00000000
10100000
00000000
02200000
03300000
20020000
30030000
00000000
10000000
00100000
00010000
,
00001000
00000000
00001010
00000000
00000011
00000000
00000001
00000010
00001000
00010000
00001000
00000100
00000001
00000010
00001000
00010000
,
01000000
10000000
00010000
00000000
10000000
01000000
00010000
00001000
00010000
00100000
10000000
01000000
00010000
00001000
00000010
00000001
,
00000100
00000000
00002000
00000000
00003200
00000000
00000310
00000100
00000010
00001000
00000000
00001002
00000000
00000013
00001000
00010000
,
01000000
10000000
02000000
00000000
03020000
00000000
00031000
00000100
00000010
00010000
00001000
02000000
00000000
03100000
00010000
00001000
,
00000100
00000000
00000001
00000000
00002000
00000000
00003100
00000001
00001000
00000010
00010000
00002000
00000000
00003100
00000010
00000001
,
00001000
00000001
00000100
00000000
00000200
00000000
00001300
00000100
00010000
00001000
00100000
00020000
00000000
10030000
01000000
00100000
,
10000000
00000000
20000000
00000000
30020000
00000000
00032000
00000000
00003001
00000001
00000000
00000020
00000000
00000130
00010000
00001000
,
00100000
01000000
00020000
00000000
00031000
00000010
00001000
00010000
00001000
00000100
00000001
00000000
00000000
00000000
00000020
00000000
,
00000130
00000000
00001100
00000000
00001001
00001000
00001010
00000000
00000110
00000000
00011000
00000000
02010000
00000000
13000000
00000000
,
01010000
00000000
00110000
00000000
10010000
00010000
00110000
00000000
00011000
00000000
00001100
00000000
00001020
00000000
00000031
00000000
,
00000110
00000000
00001010
00000000
00001001
00000001
00000011
00000000
00001010
00000000
00011000
00000000
00210000
00000000
10300000
00000000
,
01100000
00011000
00001020
00000031
00000110
00011000
00210000
10300000
,
00000000
00000000
00000000
00000000
;
