
//----- song ID: kiun -----//
#TITLE:きらきら☆ユニバース;
#ARTIST:nagomu tamaki feat. ぽめ;
#TITLETRANSLIT:Kirakira universe;
#ARTISTTRANSLIT:nagomu tamaki feat. pome;
#BANNER:Kirakira universe.png;
#BACKGROUND:Kirakira universe-bg.png;
#CDTITLE:./CDTitles/DDR WORLD.png;
#MUSIC:Kirakira universe.ogg;
#SAMPLESTART:63.501;
#SAMPLELENGTH:15;
#BPMS:0=155;
#BGSTAGE:5;
#NOTES:
     dance-single:
     :
     Beginner:
     2:
     :
0000
0000
0000
0000
,
0000
0000
0000
0000
,
0000
0000
0000
0000
,
0000
0000
0000
0000
,
0000
0000
0000
0000
,
0001
0000
0000
0000
,
1000
0000
0000
0000
,
0001
0000
0000
0000
,
1001
0000
0000
0000
,
0001
0000
0000
0000
,
1000
0000
0000
0000
,
0010
0000
0000
0000
,
0100
0000
0000
0000
,
0001
0000
0000
0000
,
1000
0000
0000
0000
,
0001
0000
0000
0000
,
0000
0000
0000
0000
,
1000
0000
0000
0000
,
1000
0000
0000
0000
,
0010
0000
0000
0000
,
0010
0000
0000
0000
,
0100
0000
0000
0000
,
0100
0000
0000
0000
,
0001
0000
0000
0000
,
0001
0000
0000
0000
,
1000
0000
0000
0000
,
0010
0000
0000
0000
,
0100
0000
0000
0000
,
0001
0000
0000
0000
,
0010
0000
0000
0000
,
0100
0000
0000
0000
,
1000
0000
0000
0000
,
0010
0000
0000
0000
,
2000
0000
3000
0000
,
2000
0000
3000
0000
,
0002
0000
0003
0000
,
0002
0000
0003
0000
,
1000
0000
0000
0000
,
1000
0000
0000
0000
,
0001
0000
0000
0000
,
1001
0000
0000
0000
,
0020
0000
0000
0000
,
0000
0000
0030
0000
,
1000
0000
0010
0000
,
0010
0000
0000
0000
,
0100
0000
0100
0000
,
0001
0000
0000
0000
,
1000
0000
0010
0000
,
0010
0000
0000
0000
,
1001
0000
0000
0000
,
0001
0000
1000
0000
,
0001
0000
0000
0000
,
0100
0000
0010
0000
,
0100
0000
0000
0000
,
0001
0000
1000
0000
,
0001
0000
0000
0000
,
1001
0000
0000
0000
,
0001
0000
0000
0000
,
1000
0000
0000
0000
,
0010
0000
0000
0000
,
0010
0000
0000
0000
,
0100
0000
0000
0000
,
0001
0000
0000
0000
,
1000
0000
0000
0000
,
0001
0000
0000
0000
,
2000
0000
3000
0000
,
0020
0000
0030
0000
,
0200
0000
0300
0000
,
0002
0000
0003
0000
,
2000
0000
3000
0000
,
0002
0000
0003
0000
,
0200
0000
0300
0000
,
0002
0000
0003
0000
,
2000
0000
0000
0000
,
3000
0000
0000
0000
,
0000
0000
0000
0000
;
#NOTES:
     dance-single:
     :
     Easy:
     8:
     :
0000
0000
0000
0000
,
0000
0000
0000
0000
,
0000
0000
0000
0000
,
0000
0000
0000
0000
,
0000
0000
0000
0000
,
0001
0001
1000
1000
,
0010
0010
0100
0100
,
0001
0001
0010
0100
,
2000
0000
0000
3010
,
1000
0001
0100
0001
,
0001
0010
0100
1000
,
0001
1000
0010
0100
,
0100
0001
1000
1100
,
0100
0010
0001
0100
,
0100
0010
0100
0001
,
0010
0000
0100
0000
1000
0000
0010
0010
,
0000
0100
0100
0000
0001
0000
0000
0000
,
1000
1000
0001
0001
,
0100
0100
0010
0010
,
1000
1000
0100
0100
,
0010
0010
0001
0001
,
1000
1000
0010
0100
,
0001
0001
0100
0010
,
1000
1000
0100
0010
,
0011
0000
0000
0000
0000
0000
0000
1001
,
0000
0001
0100
0010
,
1000
0000
0001
0000
0010
0000
0001
1000
,
0000
0100
1000
0010
,
0100
0001
1000
0100
,
2000
0100
0001
3010
,
0002
0100
1000
0013
,
0001
1000
0010
0100
,
0002
0000
2000
3003
,
0002
0203
0320
0230
,
0302
0023
0230
0320
,
0032
0203
0320
0230
,
0302
0023
0230
2300
,
3001
0101
0010
1010
,
0001
0011
0100
1100
,
0001
0001
0100
0010
,
0220
0000
0000
0330
,
0002
0003
0200
0300
2000
3000
0200
0300
,
0002
0003
0020
0030
0200
0300
0000
0000
,
1001
0100
1001
0010
,
1001
1000
0010
2000
,
3100
0110
0001
0110
,
0001
0010
0100
1000
,
0001
0001
0100
0010
,
1000
1000
0100
0001
,
0110
1001
0001
0010
,
0001
0101
1000
1100
,
0001
0101
1000
1100
,
0001
0101
1000
1100
,
0010
1001
0100
1001
,
0001
0100
0010
0100
,
0001
0000
0001
0000
1000
0000
0010
0200
,
0000
0000
0310
0000
,
1000
0100
0001
0100
,
1000
1000
0010
0100
,
0001
0010
1000
0010
,
0001
0100
0010
1010
,
0101
0001
0010
0100
,
1000
1000
0001
0100
,
0010
0000
1000
0000
0100
0000
1000
1000
,
0000
0001
0001
0000
0100
0000
0000
0000
,
0002
0003
0020
0030
0002
0003
0200
0300
,
0002
0003
2000
3000
0020
0030
0000
0000
,
0200
0300
0200
0300
0002
0003
2000
3000
,
0200
0300
2000
3000
0002
0003
0000
0000
,
2000
3000
2000
3000
0200
0300
0020
0030
,
0002
0003
2000
3000
0020
0030
0000
0000
,
0200
0300
0200
0300
0002
0003
0020
0030
,
0200
0300
2000
3000
0002
0003
0000
0000
,
0200
0000
0000
0000
,
0300
0000
0000
0000
,
0000
0000
0000
0000
;
#NOTES:
     dance-single:
     :
     Medium:
     12:
     :
0000
0000
0000
0000
,
0000
0000
0000
0000
,
0000
0000
0000
0000
,
0000
0000
0000
0000
,
0000
0000
0000
0000
,
0001
0001
1000
1000
,
0001
0100
0010
0000
1000
0000
1100
0000
,
0100
0010
0001
1000
0010
0100
0001
0010
,
0200
0000
0000
0000
1300
0010
0001
0000
,
0010
0100
0001
0100
0010
0000
0000
1000
,
0100
0001
0100
1000
0001
0100
0010
0000
,
1000
0001
0010
0001
1000
0000
0100
1000
,
0001
0001
0100
0100
0010
0010
1000
0000
,
0001
0010
0100
0010
0001
0000
0000
1000
,
0010
0001
0010
1000
0001
0010
0100
0000
,
1000
0001
0100
0001
1000
1000
0010
0100
,
0000
0001
0001
1000
1000
0000
0000
0000
,
0001
0001
0010
0100
,
1000
1000
0010
0100
,
0001
0001
1000
0100
,
0010
0010
0001
1000
,
0001
0100
0001
0100
0001
0000
1000
0100
,
0000
0010
0000
0100
1000
0100
1000
0020
,
0000
0000
0000
0000
0030
0100
0001
1000
,
1010
0000
0000
0000
0010
0100
0001
0011
,
0000
0000
0010
0100
1000
0000
0001
0100
,
0010
0000
0001
0010
1000
0000
0100
0010
,
0000
0001
0100
0000
0010
1000
0001
0010
,
0000
0100
1000
0000
0010
0000
1000
0000
,
0001
0010
0001
0010
0100
1000
0100
1000
,
0000
0001
0000
0100
0000
1000
0100
0001
,
0000
0010
0001
0000
1000
0000
0010
0000
,
1000
0100
0010
0001
1000
0010
0100
0000
,
2000
3200
0302
0023
,
2030
3020
0230
2300
,
3002
0203
0320
0032
,
0023
2030
3200
0302
,
0103
0000
0000
0000
0010
0000
0001
0000
1000
0000
0000
0010
0000
0000
0100
0000
,
0100
0000
0001
0000
0010
0000
0100
0000
1000
0000
0000
0010
0000
0000
1000
0000
,
0100
1000
0010
0100
0001
0010
0100
1000
,
0010
0000
0100
0000
0100
0000
0001
1000
0001
0000
0010
0000
0100
0000
0000
0000
,
2000
0100
0001
0010
,
3002
0100
0013
0000
,
0001
0100
0010
1000
0001
0010
1000
0000
,
0001
0100
1000
0001
0100
0010
2000
0000
,
3100
0010
0100
1000
0001
0100
0010
0100
,
0001
1000
0100
1000
0001
0100
0010
0000
,
0001
0010
1000
0100
0001
0100
1000
0010
,
0100
0000
0100
0000
0001
1000
0001
0000
0010
0000
0100
0000
1000
0000
0000
0000
,
1001
0000
0001
0100
1000
0000
0120
0000
,
0031
0010
1000
0100
0001
0000
0011
0000
,
1100
0000
1001
0000
0001
0100
1000
0000
,
0210
0000
1300
0100
0001
0010
2000
0000
,
3001
0100
1000
0010
0001
0000
0120
0000
,
0031
0010
1000
0100
0001
0000
0110
0000
,
0100
1000
0100
0010
0001
0100
0010
0110
,
0000
0001
0001
1000
1000
0000
0000
0000
,
0010
0100
0001
0100
0010
0000
0000
1000
,
0100
0001
0100
1000
0001
0100
0010
0000
,
1000
0001
0010
0001
1000
0000
0100
1000
,
0001
0001
0100
0100
0010
0010
1000
0000
,
0001
0010
0100
0010
0001
0000
0000
1000
,
0010
0001
0010
1000
0001
0010
0100
0000
,
1000
0001
0100
0001
1000
1000
0010
0100
,
0000
0001
0001
1000
1000
0000
0000
0000
,
0020
0030
0200
0300
0002
0003
0020
0030
,
0200
0300
2000
3000
0002
0003
0000
0000
,
0200
0300
0200
0300
0002
0003
0020
0030
,
0200
0300
2000
3000
0020
0030
0000
0000
,
2000
3000
2000
3000
0002
0003
0020
0030
,
0200
0300
2000
3000
0002
0003
0000
0000
,
0200
0300
0200
0300
0002
0003
2000
3000
,
0200
0300
0020
0030
0002
0003
0000
0000
,
2000
0000
0000
0000
,
3000
0000
0000
0000
,
0000
0000
0000
0000
;
#NOTES:
     dance-single:
     :
     Hard:
     15:
     :
0000
0000
0000
0000
,
0000
0000
0000
0000
,
0000
0000
0000
0000
,
0000
0000
0000
0000
,
0000
0000
0000
0000
,
0002
0023
0230
2300
,
3001
0100
0001
0010
0200
0000
2300
0000
,
3010
0000
0010
0000
0100
0000
0001
0000
1000
0100
1000
0001
0100
0001
0010
0100
,
1000
0000
0000
0000
0000
0000
0001
0000
0100
0000
0001
0000
0100
0000
0000
0010
0000
0000
1000
0000
0000
0001
0000
0000
0010
0000
0000
0000
0000
0000
0100
0000
0000
0000
0000
0000
2000
0000
0000
0000
0000
0000
3000
0000
0000
0000
0000
0000
,
0010
0000
0100
0000
0100
0000
0001
0000
0010
0000
0100
0000
1000
0000
0001
0100
,
0010
0000
0001
0000
0010
0000
1000
0000
1000
0000
0100
0000
0010
0000
0001
1000
,
0001
0000
0100
0000
0100
0000
0010
0000
1000
0000
0000
0000
0100
0000
1000
0100
,
1000
0000
0100
0010
0100
0000
0010
0001
0010
0100
1000
0001
0200
0000
0000
0000
,
0301
0000
0010
0000
0010
0000
0001
0000
1000
0000
0010
0000
0100
0000
0001
0010
,
0100
0001
1000
0010
0001
0001
0100
0010
,
0001
0010
1000
0100
1000
1000
0010
0220
,
0330
0002
0023
0230
2300
3000
0000
0000
,
0001
0100
0001
0100
0001
0100
0001
0010
,
0100
1000
0100
1000
0100
1000
0010
0100
,
0001
0010
0001
0010
0001
0010
0100
1000
,
0010
0100
0010
0100
0010
0100
0010
0000
,
1000
0001
1000
0001
0020
0000
0130
2000
,
0000
3020
0000
1030
0001
0100
0010
0200
,
0000
0000
0000
0000
0000
1300
0100
0001
,
0011
0000
0000
0000
0000
0000
0000
0000
0000
0000
0000
0000
0000
0000
0000
0000
0000
0000
0001
0000
0000
0000
0000
0000
1000
0000
0000
0100
0000
0000
1000
0000
0100
0000
1000
0000
0100
0000
0000
0010
0000
0000
0001
0000
0000
0000
0000
0000
,
0000
0000
1001
1000
0010
0100
0001
0010
,
0010
0100
1000
0100
0010
0001
0100
2000
,
0000
3100
0001
0010
0100
0001
1000
0010
,
0001
0100
0010
0001
0010
1000
0001
0000
,
0100
0001
0100
0001
0010
0100
1000
0010
,
1000
0001
1000
0100
1000
0010
0100
0001
,
0010
0000
0100
1000
0100
0000
0010
0000
0001
1000
0001
0000
0100
0000
0010
0000
,
1000
0001
1000
0001
1000
0100
0010
0001
1000
0001
0100
0010
1000
0000
0000
0000
,
0002
2003
3020
0032
,
0013
0100
0001
0010
2000
0000
3020
0000
,
0032
0203
2300
3200
,
0310
1000
0001
1000
0200
0000
0320
0000
,
0031
0000
0001
0000
1000
0000
0010
0000
0100
0000
0000
0001
0000
0000
1000
0100
,
0010
0000
0010
0000
0001
0000
0001
0000
1000
0000
0000
0010
0000
0000
0100
0001
,
1000
0000
1000
0000
0100
0000
0100
0000
0010
0001
0010
0100
1000
0001
0100
0010
,
1000
0000
0000
0000
0000
0000
0001
0000
1000
0000
0001
0000
1000
0000
0000
0100
0000
0000
0010
0000
0000
0001
0000
0000
1000
0000
0000
0000
0000
0000
0010
0000
0000
0000
0000
0000
0220
0000
0000
0000
0000
0000
0330
0000
0000
0000
0000
0000
,
0200
0300
0002
0003
0020
0030
0200
0300
,
0020
0000
0030
0000
0002
0000
0003
0000
2000
0000
3001
0000
0100
0001
0010
0100
,
1000
0000
0010
0000
1000
0000
0001
0100
0010
0000
1000
0000
0001
0000
1000
0100
,
0010
0000
0001
0000
1000
0000
0001
0100
0001
1000
0100
1000
0020
0000
0000
0000
,
0130
0000
0001
0000
0100
0000
0010
0000
0001
0000
0010
0000
1000
0000
0100
0010
,
0001
0000
1000
0000
0010
0000
0100
0000
1000
0000
0100
0000
0001
0000
0010
0100
,
1000
0000
0010
0000
1000
0000
0001
0000
0100
0000
0001
0000
0010
0000
0100
1000
,
0010
0000
0100
0000
0001
1000
0001
1000
0001
0000
0010
0000
0220
0000
0330
0000
,
2200
0000
3300
0000
0011
0000
0100
0000
1000
0000
0010
0100
0001
0000
1000
0100
,
0010
0000
0001
0000
1000
0000
0010
0000
0100
0000
0001
1000
0100
0000
0010
0001
,
1000
0000
0010
0000
0100
0000
0001
0000
1000
0000
0100
0010
0001
0000
0100
0010
,
1000
0000
0001
0000
0001
0000
0010
0100
1000
0001
1000
0001
0200
0000
0000
0000
,
0310
0000
1000
0100
0010
0000
0100
1000
0001
0000
0100
0010
1000
0000
0001
1000
,
0010
0000
0100
0001
0010
0000
0100
1000
0001
0000
0100
0010
1000
0000
0100
1000
,
0001
0010
0100
1000
0001
0100
0010
0220
,
0330
0002
0023
0230
2300
3000
0000
0000
,
0010
0000
0100
0000
0100
0000
0001
0000
1000
0000
0100
0000
0010
0000
0001
0010
,
0100
0000
0001
0000
0100
0000
1000
0000
1000
0000
0010
0000
0100
0000
0001
1000
,
0001
0000
0010
0000
0010
0000
0001
0000
1000
0000
0000
0000
0010
0000
1000
0100
,
0010
0000
0000
0001
0000
0000
1000
0001
0100
0010
1000
0001
0020
0000
0000
0000
,
0031
0000
0100
0000
0100
0000
0001
0000
1000
0000
0010
0000
0100
0000
0001
1000
,
0001
0010
0100
0100
1000
0010
1000
1000
,
0001
0010
0100
1000
0010
0010
0100
0220
,
0330
0002
0023
0230
2300
0000
3000
0000
,
0002
0003
2000
3000
0020
0030
0200
0300
,
0002
0003
2000
3000
0020
0030
0000
0000
,
0200
0300
0200
0300
0002
0003
0020
0030
,
0200
0300
2000
3000
0002
0003
0000
0000
,
2000
3000
2000
3000
0200
0300
0020
0030
,
0002
0003
0200
0300
0020
0030
0000
0000
,
0200
0300
0200
0300
0002
0003
0020
0030
,
2000
3000
0020
0030
0002
0003
0000
0000
,
0200
0000
0000
0000
,
0300
0000
0000
0000
,
0000
0000
0000
0000
;
#NOTES:
     dance-double:
     :
     Easy:
     7:
     :
00000000
00000000
00000000
00000000
,
00000000
00000000
00000000
00000000
,
00000000
00000000
00000000
00000000
,
00000000
00000000
00000000
00000000
,
00000000
00000000
00000000
00000000
,
00001000
00001000
00010000
00010000
,
00001000
00001000
00010000
00010000
,
00000100
00000010
00000001
00000100
,
00002000
00000000
00013000
00011000
,
00001000
01000000
00010000
00100000
,
01000000
10000000
00100000
00010000
,
00001000
00010000
00000100
00000010
,
00001000
00010000
01000000
01100000
,
00001000
00010000
00000100
00000010
,
00000001
00000100
00001000
00010000
,
00001000
00000000
01000000
00000000
00010000
00000000
00100000
00100000
,
00000000
01000000
01000000
00000000
10000000
00000000
00000000
00000000
,
10000000
10000000
01000000
01000000
,
00010000
00010000
00001000
00001000
,
00000100
00000100
00000001
00000001
,
00000010
00000010
00000100
00000100
,
00001000
00001000
00000010
00010000
,
00001000
00001000
01000000
00100000
,
00010000
00001000
00001000
00010000
,
00011000
00000000
00000000
00000000
00000000
00000000
00000000
00011000
,
00000000
00010000
01000000
10000000
,
00100000
00000000
01000000
00000000
00010000
00000000
00100000
00001000
,
00000000
00010000
00001000
00000100
,
00000001
00000001
00000010
00000100
,
00002000
00000100
00000001
00003010
,
00000002
00000100
00001000
00000013
,
00000100
00001000
00000010
00010000
,
00002000
00000000
00020000
00033000
,
00002000
00023000
00230000
02300000
,
03002000
00023000
02030000
03200000
,
00302000
00023000
00230000
02300000
,
03002000
00023000
02030000
03200000
,
00301000
00010000
00000010
00000100
,
00000001
00000010
00000100
00001100
,
00010000
00010000
00001000
00001000
,
00022000
00000000
00000000
00033000
,
00002000
00003000
00000200
00000300
00000002
00000003
00000020
00000030
,
00002000
00003000
00020000
00030000
00200000
00300000
00000000
00000000
,
01010000
10000000
00110000
00001000
,
00000010
00000001
00000100
00000020
,
00000130
00000100
00000001
00000010
,
00001000
00010000
00001000
01000000
,
00010000
00010000
00100000
01000000
,
10000000
10000000
00100000
00010000
,
00000100
00000110
00000001
00000100
,
00001000
00010000
00100000
00010000
,
00001000
00010000
01000000
10000000
,
01000000
00010000
00001000
00000200
,
00000310
00010000
00001000
00100000
,
00110000
00001000
00000010
00000001
,
00000100
00000000
00000100
00000000
00000010
00000000
00010000
00002000
,
00000000
00000000
00013000
00000000
,
00010000
00000010
00001000
00000100
,
00000010
00000001
00000100
00001000
,
00010000
00001000
00100000
01000000
,
00010000
00001000
00000010
00000110
,
00010000
00001000
01000000
00100000
,
10000000
01000000
00010000
00001000
,
00010000
00000000
00000010
00000000
00000100
00000000
00000001
00000001
,
00000000
00001000
00001000
00000000
00000010
00000000
00000000
00000000
,
00002000
00003000
00002000
00003000
00000020
00000030
00020000
00030000
,
00002000
00003000
00200000
00300000
00020000
00030000
00000000
00000000
,
02000000
03000000
02000000
03000000
00020000
00030000
00200000
00300000
,
00002000
00003000
00020000
00030000
02000000
03000000
00000000
00000000
,
20000000
30000000
20000000
30000000
00200000
00300000
02000000
03000000
,
00002000
00003000
00020000
00030000
00002000
00003000
00000000
00000000
,
00000200
00000300
00000200
00000300
00000002
00000003
00000020
00000030
,
00000200
00000300
00002000
00003000
00000020
00000030
00000000
00000000
,
00020000
00000000
00000000
00000000
,
00030000
00000000
00000000
00000000
,
00000000
00000000
00000000
00000000
;
#NOTES:
     dance-double:
     :
     Medium:
     12:
     :
00000000
00000000
00000000
00000000
,
00000000
00000000
00000000
00000000
,
00000000
00000000
00000000
00000000
,
00000000
00000000
00000000
00000000
,
00000000
00000000
00000000
00000000
,
00001000
00001000
00010000
00010000
,
00000100
00001000
00000010
00000000
00010000
00000000
00010000
00000000
,
00001000
00100000
00010000
01000000
00100000
10000000
01000000
00010000
,
00002000
00000000
00000000
00013000
,
00000010
00001000
00000100
00001000
00000010
00000000
00000000
00010000
,
00001000
00000100
00001000
00010000
00001000
00100000
00010000
00000000
,
10000000
00100000
01000000
00010000
01000000
00000000
00001000
00001000
,
00010000
00010000
00001000
00001000
00000100
00000100
00000010
00000000
,
00010000
00001000
00010000
00001000
00000010
00000000
00000000
00000100
,
00001000
00000010
00000001
00000010
00001000
00000100
00010000
00000000
,
00001000
00010000
01000000
00010000
00001000
00000000
00100000
00110000
,
00000000
00001000
00001000
00010000
00010000
00000000
00000000
00000000
,
00010000
00001000
00000010
00000001
,
00000001
00000100
00001000
00010000
,
00010000
00001000
00100000
01000000
,
10000000
00100000
00010000
00001000
,
00010000
00000100
00010000
00000100
00001000
00000000
00000001
00000100
,
00000000
00000010
00000000
00001000
00000100
00010000
00001000
00020000
,
00000000
00000000
00000000
00000000
00000000
00031000
00010000
00000100
,
00000010
00000000
00000000
00000000
00000001
00000100
00000010
00000110
,
00000000
00000000
00010000
00001000
00100000
00000000
01000000
10000000
,
00100000
00000000
10000000
01000000
00010000
00000000
00000010
00001000
,
00000000
00000100
00010000
00000000
00001000
00000100
00000001
00000010
,
00000000
00000100
00001000
00000000
00000010
00000000
00010000
00000000
,
00001000
00010000
00001000
00010000
00100000
01000000
00100000
01000000
,
00000000
00010000
00000000
10000000
00000000
00010000
10000000
01000000
,
00000000
00100000
00001000
00000000
00010000
00000100
00000010
00000000
,
00000001
00000100
00000001
00000100
00001000
00010000
01000000
00000000
,
20000000
30200000
00320000
00032000
,
00023000
02030000
23000000
32000000
,
03020000
00032000
00003020
00000230
,
00020300
00032000
00003200
00000302
,
00000013
00000000
00000000
00000000
00000001
00000000
00000100
00000000
00000010
00000000
00000000
00010000
00000000
00000000
00000000
00000000
,
00100000
00000000
00010000
00000000
00001000
00000000
00000000
00000000
00000100
00000000
00000000
00000010
00000000
00000000
00000000
00000000
,
00010000
00001000
00100000
00010000
01000000
00100000
00010000
00001000
,
00000010
00000000
00000000
00000000
00000001
00000000
00000010
00000001
00000010
00000000
00000100
00000000
00001000
00000000
00000000
00000000
,
00000020
00000001
00000100
00001000
,
00020030
00001000
00130000
00000000
,
10000000
00100000
01000000
00010000
10000000
01000000
00010000
00000000
,
00001000
00000010
00000001
00000010
00000100
00010000
00002000
00000000
,
01003000
00010000
01000000
00001000
00010000
00000100
00000010
00000000
,
00000001
00000010
00001000
00010000
01000000
10000000
00100000
00000000
,
10000000
00010000
00100000
00001000
00010000
00000100
00000010
00000001
,
00001000
00000000
00000100
00000000
00000010
00000001
00000010
00000000
00000001
00000000
00000100
00000000
00001000
00000000
00000000
00000000
,
00011000
00000000
01100000
00000000
10000000
00100000
00010000
00000000
,
00001000
00000100
00000001
00000010
00001000
00000000
00011000
00000000
,
00010000
00100000
10000000
01000000
,
00010000
01000000
10000000
00100000
00010000
00000000
00002000
00000000
,
00003010
00000001
00000001
00000100
,
00001000
00000100
00000001
00000010
00001000
00000000
00011000
00000000
,
00010000
00100000
01000000
00010000
00100000
00000000
00001000
00011000
,
00000000
00010000
00010000
00001000
00001000
00000000
00000000
00000000
,
00010000
00000100
00001000
00000100
00010000
00000000
00000000
00010000
,
00001000
00000100
00001000
00010000
00001000
00100000
00010000
00000000
,
10000000
00100000
01000000
00010000
01000000
00000000
00001000
00001000
,
00010000
00010000
00001000
00001000
00000100
00000100
00000010
00000000
,
00010000
00001000
00010000
00001000
00000010
00000000
00000000
00000100
,
00001000
00000010
00000001
00000010
00001000
00000100
00010000
00000000
,
00001000
00010000
01000000
00010000
00001000
00000000
00100000
00110000
,
00000000
00001000
00001000
00010000
00010000
00000000
00000000
00000000
,
00020000
00030000
00000200
00000300
00000020
00000030
00000002
00000003
,
00002000
00003000
00000020
00000030
00000200
00000300
00000000
00000000
,
00000200
00000300
00000200
00000300
00000002
00000003
00000020
00000030
,
00002000
00003000
00020000
00030000
00200000
00300000
00000000
00000000
,
00020000
00030000
00002000
00003000
00020000
00030000
02000000
03000000
,
20000000
30000000
00200000
00300000
02000000
03000000
00000000
00000000
,
02000000
03000000
02000000
03000000
00020000
00030000
00200000
00300000
,
00002000
00003000
00000200
00000300
00000020
00000030
00000000
00000000
,
00002000
00000000
00000000
00000000
,
00003000
00000000
00000000
00000000
,
00000000
00000000
00000000
00000000
;
#NOTES:
     dance-double:
     :
     Hard:
     15:
     :
00000000
00000000
00000000
00000000
,
00000000
00000000
00000000
00000000
,
00000000
00000000
00000000
00000000
,
00000000
00000000
00000000
00000000
,
00000000
00000000
00000000
00000000
,
00002000
00203000
00302000
00003020
,
00002030
00023000
00030020
00002030
,
00103000
00000000
00010000
00000000
00001000
00000000
00100000
00000000
00010000
10000000
00010000
01000000
00100000
01000000
00010000
10000000
,
00010000
00000000
10000000
01000000
10000000
01000000
00100000
00010000
00001000
00000000
00000100
00000000
00000002
00000000
00000003
00000000
,
00001000
00000000
00000010
00000000
00000100
00000000
00010000
00000000
00001000
00000000
00000000
00000000
00000000
00000000
00001000
00010000
,
00100000
01000000
00010000
10000000
10000000
01000000
00100000
00010000
,
01000000
00100000
00010000
00001000
00010000
00000000
00010000
00000100
,
00000010
00000000
00000010
00000000
00001000
00010000
00001000
00000000
00010000
00001000
01000000
00001000
00010000
00100000
01000000
00000000
,
00010000
00000000
10000000
00000000
01000000
00000000
00010000
00000000
00001000
00000000
00000000
00000000
00000000
00000000
00010000
00001000
,
00000010
00000100
00010000
00001000
00000100
00000001
00000001
00000010
,
00000100
00001000
00000010
00010000
00001000
00001000
00100000
00220000
,
00330000
00002000
00023000
02030000
23000000
30000000
00000000
00000000
,
00010000
01000000
00010000
01000000
00010000
01000000
00100000
00010000
,
00001000
00000010
00001000
00000010
00001000
00000010
00000100
00001000
,
00000010
00001000
00000010
00001000
00000010
00001000
00000010
00000100
,
00001000
00010000
00001000
00010000
00001000
00010000
00001000
00000000
,
00001000
00010000
01000000
10000000
02000000
00000000
03100000
00002000
,
00000000
00023000
00000000
00031000
00000100
00000010
00001000
00000200
,
00000000
00000000
00000000
00000000
00000000
00000301
00001000
00010000
,
00011000
00000000
00000000
00000000
00000000
00000000
00000000
00000000
00001000
00010000
00001000
00010000
00001000
00010000
00002000
00000000
,
00000000
00003000
00010000
00100000
01000000
00010000
00100000
10000000
,
00100000
00001000
00000010
00000001
00000001
00000100
00001000
00020000
,
00000000
01030000
10000000
00100000
00010000
00001000
00100000
00010000
,
00001000
00000100
00000001
00000100
00001000
00000010
00010000
00000000
,
00001000
00010000
00100000
00010000
00001000
00010000
01000000
10000000
,
00100000
10000000
01000000
00010000
00001000
00000100
00000010
00001000
,
00000001
00000000
00000010
00000001
00000010
00000000
00000100
00000000
00001000
00000100
00001000
00000000
00000010
00000000
00010000
00000000
,
00001000
00010000
00001000
00010000
00100000
01000000
00010000
10000000
00010000
10000000
01000000
00100000
00010000
00000000
00000000
00000000
,
20000000
32000000
03200000
00320000
,
00031000
00010000
00100000
00001000
02000000
00000000
03200000
00000000
,
00320000
00032000
00003200
00000320
,
00002030
00000000
00013000
00001000
00000010
00010000
00000200
00000000
,
00000310
00000000
00000000
00000000
00001000
00000000
00010000
00000000
01000000
00000000
00000000
00100000
00000000
00000000
00001000
00010000
,
00001000
00000000
00000100
00000000
00000001
00000000
00000010
00000000
00000100
00000000
00000000
00010000
00000000
00000000
00001000
00010000
,
00001000
00000000
00001000
00000000
01000000
00000000
00010000
00000000
00100000
00001000
00010000
00001000
00010000
00000010
00001000
00000010
,
00001000
00000000
00000001
00000100
00000001
00000100
00000010
00001000
00010000
00000000
01000000
00000000
20000000
00000000
30000000
00000000
,
02000000
03000000
00020000
00030000
00200000
00300000
20000000
30000000
,
00020000
00000000
00030000
00000000
00002000
00000000
00003000
00000000
02000000
00000000
03100000
00000000
10000000
00000000
00010000
10000000
,
00010000
00000000
01000000
00000000
00100000
00000000
00010000
00000000
00001000
00000000
00000100
00000000
00000010
00000000
00001000
00000001
,
00000100
00000000
00000001
00000000
00000010
00000000
00000100
00001000
00000100
00001000
00000001
00000100
00000020
00000000
00000000
00000000
,
00000130
00000001
00000100
00001000
00000001
00000010
00010000
00001000
,
00000010
00000000
00000100
00000000
00010000
00000000
01000000
00000000
00001000
00000000
00010000
00000000
00100000
00000000
00001000
00010000
,
00001000
00000000
01000000
00000000
00010000
00000000
10000000
01000000
00100000
00000000
00001000
00000000
00010000
00000000
00001000
00000010
,
00000001
00000000
00000010
00000000
00000001
00001000
00000001
00001000
00000100
00000000
00000010
00000000
00002000
00000000
00000000
00000000
,
01003000
00000000
10100000
10000000
00100000
00010000
00001000
00000010
,
00000001
00000000
00000001
00000000
00000100
00000000
00001000
00010000
00100000
00000000
10000000
00000000
00100000
00000000
00010000
00000000
,
00001000
00000000
00010000
00000000
01000000
00000000
10000000
01000000
00100000
00000000
00001000
00000000
00010000
00000000
00000010
00000000
,
00001000
00000000
00010000
00000100
00010000
00000000
00001000
00000000
00000010
00000000
00010000
00001000
00020000
00000000
00000000
00000000
,
00031000
00000000
00000010
00000000
00000001
00000000
00000010
00000100
00001000
00000000
00000010
00000000
00010000
00000000
00001000
00000000
,
00000100
00000000
00001000
00000000
00010000
00000000
00100000
00000000
01000000
00000000
00010000
00000000
00100000
00000000
00001000
00010000
,
00001000
00000010
00000001
00000100
00001000
00010000
00100000
02200000
,
03300000
00002000
00023000
00030200
00000320
00000030
00000000
00000000
,
00000100
00000000
00001000
00000000
00001000
00000000
00000010
00000000
00010000
00000000
00001000
00000000
00010000
00000000
00100000
01000000
,
00100000
00010000
00001000
00001000
00010000
01000000
10000000
01000000
,
00010000
00001000
00001000
00010000
00000100
00000010
00001000
00000010
,
00000100
00000000
00000000
00010000
00000000
00000000
00001000
00100000
00010000
01000000
00100000
10000000
00020000
00000000
00000000
00000000
,
00130000
00000000
00001000
00000000
00010000
00000000
00001000
00000000
00000100
00000000
00000000
00000000
00000000
00000000
00000001
00000100
,
00001000
00010000
00100000
01000000
10000000
10000000
01000000
01000000
,
00100000
00000000
00010000
00000000
00001000
00000000
00100000
00010000
00100000
00000000
00010000
00000000
01000000
00000000
02200000
00000000
,
03300000
00002000
00023000
00030200
00000320
00000000
00000030
00000000
,
00002000
00003000
00020000
00030000
00002000
00003000
00020000
00030000
,
00200000
00300000
02000000
03000000
20000000
30000000
00000000
00000000
,
02000000
03000000
02000000
03000000
00020000
00030000
00200000
00300000
,
00002000
00003000
00020000
00030000
00000200
00000300
00000000
00000000
,
00020000
00030000
00002000
00003000
00000200
00000300
00000002
00000003
,
00000020
00000030
00000200
00000300
00002000
00003000
00000000
00000000
,
00000200
00000300
00000200
00000300
00000002
00000003
00000200
00000300
,
00002000
00003000
00000020
00000030
00020000
00030000
00000000
00000000
,
00002000
00000000
00000000
00000000
,
00003000
00000000
00000000
00000000
,
00000000
00000000
00000000
00000000
;
