
//----- song ID: kint -----//
#TITLE:King of Tribe;
#ARTIST:Numb'n'dub;
#BANNER:King of Tribe.png;
#BACKGROUND:King of Tribe-bg.png;
#CDTITLE:./CDTitles/bm IIDX 33 Sparkle Shower.png;
#MUSIC:King of Tribe.ogg;
#SAMPLESTART:5.973;
#SAMPLELENGTH:15;
#BPMS:0=200;
#BGSTAGE:29;
#NOTES:
     dance-single:
     :
     Beginner:
     3:
     :
0000
0000
0000
0000
,
0000
0000
0000
0000
,
0000
0000
0000
0000
,
0000
0000
0000
0000
,
0000
0000
0000
0000
,
0001
0000
0000
0000
,
0001
0000
0000
0000
,
0010
0000
0000
0000
,
0000
0000
0000
0000
,
0010
0000
0000
0000
,
0010
0000
0000
0000
,
1000
0000
0000
0000
,
0000
0000
0000
0000
,
1000
0000
0000
0000
,
1000
0000
0000
0000
,
0010
0000
0000
0000
,
0000
0000
0000
0000
,
1001
0000
0000
0000
,
0000
0000
0000
0000
,
0001
0000
0001
0000
,
0001
0000
0000
0000
,
1001
0000
0000
0000
,
0000
0000
0000
0000
,
1000
0000
1000
0000
,
1000
0000
0000
0000
,
1000
0000
0000
0000
,
0100
0000
0000
0000
,
1000
0000
0000
0000
,
0000
0000
0000
0000
,
1000
0000
0000
0000
,
1000
0000
0000
0000
,
0010
0000
0000
0000
,
0000
0000
0000
0000
,
0001
0000
0000
0000
,
0001
0000
0000
0000
,
0010
0000
0000
0000
,
0000
0000
0000
0000
,
0001
0000
0000
0000
,
0001
0000
0000
0000
,
0100
0000
0000
0000
,
0000
0000
0000
0000
,
1001
0000
0000
0000
,
0000
0000
0000
0000
,
0001
0000
0000
0000
,
0001
0000
0000
0000
,
0010
0000
0000
0000
,
0010
0000
0000
0000
,
1000
0000
0000
0000
,
1000
0000
0000
0000
,
1001
0000
0000
0000
,
0000
0000
0000
0000
,
1000
0000
0000
0000
,
0100
0000
0000
0000
,
1000
0000
0000
0000
,
0000
0000
0000
0000
,
0001
0000
0000
0000
,
0100
0000
0000
0000
,
0001
0000
0000
0000
,
0000
0000
0000
0000
,
0002
0000
0000
0000
,
0003
0000
0000
0000
,
0001
0000
0001
0000
,
0010
0000
0000
0000
,
0020
0000
0000
0000
,
0030
0000
0000
0000
,
0010
0000
0010
0000
,
1000
0000
0000
0000
,
2000
0000
0000
0000
,
3000
0000
0000
0000
,
1000
0000
1000
0000
,
0010
0000
0000
0000
,
0020
0000
0000
0000
,
0030
0000
0000
0000
,
0010
0000
0010
0000
,
0001
0000
0000
0000
,
1001
0000
0000
0000
,
0000
0000
0000
0000
,
0001
0000
0010
0000
,
0001
0000
0000
0000
,
0010
0000
0010
0000
,
1000
0000
0000
0000
,
1000
0000
0010
0000
,
1000
0000
0000
0000
,
0010
0000
0010
0000
,
0001
0000
0000
0000
,
0001
0000
0100
0000
,
0010
0000
0000
0000
,
1001
0000
0000
0000
,
0000
0000
0000
0000
,
1000
0000
0100
0000
,
0010
0000
0000
0000
,
1001
0000
0000
0000
,
0000
0000
0000
0000
,
0001
0000
0000
0000
,
0001
0000
0000
0000
,
0010
0000
0000
0000
,
0010
0000
0000
2000
,
0000
0000
3000
0000
,
0000
0000
0000
0000
;
#NOTES:
     dance-single:
     :
     Easy:
     8:
     :
0000
0000
0000
0000
,
0000
0000
0000
0000
,
0000
0000
0000
0000
,
0000
0000
0000
0000
,
0000
0000
0000
0000
,
0001
0001
0100
0000
,
0010
0000
1001
0000
,
1000
1000
0100
0000
,
0010
0000
1001
0000
,
0001
0100
0001
0000
,
1000
0100
1000
0000
,
0001
0010
0001
0000
,
1000
0010
1000
0000
,
0001
0100
0001
1000
,
0001
0100
0001
0000
,
1000
0100
1000
0001
,
1000
0000
0000
0000
,
0010
0000
1001
0000
,
1000
0100
0010
0000
,
0100
0000
1001
0000
,
0001
0100
0010
0000
,
1000
0100
0010
0000
,
0001
1000
0001
0000
,
0001
0100
0010
0000
,
1000
0001
1000
0000
,
0001
0010
0001
0010
,
0100
0000
1001
0000
,
1000
0010
1000
0010
,
0100
0000
1001
0000
,
0001
0100
0001
0100
,
0010
0000
1001
0000
,
1000
1000
1000
0000
,
0001
0001
0001
0000
,
1000
0100
0010
0001
,
0010
0100
1000
0000
,
0001
0100
0010
1000
,
0010
0100
0001
0000
,
1000
0100
1000
0100
,
0010
0001
0010
0001
,
1000
0000
0001
0000
,
1000
0001
1000
0000
,
1001
0000
0000
0000
,
0000
0000
0000
0000
,
0001
0010
0100
0000
,
1000
0010
0100
0000
,
0001
0100
0010
0000
,
1000
0100
0010
0000
,
1001
0000
0000
0000
,
0110
0000
0000
0000
,
0001
0010
0100
1000
,
0001
0010
0100
0000
,
1000
0001
1000
0001
,
1000
0000
1001
0000
,
0110
0000
1001
0000
,
1000
0001
0100
0010
,
1000
0000
0000
0000
,
0001
0100
0010
0100
,
0001
0000
1001
0000
,
1000
0100
0010
0000
,
0001
0001
1000
0010
,
0100
0100
0001
1000
,
0100
0100
0010
0001
,
1000
0001
1000
0000
,
1000
1000
0001
0100
,
0010
0010
1000
0001
,
0010
0010
0100
1000
,
0001
1000
0001
0000
,
1000
0000
1001
0000
,
0001
0000
1001
0000
,
0100
0000
0110
0000
,
0010
0000
0110
0000
,
0001
0010
0100
1000
,
0010
0100
0001
0000
,
1000
0100
0010
0001
,
0100
0010
1000
0000
,
0002
0000
0000
0000
,
0000
0000
0000
0003
,
0001
1000
0010
1000
,
0001
1000
0010
0000
,
1000
0001
0010
0001
,
1000
0001
0010
0000
,
0001
1000
0100
1000
,
0001
1000
0100
0000
,
1000
0001
0100
0001
,
1000
0001
0100
0000
,
0110
0000
1001
0000
,
0001
0010
0100
0000
,
0110
0000
1001
0000
,
1000
0010
0100
0000
,
0001
1000
0010
0100
,
0001
1000
0010
0000
,
1000
0001
0010
0100
,
1000
0001
0010
0000
,
0100
0000
0110
0000
,
1000
0001
1000
0000
,
0001
0010
1000
0010
,
0001
0001
1000
2000
,
0000
0000
3000
0000
,
0000
0000
0000
0000
;
#NOTES:
     dance-single:
     :
     Medium:
     13:
     :
0000
0000
0000
0000
,
0000
0000
0000
0000
,
0000
0000
0000
0000
,
0000
0000
0000
0000
,
0000
0000
0000
0000
,
1000
0001
1000
0000
0100
0000
0000
0000
,
0010
0000
0000
0010
0000
0000
0010
0000
,
0001
1000
0001
0000
0100
0000
0000
0000
,
0010
0000
0000
0010
0000
0000
0010
0000
,
1000
0100
1000
0100
,
0010
0001
0010
0001
,
0100
0001
0100
0001
,
1000
0010
1000
0010
,
1000
0010
0100
0000
0001
0000
1000
0000
,
0001
0010
0100
0000
1000
0000
0001
0000
,
1000
0100
1000
0000
0001
0100
0001
0000
,
1001
0000
0000
0000
,
1000
0100
1001
0000
,
1000
0000
0100
0010
0000
0100
0010
0000
,
0001
0100
1001
0000
,
0001
0000
0100
0010
0000
0100
0010
0000
,
1000
0010
1001
0000
,
1000
0000
0010
0100
0000
0010
0100
0000
,
0001
0010
1001
0000
,
0001
0000
0010
0100
0000
0010
0100
0000
,
1000
0100
0010
0000
0001
1000
0001
0000
,
0100
0010
1000
0000
0001
0000
0001
0000
,
0010
0100
1000
0000
0010
0100
0001
0000
,
0100
0000
0010
0100
0000
0010
0100
0000
,
0001
0100
0010
0000
1000
0001
1000
0000
,
0100
0010
0001
0000
1000
0001
1000
0000
,
0010
0000
0010
0000
0010
0010
0010
0000
,
1000
0000
0001
1000
0000
0001
1000
0000
,
0001
0100
1000
0100
,
0001
0010
0100
1000
0001
1000
0001
0000
,
1000
0100
0001
0100
,
1000
0100
0010
0000
0001
1000
0001
0000
,
1000
0010
0100
0010
1000
0010
0100
0000
,
0001
0010
0100
0010
0001
0010
0100
0000
,
1000
0000
0010
0100
0000
0010
0100
0000
,
0001
1000
0001
1000
0001
1000
0001
0000
,
2000
0000
0000
0000
,
0000
0000
3000
0000
,
1000
1000
0100
0100
,
0010
0000
0010
0000
0001
1000
0001
0000
,
0001
0001
0100
0100
,
0010
0000
0010
0000
1000
0001
1000
0000
,
1001
0000
0000
0000
,
1000
0010
0001
0010
,
1000
0000
0001
0100
0001
0000
0000
0000
,
1000
0100
1000
0100
0010
0000
0000
0000
,
0001
0010
0100
1000
0100
0010
0001
0000
,
1000
0000
0001
1000
0000
0001
1000
0000
,
1001
0110
1001
0110
,
1000
0100
0010
0001
0100
0010
1000
0000
,
0010
0000
0000
0000
,
1000
0010
0100
0001
0010
0100
1000
0000
,
1001
0000
0110
0000
,
0001
0100
0010
1000
0002
0000
0003
0000
,
1000
0100
1000
0000
0100
0010
0001
1000
,
0010
0000
1000
0000
0001
0100
0010
0000
,
1000
0010
0000
0010
0000
0100
0001
0100
,
0000
0001
1000
0001
1000
0100
0010
0000
,
0001
0010
0001
0000
0010
0100
1000
0001
,
0100
0000
0001
0000
1000
0010
0100
0000
,
0001
0100
0000
0100
0000
0010
1000
0010
,
1000
0000
0001
1000
0001
0010
0100
0000
,
1000
1000
1100
1100
,
0100
0100
0110
0110
,
0001
0001
0011
0011
,
0010
0010
0110
0110
,
1000
0001
0100
0010
1000
0000
0110
0000
,
0001
1000
0010
0100
0001
0000
0110
0000
,
1000
0010
0100
0000
0001
0010
0100
0000
,
1000
0001
1000
0001
2000
0000
3000
0000
,
0001
0100
0010
0000
1000
0000
0001
1000
,
0000
0001
1000
0000
0001
1000
0001
0000
,
1000
0001
0100
0000
0010
1000
0001
0000
,
0010
0001
0100
0000
0010
1000
0100
0000
,
0010
0011
0001
1001
,
0100
0000
0010
0100
0010
0000
1001
0000
,
0000
1000
0100
1000
0000
0001
0100
0010
,
0000
1000
0001
1000
0000
0001
0010
0100
,
0000
1000
0001
0010
0000
0001
1000
0100
,
0010
0000
0001
1000
0000
0001
1000
0000
,
0010
1000
0100
0000
0010
0001
0100
0000
,
0010
1000
0001
0000
1001
0000
0110
0000
,
1000
0001
0100
0000
0010
1000
0001
0000
,
1000
0000
0100
0010
0100
0000
1001
0000
,
0000
0001
0010
0100
0000
1000
0001
1000
,
0000
0010
0100
0001
0000
0010
0100
1000
,
0001
0000
0110
0000
1000
0100
0010
0001
,
0000
0010
0100
1000
0010
0100
0001
0000
,
1000
0000
0010
0000
0110
0000
0000
1000
,
0001
1000
0100
0110
,
1001
0000
1001
0000
0001
0010
0000
1000
,
0010
0000
0001
1000
0001
1000
0002
0000
,
0000
0000
0003
0000
,
0000
0000
0000
0000
;
#NOTES:
     dance-single:
     :
     Hard:
     16:
     :
0000
0000
0000
0000
,
0000
0000
0000
0000
,
0000
0000
0000
0000
,
0000
0000
0000
0000
,
0000
0000
0000
0000
,
1000
0100
0010
0000
0001
0000
1000
0001
,
1000
0000
0000
1000
0000
0000
1000
0000
,
0001
0100
0010
0000
1000
0000
0001
1000
,
0001
0000
0000
0001
0000
0000
0001
0000
,
0011
0000
0101
0000
,
0011
0000
0101
0000
,
1010
0000
1100
0000
,
1010
0000
1100
0000
,
1000
0100
1000
0100
0010
0001
0010
0000
,
0001
0100
0001
0100
0010
1000
0010
0000
,
1000
0001
1000
0001
1000
0001
1000
0001
1000
0001
1000
0001
1000
0001
1000
0001
,
1000
0000
0000
0000
,
1000
0100
0010
0000
1001
0000
0001
0010
,
1000
0000
0010
0001
0000
0001
1000
0000
,
0001
0010
0100
0000
1000
0010
0100
0000
,
0001
0100
0010
1000
0000
0001
1000
0000
,
0001
0100
0010
0000
1001
0000
1000
0010
,
0001
0000
0010
1000
0000
1000
0001
0000
,
1000
0010
0100
0000
0001
0010
0100
0000
,
1000
0100
1000
0100
0010
0001
0010
0001
1000
0000
0001
0000
0001
0000
0001
0000
,
1000
0000
0010
0000
0100
0000
0001
0100
0010
1000
0010
1000
0010
0000
1000
0000
,
0100
0000
0010
0000
0001
0000
1000
0000
0001
0000
0001
0100
0001
0000
0010
0000
,
0001
0000
0010
0000
0100
0000
1000
0000
0010
0000
0100
0000
0001
1000
0001
1000
,
0001
0000
1000
1010
0000
0001
0101
0000
,
1001
0000
1000
0000
0100
0000
0010
0001
1000
0010
1000
0010
1000
0000
0001
0100
,
0010
1000
0001
0100
0010
0000
0110
0000
,
0100
0000
0100
0000
0100
0100
0100
0100
,
0001
0000
0100
0010
1000
0000
0100
0000
0010
0100
1000
0000
0001
0000
0000
0000
,
1000
0000
0001
0000
0100
0000
0010
0000
1000
0000
0100
0000
0010
0001
0010
0100
,
1000
0000
1000
0001
1000
0000
0010
0000
0100
0000
0100
0000
0001
1000
0001
1000
,
0001
0000
0100
0000
0010
0000
1000
0000
0100
0000
0010
0100
1000
0000
0001
0000
,
1000
0001
1000
0001
1000
0000
0000
0000
0001
1000
0001
1000
0001
1000
0001
0000
,
1000
0100
0001
0100
1000
0100
0001
0100
,
1000
0010
0001
0010
1000
0010
0001
0010
,
1000
0000
0001
0101
0000
1000
1010
0000
,
0001
1000
0001
1000
0001
1000
0001
1000
0001
1000
0001
1000
0001
0000
0000
0000
,
2000
0000
0000
0000
,
0000
0000
3000
0000
,
1001
0000
0001
0000
0001
0000
0001
1000
,
0100
0110
0010
0110
,
0010
0001
0100
0010
1000
1000
1000
0000
,
1010
0000
0101
0000
0001
1000
0010
0010
,
0100
0000
0000
0000
0001
1000
0001
0000
0010
0000
0000
0000
0010
0000
0000
0000
,
0001
0010
0100
0000
0010
0100
1000
0000
0001
0100
0010
0000
0100
0010
1000
0000
,
0001
0001
0101
0001
1000
1000
1100
1000
,
0001
0000
0001
0000
0010
0000
0010
0000
0100
1000
0100
0000
1000
0000
0000
0000
,
0001
0000
0100
0000
0110
0000
0010
1000
0001
1000
0010
0000
0100
0000
0000
0000
,
0001
0000
0100
0110
0000
0010
0110
0000
,
1001
1001
0110
0110
,
1000
1000
0010
0010
0100
0001
0001
0100
,
0010
0000
0000
0000
,
1000
0010
0100
0000
0001
0010
0100
0000
1000
0000
0010
0000
0100
0010
0100
0010
,
0100
0000
1001
0000
,
0001
0100
0010
1000
2002
0000
3003
0000
,
1000
0100
0010
0100
1000
0010
0100
0001
,
0010
0100
0010
0001
1000
0001
0100
0010
,
1000
0100
0001
0100
1000
0001
0010
0001
,
0100
0010
1000
0001
0100
0010
1000
0000
,
0001
0010
0100
0010
0001
0100
0010
1000
,
0100
0010
0100
1000
0001
1000
0010
0100
,
0001
0010
1000
0010
0001
1000
0100
1000
,
0010
0100
0001
1000
0010
0100
0001
0000
,
1000
0100
1000
0100
0010
0100
1000
0000
,
0001
0010
0001
0010
0100
0010
0001
0000
,
1000
0010
1000
0010
0100
0010
1000
0000
,
0001
0100
0001
0100
0010
0100
0001
0000
,
1000
0000
0100
0010
0100
0000
0010
0001
0010
0000
0001
1000
0001
0000
0100
0010
,
1000
0000
0010
0100
0010
0000
0100
0001
0100
0000
0001
1000
0001
0000
1000
0100
,
0010
0100
0010
0100
0010
0100
0010
0000
0001
1000
0001
1000
0001
1000
0001
0000
,
1000
0100
0010
0001
1000
0100
0010
0001
2000
0000
0000
0000
3000
0000
0000
0000
,
1000
0000
0001
0000
0010
0000
0100
0000
1000
0000
0001
1000
0001
0100
0001
0000
,
1000
0001
1000
0100
1000
0000
0001
1000
0001
0100
0001
0000
2000
0000
0000
0000
,
3001
0000
0010
0000
0100
0000
1000
0001
0100
0000
0001
0100
0010
0000
1000
0000
,
0100
0100
0110
0000
0010
0010
0110
0000
,
0001
0000
0010
0001
1000
0000
0100
0000
1000
0001
0100
0000
0010
1000
0001
0000
,
0010
0100
1000
0000
0100
0010
0001
0000
1000
0000
0001
0000
1001
0000
0000
0000
,
1000
0000
0010
1000
0010
0000
0100
0001
0100
0000
0001
0010
0001
0000
1000
0100
,
1000
0000
0010
0100
0010
0000
1000
0001
1000
0000
0001
0010
0100
0000
0000
0000
,
1000
0000
0100
0010
0001
0000
1000
0000
0001
0000
0001
0000
0001
0000
0001
0000
,
1000
0000
0001
1001
0000
1000
1001
0000
,
0001
0000
1000
0000
0010
0000
0100
0000
0001
0000
1000
0100
0010
0000
0001
0000
,
1000
0000
0010
0100
0010
0000
1000
0000
0100
0010
0100
0000
1000
0000
1000
0001
,
1000
0000
0100
0010
0001
0000
1000
0010
1000
0001
1000
0001
1000
0000
0100
0000
,
0010
0010
0001
0001
1000
0001
1001
0000
,
1000
0000
0010
0100
0001
0100
0010
0000
1000
0000
0001
0010
0001
0010
0100
0000
,
1000
0100
0001
0100
1000
0001
0010
0000
,
0011
0000
0000
0000
1100
0000
0000
0000
0001
0000
0100
0010
0100
0010
1000
0000
,
0100
0010
0100
0010
0001
0000
0100
0010
0100
0010
1000
0000
0001
0000
0000
0000
,
0011
0000
0000
0000
1001
0000
0000
0001
,
1000
0010
1010
1000
,
0100
0000
1001
0000
0001
1100
0000
1000
,
0101
0000
0001
1000
0001
0000
0010
0000
0100
0000
1000
0000
0020
0000
0000
0000
,
0000
0000
0030
0000
,
0000
0000
0000
0000
;
#NOTES:
     dance-double:
     :
     Easy:
     8:
     :
00000000
00000000
00000000
00000000
,
00000000
00000000
00000000
00000000
,
00000000
00000000
00000000
00000000
,
00000000
00000000
00000000
00000000
,
00000000
00000000
00000000
00000000
,
00001000
00010000
00001000
00000000
,
00011000
00000000
00000000
00000000
,
00010000
00001000
00010000
00000000
,
00011000
00000000
00000000
00000000
,
00001000
00000000
00010000
00000000
,
00100000
00000000
10000000
00000000
,
00100000
01000000
00100000
00000000
,
10000000
00010000
10000000
00000000
,
00010000
10000000
00010000
01000000
,
00010000
01000000
00001000
00000000
,
00010000
00001000
00010000
00000100
,
00001000
00000000
00000000
00000000
,
00000100
00000000
00001001
00000000
,
00000001
00000010
00000100
00000000
,
00001000
00000000
00001001
00000000
,
00001000
00000010
00010000
00000000
,
00001000
00000000
00011000
00000000
,
00001000
00010000
00100000
00000000
,
01000000
00000000
01100000
00000000
,
00100000
10000000
00010000
00000000
,
10000000
01000000
00100000
00000000
,
00010000
00100000
00010000
00000000
,
00100000
00001000
00010000
00000000
,
00011000
00000000
00000000
00000000
,
00001000
00010000
00000100
00000000
,
00001000
00000100
00000010
00000000
,
00000001
00000001
00000001
00000000
,
00001000
00001000
00001000
00000000
,
00000001
00000100
00000001
00000100
,
00000010
00001000
00000010
00000000
,
00001000
00000010
00010000
00000010
,
00010000
00001000
00010000
00000000
,
00001000
00010000
00001000
01000000
,
00010000
01000000
00010000
00000000
,
00100000
00000000
01000000
00000000
,
00100000
01000000
00100000
00000000
,
10010000
00000000
00000000
00000000
,
00000000
00000000
00000000
00000000
,
10000000
00000000
10010000
00000000
,
10000000
01000000
00010000
00000000
,
00001000
00000000
00011000
00000000
,
00010000
00001000
00000010
00000000
,
00000110
00000000
00000000
00000000
,
00001001
00000000
00000000
00000000
,
00000001
00000100
00000010
00001000
,
00000001
00000100
00000010
00000000
,
00001000
00000001
00001000
00000001
,
00001000
00000000
00001001
00000000
,
00001000
00001000
00000100
00000100
,
00010000
00001000
00010000
00000000
,
00011000
00000000
00000000
00000000
,
00001000
00010000
01000000
00000000
,
10000000
00000000
10010000
00000000
,
10000000
00100000
01000000
00000000
,
00010000
00010000
00100000
00001000
,
00010000
00001000
00010000
00000000
,
00001000
00001000
00010000
00000100
,
00001000
00000010
00001000
00000000
,
00000001
00000001
00000100
00000001
,
00000010
00000100
00001000
00000000
,
00000100
00000100
00010000
00001000
,
00100000
00010000
00100000
00000000
,
01000000
00000000
01100000
00000000
,
10000000
00000000
10010000
00000000
,
10000000
01000000
00100000
00000000
,
00100000
00001000
00010000
00000000
,
00001000
00010000
00001000
00010000
,
00000010
00001000
00000010
00000000
,
00000100
00000001
00000100
00000001
,
00001000
00000100
00001000
00000000
,
00000200
00000000
00000000
00000000
,
00000000
00000000
00000000
00000300
,
00000100
00000010
00000001
00000100
,
00000010
00001000
00000010
00000000
,
00001000
00000010
00001000
00000100
,
00010000
00001000
00010000
00000000
,
00001000
01000000
00010000
01000000
,
00100000
10000000
00010000
00000000
,
10000000
00100000
01000000
00010000
,
00100000
01000000
10000000
00000000
,
10000000
00100000
01000000
00000000
,
01000000
00001000
00010000
00000000
,
00001000
00010000
00000100
00000000
,
00000100
00000010
00000001
00000000
,
00000010
00000100
00001000
00000010
,
00000100
00000001
00001000
00000000
,
00000100
00010000
00001000
00010000
,
00001000
00100000
00010000
00000000
,
00100000
00000000
01100000
00000000
,
10000000
01000000
00100000
00000000
,
00010000
00100000
00001000
00000000
,
00010000
00010000
00001000
00002000
,
00000000
00000000
00003000
00000000
,
00000000
00000000
00000000
00000000
;
#NOTES:
     dance-double:
     :
     Medium:
     13:
     :
00000000
00000000
00000000
00000000
,
00000000
00000000
00000000
00000000
,
00000000
00000000
00000000
00000000
,
00000000
00000000
00000000
00000000
,
00000000
00000000
00000000
00000000
,
00001000
00010000
00001000
00000000
00010000
00000000
00000000
00000000
,
00001000
00000000
00000000
00001000
00000000
00000000
00001000
00000000
,
00010000
00001000
00010000
00000000
00001000
00000000
00000000
00000000
,
00010000
00000000
00000000
00010000
00000000
00000000
00010000
00000000
,
00001000
00100000
00001000
00100000
,
00010000
00100000
01000000
00000000
,
10000000
00010000
10000000
00010000
,
01000000
00100000
10000000
00000000
,
10000000
01000000
10000000
00000000
01000000
00000000
00100000
00000000
,
00010000
00100000
00010000
00000000
00100000
00000000
00001000
00000000
,
00010000
00001000
00010000
00000000
00000100
00000000
00001000
00000000
,
00000100
00000000
00000000
00000000
,
00000010
00000100
00001001
00000000
,
00000001
00000000
00000010
00000100
00000000
00001000
00000100
00000000
,
00010000
00001000
00011000
00000000
,
00001000
00000000
00010000
00001000
00000000
01000000
00001000
00000000
,
00100000
01000000
10010000
00000000
,
10000000
00000000
00100000
01000000
00000000
00010000
01000000
00000000
,
00001000
00010000
00011000
00000000
,
00010000
00000000
00001000
00010000
00000000
00000100
00010000
00000000
,
00000100
00001000
00000100
00000000
00000010
00000001
00001000
00000000
,
00000001
00000100
00000010
00000000
00001000
00000000
00000000
00000000
,
00001000
00000010
00010000
00000000
00001000
00010000
00001000
00000000
,
00010000
00000000
00001000
01000000
00000000
00010000
01000000
00000000
,
00100000
01000000
00100000
00000000
10000000
00010000
10000000
00000000
,
01000000
00100000
00010000
00000000
00100000
00001000
00010000
00000000
,
00001000
00000000
00001000
00000000
00001000
00001000
00001000
00000000
,
00010000
00000000
00001000
00010000
00000000
00001000
00010000
00000000
,
00001000
00000100
00000001
00001000
,
00000001
00000010
00000100
00001000
00000100
00000010
00000001
00000000
,
00001000
00000010
00010000
00001000
,
01000000
00010000
01000000
00000000
00010000
00100000
00010000
00000000
,
10000000
01000000
10000000
01000000
00100000
00010000
00100000
00000000
,
00010000
00100000
00001000
00010000
00000100
00001000
00000100
00000000
,
00000010
00000000
00000001
00001000
00000000
00000001
00001000
00000000
,
00000010
00000100
00000010
00000100
00000010
00000100
00000010
00000000
,
00002000
00000000
00000000
00000000
,
00000000
00000000
00003000
00000000
,
00001000
00001000
00000100
00000100
,
00010000
00010000
00001000
00001000
,
00100000
00100000
00010000
00010000
,
10000000
00000000
10000000
00000000
00100000
01000000
00100000
00000000
,
01100000
00000000
00000000
00000000
,
10000000
01000000
00010000
00001000
,
00000010
00000000
00000001
00001000
00000001
00000000
00000100
00000000
,
00000010
00001000
00000010
00000100
00000001
00000000
00000000
00000000
,
00001000
00000010
00001000
00000010
00010000
00001000
00010000
00000000
,
00001000
00000000
00010000
00001000
00000000
00010000
00001000
00000000
,
00011000
00101000
00110000
01010000
,
01000000
00100000
10000000
01000000
00100000
00001000
00010000
00000000
,
00001000
00000000
00000000
00000000
,
00010000
00001000
00010000
00000100
00001000
00000010
00000100
00000000
,
00000110
00000000
00001001
00000000
,
00000001
00000100
00001000
00010000
00002000
00000000
00003000
00000000
,
00001000
00010000
00001000
01000000
00010000
00100000
01000000
00000000
,
10000000
00010000
01000000
00100000
10000000
01000000
00100000
00000000
,
00010000
00100000
00000000
00100000
00001000
00010000
00000000
00010000
,
00000010
00001000
00000010
00000100
00000001
00001000
00000000
00001000
,
00000001
00000010
00000100
00000010
00000001
00001000
00000010
00000000
,
00001000
00000010
00010000
00001000
01000000
00010000
00100000
00000000
,
00010000
10000000
00000000
10000000
01000000
00100000
00000000
00100000
,
00001000
00010000
00001000
00000000
00010000
00000100
00001000
00000000
,
00000001
00000001
00000011
00000011
,
00000010
00000010
00000110
00000110
,
00000100
00000100
00010100
00010100
,
00010000
00010000
00011000
00011000
,
00001000
01000000
00010000
00000000
00100000
01000000
10000000
00000000
,
00100000
01000000
00010000
00000000
00100000
00001000
00010000
00000000
,
00000100
00001000
00000010
00000000
00000100
00000001
00001000
00000000
,
00000100
00000010
00000100
00000010
00000002
00000000
00000003
00000000
,
00001000
00000010
00000100
00000000
00000001
00000000
00001000
00000100
,
00000000
00010000
00001000
00000000
00100000
00010000
00100000
00000000
,
00010000
01000000
00100000
00000000
10000000
01000000
00100000
00000000
,
00010000
00100000
01000000
00000000
10000000
00100000
01000000
00000000
,
00100000
00010000
00001000
00000100
,
00000001
00001000
00000100
00000010
00000001
00000000
00001001
00000000
,
00000000
00001000
00000100
00000010
00000000
00000001
00000100
00000010
,
00000000
00001000
00000010
00000100
00000000
00000001
00000010
00000100
,
00000000
00000010
00000000
00001000
00000000
00010000
00000000
01000000
,
10000000
00000000
00010000
10000000
00000000
00010000
10000000
00000000
,
00010000
00100000
00010000
00000000
01000000
00010000
01000000
00000000
,
00010000
00100000
00001000
00000000
00010000
00000100
00001000
00000000
,
00000010
00001000
00000010
00000000
00000100
00000001
00001000
00000000
,
00000100
00000000
00000010
00000100
00000010
00000000
00001001
00000000
,
00000000
00001000
00000010
00001000
00000000
00000100
00001000
00000100
,
00000000
00001000
00000010
00010000
00000000
00001000
01000000
00010000
,
01000000
00000000
01100000
00000000
00100000
10000000
00100000
10000000
,
00000000
00010000
00100000
00010000
00100000
00001000
00010000
00000000
,
00001000
00000000
00010000
00000000
00011000
00000000
00000000
00010000
,
00001000
00000010
00000001
00001001
,
00001000
00000001
00001000
00000000
00000001
00000010
00000000
00000100
,
00001000
00000000
00000100
00010000
00001000
00010000
00002000
00000000
,
00000000
00000000
00003000
00000000
,
00000000
00000000
00000000
00000000
;
#NOTES:
     dance-double:
     :
     Hard:
     16:
     :
00000000
00000000
00000000
00000000
,
00000000
00000000
00000000
00000000
,
00000000
00000000
00000000
00000000
,
00000000
00000000
00000000
00000000
,
00000000
00000000
00000000
00000000
,
00001000
00010000
00001000
00000000
00011000
00000000
00001000
00010000
,
00100000
00000000
00000000
00100000
00000000
00000000
00100000
00000000
,
10000000
00010000
10000000
00000000
10010000
00000000
10000000
01000000
,
00010000
00000000
00000000
00010000
00000000
00000000
00010000
00000000
,
00001000
00000010
00000001
00000000
00001000
00000000
00000000
00000000
,
00000001
00000100
00001000
00000000
00010000
00000000
00000000
00000000
,
00001000
00010000
01000000
00000000
10000000
00000000
00000000
00000000
,
00010000
10000000
00100000
00000000
00010000
00000000
00001000
00000000
,
00010000
00001000
00010000
00000100
00001000
00000100
00000010
00000001
,
00000100
00000010
00000100
00001000
00010000
00001000
00010000
00000000
,
00001000
00010000
00001000
00010000
00001000
00010000
00001000
00010000
00001000
00010000
00001000
00010000
00001000
00010000
00001000
00010000
,
00001000
00000000
00000000
00000000
,
00001000
00000000
00010000
00000000
00011000
00000000
00001000
00010000
,
01000000
00000000
10000000
00010000
00000000
10000000
00010000
00000000
,
10000000
00100000
00010000
00000000
00001000
00000100
00000001
00000000
,
00000100
00000010
00001000
00000001
00000000
00001000
00000001
00000000
,
00000010
00000000
00000100
00000000
00000110
00000000
00000010
00001000
,
00010000
00000000
00001000
00010000
00000000
00001000
00010000
00000000
,
00001000
00010000
01000000
00000000
10000000
00010000
01000000
00000000
,
00100000
10000000
00100000
10000000
00010000
01000000
00010000
01000000
00010000
00000000
10000000
00000000
10000000
00000000
10000000
00000000
,
01000000
00000000
00100000
00000000
00010000
00000000
00100000
00001000
00100000
00001000
00100000
00000000
00001000
00000000
00010000
00000000
,
00000010
00000000
00001000
00000000
00000010
00000000
00000100
00000000
00000001
00000000
00000001
00001000
00000001
00000000
00001000
00000000
,
00000001
00000100
00000010
00001000
00010000
01000000
00100000
10000000
,
00010000
00000000
10000000
11000000
00000000
01000000
01100000
00000000
,
00100000
00000000
00001000
00000000
00010000
00000000
00000100
00000000
00001000
00000100
00001000
00000100
00000010
00000000
00000001
00000000
,
00000010
00001000
00000010
00000001
00001001
00000000
00000110
00000000
,
00000001
00000000
00000001
00000000
00000001
00000001
00000001
00000001
,
00000001
00000100
00001100
00001000
00010000
00100000
01100000
00000000
,
01000000
00000000
00010000
00000000
10000000
00000000
01000000
00000000
00100000
00000000
00010000
00000000
00100000
00001000
00010000
00001000
,
00010000
00000000
00001000
00010000
00001000
00000000
00001000
00000000
00010000
00000000
00010000
00000000
00000010
00001000
00000010
00001000
,
00000010
00000000
00001000
00000000
00000010
00000000
00000100
00000000
00000001
00000000
00000010
00000100
00001000
00000000
00000001
00000000
,
00000100
00000010
00000100
00000010
00000100
00000000
00000000
00000000
00000010
00000100
00000010
00000100
00000010
00000100
00000010
00000000
,
00000100
00001000
00010000
00100000
00010000
00001000
00010000
01000000
,
00010000
00001000
00000010
00001000
00010000
00001000
00000100
00001000
,
00010000
00000000
00001000
00011000
00000000
00010000
00011000
00000000
,
00001000
00010000
00001000
00010000
00001000
00010000
00001000
00010000
00001000
00010000
00001000
00010000
00001000
00000000
00000000
00000000
,
00020000
00000000
00000000
00000000
,
00000000
00000000
00030000
00000000
,
00011000
00000000
00001000
00010000
00100000
00000000
10000000
00000000
,
10010000
00000000
10000000
00100000
00010000
00000000
00001000
00000000
,
00011000
00000000
00001000
00000010
00000001
00000000
00001000
00000000
,
00001001
00000000
00000001
00000010
00001000
00000000
00010000
00000000
,
00001000
00000000
00000000
00000000
00010000
00100000
00010000
00000000
00001000
00000000
00000000
00000000
00010000
00000000
00000000
00000000
,
00001000
00010000
00000100
00000000
00001000
00000010
00000100
00000000
00000010
00001000
00000100
00000000
00010000
00001000
00010000
00000000
,
00001000
00001000
01000000
01000000
00010000
00010000
00100000
00100000
,
01000000
10000000
00010000
00100000
00001000
00000000
00011000
00000000
,
00010000
00000000
00000010
00000000
00001010
00000000
00001000
00000010
00000100
00000001
00000100
00000000
00000001
00000000
00000000
00000000
,
00000010
00000000
00000100
00000110
00000000
00000010
00000110
00000000
,
00001001
00000110
00001001
00000110
,
00000001
00000001
00000010
00000010
00001000
00010000
01000000
10000000
,
00010000
00000000
00000000
00000000
,
10000000
00100000
01000000
00000000
00010000
00100000
01000000
00000000
10000000
00000000
00010000
00000000
01000000
00100000
01000000
00100000
,
01000000
00000000
10010000
00000000
,
10000000
01000000
00100000
00001000
00020000
00000000
00030000
00000000
,
00010000
00001000
00000010
00000001
00001000
00000100
00000010
00000001
,
00000100
00000010
00010000
00001000
00000100
00000010
00010000
00001000
,
00100000
00010000
01000000
00010000
00100000
01000000
10000000
00100000
,
00010000
00001000
00010000
01000000
00100000
00001000
00010000
00000000
,
00001000
00010000
00100000
10000000
00010000
01000000
00100000
10000000
,
01000000
00100000
00001000
00010000
01000000
00100000
00001000
00010000
,
00000010
00001000
00000100
00001000
00000010
00000100
00000001
00000010
,
00001000
00010000
00001000
00000100
00000010
00010000
00001000
00000000
,
00010000
00010000
00101000
00011000
,
00001000
00001000
00010010
00011000
,
00010000
00010000
01001000
00011000
,
00001000
00001000
00010100
00011000
,
00001000
00000000
00100000
00010000
00100000
00000000
00010000
01000000
00010000
00000000
10000000
00100000
10000000
00000000
01000000
00000000
,
00100000
00000000
00001000
00100000
00001000
00000000
00010000
00001000
00010000
00000000
00000100
00010000
00000100
00000000
00001000
00000000
,
00000010
00001000
00000010
00001000
00000010
00001000
00000010
00000000
00000100
00000001
00000100
00000001
00000100
00000001
00000100
00000000
,
00000001
00000010
00000100
00000000
00001000
00000100
00010000
00001000
00020000
00000000
00000000
00000000
00030000
00000000
00000000
00000000
,
00001000
00000000
00010000
00000000
01000000
00000000
10000000
00000000
00010000
00000000
00100000
01000000
00100000
00010000
00100000
00000000
,
00001000
00100000
00001000
00010000
00001000
00000000
00010000
00001000
00010000
00000100
00001000
00000000
00000200
00000000
00000000
00000000
,
00000310
00000000
00000001
00000000
00000100
00000000
00000010
00000000
00001000
00000100
00010000
00000000
00001000
00010000
00001000
00000000
,
00100000
00000000
00010000
01000000
00010000
00000000
00100000
00000000
01000000
00000000
01000000
00000000
01100000
00000000
00000000
00000000
,
10000000
00000000
00010000
10000000
00010000
00000000
10000000
00000000
00100000
00000000
00100000
00000000
00010000
00000000
00010000
00000000
,
00001000
00000000
00001000
00000000
00000100
00000000
00000100
00000000
00000001
00000100
00000010
00001000
00000001
00000000
00000000
00000000
,
00001000
00000000
00000010
00001000
00000010
00000000
00010000
00000010
00010000
00000000
00001000
00010000
00001000
00000000
01000000
00001000
,
01000000
00000000
00010000
01000000
00010000
00000000
00100000
00010000
00100000
00000000
01000000
10000000
01000000
00000000
00000000
00000000
,
10000000
00000000
01000000
00100000
00010000
00000000
00100000
00000000
00001000
00000000
00001000
00000000
00010000
00000000
00010000
00000000
,
00011000
00000000
00010000
00101000
00000000
00001000
00010010
00000000
,
00011000
00000000
00010000
00001000
00000100
00000001
00001000
00000100
,
00000010
00000000
00000001
00001000
00000010
00000000
00010000
00000000
00001000
00010000
00001000
00000000
00010000
00000000
00000000
00000000
,
00001000
00000000
00100000
00010000
00100000
01000000
00100000
00000000
00010000
00000000
00010000
00000000
10000000
00000000
10000000
00000000
,
01000000
01000000
00010000
00010000
00001000
00010000
00011000
00000000
,
00001000
00000000
00010000
00000010
00010000
00000010
00001000
00000000
00000100
00000000
00000010
00000001
00000010
00000001
00001000
00000000
,
00000001
00000010
00001000
00010000
01000000
10000000
00010000
00000000
,
00110000
00000000
00000000
00000000
11000000
00000000
00000000
00000000
10000000
00000000
00100000
01000000
00100000
01000000
00010000
00000000
,
00100000
00010000
00100000
00001000
00010000
00000000
00001000
00010000
00000100
00001000
00000100
00000000
00000010
00000000
00000000
00000000
,
00000011
00000000
00000000
00000000
00001001
00000000
00000000
00000001
,
00000010
00001000
00000000
00011000
,
00010000
00000000
00011000
00000000
00001000
01010000
00000000
00010000
,
10100000
00000000
10000000
00100000
01000000
00000000
00010000
00000000
00100000
00000000
00001000
00000000
00020000
00000000
00000000
00000000
,
00000000
00000000
00030000
00000000
,
00000000
00000000
00000000
00000000
;
