
//----- song ID: kawi -----//
#TITLE:可愛くてごめん;
#ARTIST:Covered by ちょぴん;
#TITLETRANSLIT:Kawaikute gomen;
#ARTISTTRANSLIT:Covered by CHOPIN;
#BANNER:Kawaikute gomen.png;
#BACKGROUND:Kawaikute gomen-bg.png;
#CDTITLE:./CDTitles/DDR WORLD.png;
#MUSIC:Kawaikute gomen.ogg;
#SAMPLESTART:43.407;
#SAMPLELENGTH:15;
#BPMS:0=160;
#NOTES:
     dance-single:
     :
     Beginner:
     1:
     :
0000
0000
0000
0000
,
0000
0000
0000
0000
,
0000
0000
0000
0000
,
0000
0000
0000
0000
,
0000
0000
0000
0000
,
0001
0000
0000
0000
,
0000
0000
0000
0000
,
0010
0000
0000
0000
,
0000
0000
0000
0000
,
0010
0000
0000
0000
,
0000
0000
0000
0000
,
1000
0000
0000
0000
,
0000
0000
0000
0000
,
1000
0000
0000
0000
,
0000
0000
0000
0000
,
0010
0000
0000
0000
,
0000
0000
0000
0000
,
0001
0000
0000
0000
,
0000
0000
0000
0000
,
0001
0000
0000
0000
,
0000
0000
0000
0000
,
0010
0000
0000
0000
,
0000
0000
0000
0000
,
0010
0000
0000
0000
,
0000
0000
0000
0000
,
1000
0000
0000
0000
,
0000
0000
0000
0000
,
1000
0000
0000
0000
,
0000
0000
0000
0000
,
1000
0000
0000
0000
,
0100
0000
0000
0000
,
1000
0000
0000
0000
,
0000
0000
0000
0000
,
1000
0000
0000
0000
,
1000
0000
0000
0000
,
0010
0000
0000
0000
,
0000
0000
0000
0000
,
0010
0000
0000
0000
,
0010
0000
0000
0000
,
0001
0000
0000
0000
,
0000
0000
0000
0000
,
0001
0000
0000
0000
,
0010
0000
0000
0000
,
0001
0000
0000
0000
,
0000
0000
0000
0000
,
0001
0000
0000
0000
,
0000
0000
0000
0000
,
0001
0000
0000
0000
,
0000
0000
0000
0000
,
0001
0000
0000
0000
,
0000
0000
0000
0000
,
0001
0000
0000
0000
,
0000
0000
0000
0000
,
0010
0000
0000
0000
,
0000
0000
0000
0000
,
0100
0000
0000
0000
,
0000
0000
0000
0000
,
0000
0000
0000
0000
,
0000
0000
1000
0000
,
0000
0000
0000
0000
,
0000
0000
1000
0000
,
0000
0000
0010
0000
,
0000
0000
1000
0000
,
0000
0000
0000
0000
,
0000
0000
1000
0000
,
0000
0000
1000
0000
,
0000
0000
0010
0000
,
0000
0000
0000
0000
,
0000
0000
0010
0000
,
0000
0000
0000
0000
,
0000
0000
0001
0000
,
0000
0000
0000
0000
,
0000
0000
0010
0000
,
0000
0000
0000
0000
,
0000
0000
0010
0000
,
0000
0000
0000
0000
,
0000
0000
1000
0000
,
0000
0000
1000
0000
,
0000
0000
0000
0000
;
#NOTES:
     dance-single:
     :
     Easy:
     5:
     :
0000
0000
0000
0000
,
0000
0000
0000
0000
,
0000
0000
0000
0000
,
0000
0000
0000
0000
,
0000
0000
0000
0000
,
0001
0000
0001
0000
,
0100
0000
0100
0000
,
0010
0000
0010
0000
,
1000
0000
0000
0000
,
1000
0001
1000
0000
,
0100
0000
0010
0000
,
0001
1000
0001
0000
,
0100
0000
0010
0000
,
1000
0010
1000
0000
,
0001
0000
0100
0000
,
0001
0010
0001
0000
,
1000
0000
0100
0000
,
2000
0000
0000
3000
,
0100
0000
0010
0000
,
0002
0000
0000
0003
,
0100
0000
0010
0000
,
2000
0000
0000
3000
,
0002
0000
0000
0003
,
1000
0000
0000
0000
,
0110
0000
0000
0000
,
0001
0000
0000
0000
,
0110
0000
0000
0000
,
2000
0000
0000
0000
,
3000
0000
0000
0000
,
1000
1000
0100
0000
,
0010
0000
0010
0000
,
0001
0001
0100
0000
,
0010
0000
0010
0000
,
1000
1000
0010
0000
,
0100
0000
0100
0000
,
0001
0001
0010
0000
,
0100
0000
0100
0000
,
1000
0000
0001
0000
,
0100
0010
0100
0000
,
0001
0000
1000
0000
,
0100
0010
0100
0000
,
1000
0000
0100
0000
,
0010
0001
0100
0000
,
0001
0000
0100
0000
,
0010
1000
0100
0000
,
1000
0000
0001
0000
,
1001
0000
0000
0000
,
2000
0000
0000
3000
,
1000
0000
0100
0000
,
0020
0000
0000
0030
,
0010
0000
0001
0000
,
0100
0000
0000
0000
,
0010
0000
0000
0000
,
1000
0000
0000
0000
,
0001
0000
0000
0000
,
1000
0000
0100
0000
,
0110
0000
0000
0000
,
0000
0000
0000
0000
,
0000
0000
0001
0000
,
1000
0000
1001
0000
,
0000
0000
0001
0000
,
0100
0000
0001
1000
,
0001
0000
0010
0000
,
0001
0000
1000
0000
,
0000
0000
1000
0000
,
0100
0000
1000
0001
,
1000
0000
0010
0000
,
1000
0000
0001
0000
,
0000
0000
0110
0000
,
0000
0000
1001
0000
,
0000
0000
1000
0000
,
0100
0000
0010
0000
,
0000
0000
0001
0000
,
0100
0000
0010
0000
,
0000
0000
1000
0100
,
0010
0000
0001
0000
,
1000
0000
0001
0100
,
0010
0000
0110
0000
,
1001
0000
0000
0000
,
0000
0000
0000
0000
;
#NOTES:
     dance-single:
     :
     Medium:
     8:
     :
0000
0000
0000
0000
,
0000
0000
0000
0000
,
0000
0000
0000
0000
,
0000
0000
0000
0000
,
0000
0000
0000
0000
,
1000
0000
0001
0000
,
0100
0010
1001
0000
,
0002
0003
2000
3000
,
0010
0010
0010
0000
,
1000
0000
0100
0000
0010
0001
0000
0010
,
0001
0000
0100
0000
0010
1000
0000
0010
,
1000
0000
0001
0000
1000
0001
0000
1000
,
0001
0100
0010
0000
,
1000
0000
0010
0000
0100
0001
0000
0100
,
0001
0000
0010
0000
0100
0010
0000
0100
,
0010
0000
0001
0000
1000
0001
0000
1000
,
0100
0100
0100
0000
,
1000
0000
0100
0000
0001
0100
1000
0000
,
0002
0000
0000
0003
,
0001
0000
0100
0000
1000
0100
0001
0000
,
2000
0000
0000
3000
,
1000
0000
0100
0000
,
0010
0010
0010
0000
,
0002
0000
0000
0003
,
0001
0000
0100
0010
0000
0000
0010
0000
,
1000
0000
0100
0010
0000
0000
0010
0000
,
0001
0000
1000
0001
0000
0000
0001
0000
,
2000
0000
0000
3000
,
0002
0000
0000
0003
,
1000
0010
0100
0001
,
0010
0010
0010
0000
,
0001
0010
1000
0010
,
0001
0001
0001
0000
,
1000
0100
0010
0001
,
0100
0100
0100
0000
,
0001
0100
1000
0100
,
0001
1000
1001
0000
,
0001
0100
0010
1000
,
0100
0100
0100
0000
,
1000
0100
0001
0100
,
1000
1000
1000
0000
,
0001
0010
0100
1000
,
0010
0010
0010
0000
,
1000
0010
0001
0010
,
1000
0001
1001
0000
,
1000
0000
0001
0000
,
0100
0010
1001
0000
,
1000
0000
0100
0000
0010
0001
0100
0000
,
0001
0000
0100
0000
0010
1000
0100
0000
,
1000
0000
0001
0000
0100
0010
1000
0000
,
0200
0000
0000
0300
,
1000
0000
0100
0000
,
0010
0000
0001
0000
,
0001
0000
0100
0000
,
0010
0000
1000
0000
,
0002
0000
0000
0003
,
2000
0000
0000
0000
,
0000
0000
0000
0000
,
3000
0000
1000
0000
,
0100
0000
0010
0100
,
1001
0000
0000
0000
1000
0000
0100
0010
,
0100
0000
0010
0001
1000
0000
0010
0000
,
0100
0000
0001
0000
1000
0000
0001
0100
,
0001
0000
1000
0100
1000
0000
0010
0000
,
0100
0000
0000
0000
0001
0000
0010
0100
,
0010
0000
0100
1000
0001
0000
0100
0000
,
0010
0000
1000
0000
0001
0000
1000
0010
,
1000
0000
0001
0010
0001
0000
0100
0000
,
0010
0000
1000
0000
,
0001
0000
0100
0010
,
1001
0000
0000
0000
0001
0100
0010
0000
,
1000
0000
0001
0000
1000
0100
0010
0000
,
0001
1000
0001
0001
,
0100
0100
0110
0000
,
1001
0000
0000
0000
1000
0001
0010
0000
,
0100
0000
1000
0000
0001
1000
0010
0000
,
0100
0001
1000
0000
,
0001
0000
0100
0010
,
1001
0000
0000
0000
,
0000
0000
0000
0000
;
#NOTES:
     dance-single:
     :
     Hard:
     11:
     :
0000
0000
0000
0000
,
0000
0000
0000
0000
,
0000
0000
0000
0000
,
0000
0000
0000
0000
,
0000
0000
0000
0000
,
1000
0000
0000
1000
0100
0000
0010
0001
,
0010
0000
0001
0000
1000
0000
0001
0100
,
0002
0003
2000
3000
,
1001
0110
1001
0000
,
1000
0010
1000
0010
0100
0001
0000
0001
,
0010
0000
0010
0001
1000
0100
0000
0100
,
1000
0000
0001
0100
0001
1000
0000
1000
,
0100
0010
0100
0000
0110
0000
1001
0000
,
0001
0100
0010
0000
1000
0010
0000
0010
,
0100
0001
1000
0000
0100
0010
0000
0010
,
0100
0000
1000
0001
1000
0001
0000
0001
,
0100
0110
1001
0000
,
2000
3100
0200
0310
,
0110
0000
0001
1000
0001
0000
1000
0000
,
0002
0103
0200
0310
,
0110
0000
1000
0000
0001
1000
0001
0000
,
1000
0000
0100
0000
0001
0100
1000
0000
,
1100
0110
0011
0000
,
0002
0000
0003
1000
,
0001
0010
0100
1000
0000
0000
0001
0000
,
1000
0010
0100
0001
0000
0000
1000
0000
,
0001
0100
0010
1000
0000
0000
0001
0000
,
2000
3200
0320
0032
,
2003
0000
0000
3000
,
1000
0000
0000
1000
0100
0000
0010
0001
,
0010
0000
0011
0000
1001
0000
0001
0010
,
1000
0000
0000
1000
0010
0000
0001
1000
,
0200
0010
0310
0000
,
0001
0000
0000
0001
0100
0000
1000
0100
,
0001
0000
0101
0000
1001
0000
1000
0001
,
1000
0000
0000
1000
0100
0000
0010
0100
,
0020
0001
0031
0000
,
0001
0000
0000
0001
0010
0000
0100
1000
,
0100
0000
1100
0000
1001
0000
1000
0100
,
0001
0000
0000
0001
0100
0000
1000
0001
,
0020
0100
0130
0000
,
1000
0000
0000
1000
0010
0000
0001
0010
,
1000
0000
1010
0000
1001
0000
0001
1000
,
0001
0000
0000
0001
0010
0000
0100
0010
,
0200
1000
1300
0000
,
2000
3000
0002
0003
,
1001
0110
1001
0000
,
1000
0100
1000
0100
0010
0001
0010
0000
,
0001
0100
0001
0100
0010
1000
0010
0000
,
1000
0100
0010
0001
0010
1000
0010
0000
,
0001
0100
0010
1000
0010
0001
0010
0000
,
2000
3000
0200
0300
,
0010
0010
0001
0000
,
0002
0003
0200
0300
,
0010
0010
1000
0000
,
2000
3000
0020
0030
,
0200
0300
0002
0000
,
0000
0000
0000
0000
,
0003
0000
0001
0000
,
1000
0000
1001
0110
,
1001
0000
0000
0000
1000
0010
0100
0001
,
1000
0100
0010
0001
0011
0000
1000
0000
,
1001
0000
0001
0100
0010
0000
0010
1000
,
0010
0001
0010
0000
1010
0000
1000
0000
,
1001
0000
0000
0000
0001
0100
0010
1000
,
0001
0010
0100
1000
1100
0000
0001
0000
,
1001
0000
1000
0010
0100
0000
0100
0001
,
0100
1000
0100
0000
0101
0000
0001
0000
,
1001
0000
0020
0030
,
0200
0300
1001
0110
,
1001
0000
0000
0000
1000
0010
0100
0010
,
1000
0001
0010
0100
1000
0001
0010
0000
,
0001
1000
0010
0000
1000
0001
0100
0001
,
0010
0100
1000
0001
0100
0010
1000
0000
,
0100
0010
0001
0000
0001
0010
0100
1000
,
0010
0100
0001
1000
0100
0010
0001
0000
,
0100
0010
1000
0000
0002
0000
0003
0000
,
2000
3000
1001
0110
,
1001
0000
0000
0000
,
0000
0000
0000
0000
;
#NOTES:
     dance-double:
     :
     Easy:
     5:
     :
00000000
00000000
00000000
00000000
,
00000000
00000000
00000000
00000000
,
00000000
00000000
00000000
00000000
,
00000000
00000000
00000000
00000000
,
00000000
00000000
00000000
00000000
,
00001000
00000000
00001000
00000000
,
00010000
00000000
00010000
00000000
,
00001000
00000000
00100000
00000000
,
00010000
00000000
00000000
00000000
,
00010000
01000000
00010000
00000000
,
00100000
00000000
01000000
00000000
,
00100000
00001000
00100000
00000000
,
00001000
00000000
00010000
00000000
,
00000100
00010000
00000100
00000000
,
00001000
00000000
00000010
00000000
,
00000100
00000010
00000100
00000000
,
00000010
00000000
00001000
00000000
,
00000200
00000000
00000000
00000300
,
00000100
00000000
00010000
00000000
,
00002000
00000000
00000000
00003000
,
00001000
00000000
01000000
00000000
,
00020000
00000000
00000000
00030000
,
00200000
00000000
00000000
00300000
,
01000000
00000000
00000000
00000000
,
01100000
00000000
00000000
00000000
,
00010000
00000000
00000000
00000000
,
00011000
00000000
00000000
00000000
,
00020000
00000000
00000000
00000000
,
00030000
00000000
00000000
00000000
,
00010000
00001000
00010000
00000000
,
00000010
00000000
00001000
00000000
,
00000100
00000010
00000100
00000000
,
00001000
00000000
00000010
00000000
,
00010000
00001000
00010000
00000000
,
00001000
00000000
00100000
00000000
,
01000000
00100000
01000000
00000000
,
00100000
00000000
00001000
00000000
,
00010000
00000100
00001000
00000000
,
00000010
00000000
00000010
00000000
,
00000100
00000010
00001000
00000000
,
00000100
00000000
00000100
00000000
,
00010000
00001000
00100000
00000000
,
00010000
00000000
00010000
00000000
,
01000000
00100000
01000000
00000000
,
00100000
00000000
00100000
00000000
,
01000000
00000000
00001000
00000000
,
00011000
00000000
00000000
00000000
,
00020000
00000000
00000000
00030000
,
00010000
00000000
00001000
00000000
,
00002000
00000000
00000000
00003000
,
00001000
00000000
00010000
00000000
,
00011000
00000000
00000000
00000000
,
00001000
00000000
00000000
00000000
,
00100000
00000000
00000000
00000000
,
00010000
00000000
00000000
00000000
,
01000000
00000000
00000000
00000000
,
00002000
00000000
00000000
00000000
,
00003000
00000000
00000000
00000000
,
00000000
00000000
00001000
00000000
,
00010000
00000000
00000100
00001000
,
00000100
00000000
00001000
00000000
,
00000010
00000000
00000100
00000010
,
00001000
00000000
00000100
00000000
,
00010000
00000000
00001000
00000000
,
01000000
00000000
00100000
00000000
,
01000000
00000000
00010000
00100000
,
01000000
00000000
00010000
00000000
,
00001000
00000000
00010000
00000000
,
00000000
00000000
00011000
00000000
,
00000000
00000000
00001000
00010000
,
00001000
00000000
00010000
00000000
,
00001000
00000000
00100000
00000000
,
00000000
00000000
00001000
00000000
,
00010000
00000000
00000100
00000000
,
00000000
00000000
00000100
00000000
,
00000010
00000000
00000100
00000000
,
00010000
00000000
00001000
00000000
,
01000000
00000000
00100000
01000000
,
00100000
00000000
00000000
00000000
,
00000000
00000000
00000000
00000000
;
#NOTES:
     dance-double:
     :
     Medium:
     8:
     :
00000000
00000000
00000000
00000000
,
00000000
00000000
00000000
00000000
,
00000000
00000000
00000000
00000000
,
00000000
00000000
00000000
00000000
,
00000000
00000000
00000000
00000000
,
00001000
00000000
00010000
00000000
,
00001000
00010000
00100000
00000000
,
02000000
03000000
00200000
00300000
,
10000000
00010000
10000000
00000000
,
10000000
00000000
01000000
00000000
00100000
00010000
00000000
00100000
,
00010000
00000000
00100000
00000000
00001000
00010000
00000000
00001000
,
00010000
00000000
00000100
00000000
00001000
00000100
00000000
00001000
,
00000100
00000010
00000001
00000000
,
00000001
00000000
00000100
00000000
00000010
00001000
00000000
00000010
,
00001000
00000000
00000010
00000000
00010000
00001000
00000000
00010000
,
00001000
00000000
01000000
00000000
00010000
01000000
00000000
00010000
,
01000000
00100000
10000000
00000000
,
10000000
00000000
00100000
00000000
10000000
01000000
00100000
00000000
,
00020000
00000000
00000000
00030000
,
00010000
00000000
00100000
00000000
00001000
00010000
00001000
00000000
,
00020000
00000000
00000000
00030000
,
00010000
00000000
00001000
00000000
,
00010000
00000010
00001000
00000000
,
00000020
00000000
00000000
00000030
,
00000010
00000000
00000100
00000001
00000000
00000000
00000001
00000000
,
00000010
00000000
00000100
00001000
00000000
00000000
00001000
00000000
,
00000100
00000000
00010000
00001000
00000000
00000000
00001000
00000000
,
00020000
00000000
00000000
00030000
,
00002000
00000000
00000000
00003000
,
00010000
00001000
01000000
00010000
,
00100000
00100000
00100000
00000000
,
00010000
10000000
01000000
00100000
,
00001000
00010000
00001000
00000000
,
00010000
00001000
01000000
00100000
,
01000000
01000000
01000000
00000000
,
01000000
00010000
00100000
00001000
,
00010000
00001000
00011000
00000000
,
00001000
00010000
00000100
00001000
,
00000010
00000010
00000010
00000000
,
00001000
00000001
00000100
00000010
,
00010000
00001000
00010000
00000000
,
00001000
00010000
00000100
00000010
,
00000100
00000100
00000100
00000000
,
00000100
00001000
00000010
00010000
,
00001000
00010000
00011000
00000000
,
00001000
00000000
00010000
00000000
,
00001000
00010000
00011000
00000000
,
00001000
00000000
01000000
00000000
00010000
00100000
00010000
00000000
,
01000000
00000000
00100000
00000000
10000000
00010000
10000000
00000000
,
01000000
00000000
00100000
00000000
00010000
00100000
00001000
00000000
,
00020000
00000000
00000000
00030000
,
00001000
00000000
00000010
00000000
,
00000001
00000000
00000000
00000000
,
00000001
00000000
00000100
00000000
,
00001000
00000000
00000000
00000000
,
00010000
00000000
00100000
00000000
,
20000000
00000000
00000000
00000000
,
00000000
00000000
00000000
00000000
,
30000000
00000000
10000000
00000000
,
01000000
00000000
00010000
00001000
,
00011000
00000000
00010000
00000010
,
00001000
00000100
00001000
00000000
00000010
00000000
00000100
00000000
,
00000001
00000000
00001000
00000100
00001000
00000000
00000010
00000000
,
00010000
00001000
00010000
00000000
00001000
00000000
00100000
00000000
,
00010000
00000000
00010000
10000000
,
00100000
01000000
00100000
00000000
01000000
00000000
00010000
00000000
,
00100000
00000000
01000000
00100000
01000000
00000000
00010000
00000000
,
00001000
00010000
00001000
00000000
00010000
00000000
00000100
00000000
,
00001000
00000000
00000010
00000000
,
00000100
00000000
00000001
00001000
,
00001001
00000000
00000000
00000000
00000001
00000100
00000010
00000000
,
00000100
00000000
00000001
00000000
00000010
00000100
00001000
00000000
,
00000100
00010000
00001000
00001000
,
01000000
01000000
00010000
01000000
,
01100000
00000000
00000000
00000000
10000000
01000000
00100000
00000000
,
01000000
00000000
10000000
00000000
00100000
01000000
00010000
00000000
,
01000000
00001000
00010000
00010000
,
00000100
00000100
00001000
00000100
,
00000110
00000000
00000000
00000000
,
00000000
00000000
00000000
00000000
;
#NOTES:
     dance-double:
     :
     Hard:
     11:
     :
00000000
00000000
00000000
00000000
,
00000000
00000000
00000000
00000000
,
00000000
00000000
00000000
00000000
,
00000000
00000000
00000000
00000000
,
00000000
00000000
00000000
00000000
,
00001000
00000000
00000000
00010000
00001000
00000000
01000000
00010000
,
01000000
00000000
00100000
00000000
10000000
00000000
00010000
01000000
,
00020000
00030000
20000000
30000000
,
10010000
01100000
10010000
00000000
,
10000000
00100000
10000000
00000000
01000000
00100000
00000000
00100000
,
00001000
00000000
00010000
00001000
00010000
00000100
00000000
00000100
,
00001000
00000000
00000010
00000000
00000100
00000001
00000000
00000001
,
00000010
00000100
00000010
00000000
00000110
00000000
00001001
00000000
,
00000001
00000010
00000001
00000000
00000100
00000010
00000000
00000010
,
00010000
00000000
00001000
00010000
00001000
01000000
00000000
01000000
,
00010000
00000000
00100000
00000000
01000000
10000000
00000000
10000000
,
00100000
01100000
10010000
00000000
,
10000000
01000000
00010000
00001000
,
00000010
00000000
00000001
00001000
00000001
00000000
00001000
00000000
,
00000001
00000100
00001000
00010000
,
00100000
00000000
10000000
00010000
10000000
00000000
00010000
00000000
,
10000000
00000000
01000000
00000000
00100000
01000000
10000000
00000000
,
00100000
00010000
00001000
00000100
,
00000002
00000000
00000003
00001000
,
00000001
00000010
00000100
00001000
00000000
00000000
00000100
00000000
,
00010000
00001000
00100000
00010000
00000000
00000000
01000000
00000000
,
00010000
01000000
00100000
10000000
00000000
00000000
00010000
00000000
,
20000000
32000000
03200000
00302000
,
00023000
00000000
00000000
00030000
,
00011000
00000000
00000000
00010000
00000100
00000000
00001000
00000100
,
00000010
00000000
00000001
00000000
00001000
00000000
00000001
00000100
,
00000001
00000000
00000000
00000100
00001000
00000000
00010000
00001000
,
00010000
00100000
10000000
00000000
,
00010000
00000000
00000000
10000000
01000000
00000000
00100000
00010000
,
00100000
00000000
00001000
00000000
00010000
00000000
00000100
00001000
,
00000010
00000000
00000000
00000100
00000010
00000000
00000100
00001000
,
00020000
00001000
00031000
00000000
,
00011000
00000000
00000000
00001000
01000000
00000000
00010000
01000000
,
00100000
00000000
10000000
00000000
00010000
00000000
10000000
01000000
,
10000000
00000000
00000000
01000000
00010000
00000000
00001000
00010000
,
00001000
00000010
00000001
00000000
,
00001000
00000000
00000000
00000001
00000100
00000000
00000010
00001000
,
00000010
00000000
00010000
00000000
00001000
00000000
01000000
00010000
,
00100000
00000000
00000000
01000000
00100000
00000000
01000000
00010000
,
00002000
00010000
00013000
00000000
,
00002000
00003000
00020000
00030000
,
00001000
00010000
00011000
00000000
,
00001000
00010000
00001000
00010000
00000010
00001000
00000010
00000000
,
00000100
00000001
00000100
00000001
00000010
00000001
00000010
00000000
,
00000100
00001000
00000100
00010000
00001000
00010000
00001000
00000000
,
00100000
00010000
00100000
01000000
10000000
00010000
10000000
00000000
,
02000000
03000000
00200000
00300000
,
00010000
00100000
00001000
00000000
,
00020000
00030000
00000200
00000300
,
00001000
00000010
00000100
00000000
,
00000002
00000003
00000200
00000300
,
00002000
00003000
00020000
00000000
,
00000000
00000000
00000000
00000000
,
00030000
00000000
00001000
00000000
,
00010000
00000000
00100000
01000000
,
10010000
00000000
00000000
00000000
10000000
00100000
01000000
00100000
,
10000000
01000000
00100000
00000000
00110000
00000000
00010000
00000000
,
00101000
00000000
00001000
00010000
00000100
00000000
00000100
00001000
,
00000100
00000010
00000001
00000000
00000011
00000000
00000010
00000000
,
00001001
00000000
00000000
00000000
00001000
00000010
00001000
00000100
,
00010000
00001000
00100000
00000000
00110000
00000000
00010000
00000000
,
01010000
00000000
01000000
00100000
10000000
00000000
10000000
01000000
,
00100000
01000000
00010000
01000000
10000000
00000000
00010000
00000000
,
01100000
00000000
20000000
30000000
,
00020000
00030000
10010000
01100000
,
10010000
00000000
00000000
00000000
10000000
00010000
01000000
00100000
,
10000000
00010000
00100000
00000000
00010000
01000000
00001000
00000000
,
00010000
00000010
00001000
00000000
00000100
00000010
00000001
00000100
,
00000001
00000010
00000100
00000000
00001000
00000001
00000100
00000000
,
00000001
00001000
00000100
00000000
00000010
00000100
00010000
00001000
,
00010000
00001000
01000000
00100000
01000000
00010000
00100000
01000000
,
10000000
00010000
10000000
00000000
02000000
00000000
03000000
00000000
,
00020000
00030000
00001000
00010000
,
00011000
00000000
00000000
00000000
,
00000000
00000000
00000000
00000000
;
