
//----- song ID: kare -----//
#TITLE:華麗なる!音戯探偵ひなビタ♫;
#ARTIST:音戯探偵ひなビタ♫;
#TITLETRANSLIT:Kareinaru! Otogi tantei HinaBitter;
#ARTISTTRANSLIT:Otogi tantei HinaBitter;
#BANNER:Kareinaru! Otogi tantei HinaBitter.png;
#BACKGROUND:Kareinaru! Otogi tantei HinaBitter-bg.png;
#CDTITLE:./CDTitles/DDR WORLD.png;
#MUSIC:Kareinaru! Otogi tantei HinaBitter.ogg;
#SAMPLESTART:71.997;
#SAMPLELENGTH:15;
#DISPLAYBPM:92:127;
#BPMS:0=127.051,4=126.997,108=124.224,109=120,110=111.94,111=85.96,111.5=81.967,112=91.999,128.5=87.977,129=84.034,129.5=72.115,130=127;
#NOTES:
     dance-single:
     :
     Beginner:
     2:
     :
0000
0000
0000
0000
,
0000
0000
0000
0000
,
0000
0000
0000
0000
,
0000
0000
0000
0000
,
0001
0000
0000
0000
,
0001
0000
0000
0000
,
0001
0000
0000
0000
,
0001
0000
0000
0000
,
1000
0000
0000
0000
,
1000
0000
0000
0000
,
1000
0000
0000
0000
,
1000
0000
0000
0000
,
1001
0000
0000
0000
,
1001
0000
0000
0000
,
1001
0000
0000
0000
,
1000
0000
1000
0000
,
1000
0000
0000
0000
,
0001
0000
0000
0000
,
0001
0000
0000
0000
,
1000
0000
0000
0000
,
0001
0000
0000
0000
,
0001
0000
0000
0000
,
0001
0000
0000
0000
,
0001
0000
0000
0000
,
1000
0000
0000
0000
,
1000
0000
0000
0000
,
1000
0000
0000
0000
,
2000
0000
0000
0000
,
3000
0000
0000
0001
,
0000
0000
0001
0000
,
0000
0001
0000
0000
,
1000
0000
0000
2000
,
0000
0000
3000
0000
,
0000
0000
0001
0000
,
0000
0000
1000
0000
,
0000
0000
1001
0000
,
0000
0000
0001
0000
,
0001
0000
0100
0000
,
0000
0000
0100
0000
,
0100
0000
0001
0000
,
0000
0000
1000
0000
,
1000
0000
0010
0000
,
0000
0000
0010
0000
,
0010
0000
1000
0000
,
0000
0000
1001
0000
,
0000
0000
1000
0000
,
1000
0000
0100
0000
,
0000
0000
0100
0000
,
0100
0000
1000
0000
,
0000
0000
1001
0000
,
0000
0000
0001
0000
,
0001
0000
1000
0000
,
1000
0000
0010
0000
,
0010
0000
0010
0000
,
0000
0000
1001
0000
,
0000
0000
0000
0000
;
#NOTES:
     dance-single:
     :
     Easy:
     5:
     :
0000
0000
0000
0000
,
0000
0000
0000
0000
,
0000
0000
0000
0000
,
0000
0000
0000
0000
,
0001
1000
0001
0000
,
1000
0001
1000
0000
,
0010
0100
0010
0000
,
0100
0010
0100
0000
,
0001
0100
0001
0000
,
1000
0100
1000
0000
,
0001
0010
0001
0000
,
1000
0010
1000
0000
,
1001
0000
0000
0000
,
0110
0000
0000
0000
,
1001
0000
0000
0000
,
1000
0000
0001
0000
,
1000
0100
0010
0001
,
1000
0010
0100
0001
,
2000
0000
3002
0000
,
1003
0000
0010
0000
,
0100
0001
0100
0001
,
1000
0100
1000
0100
,
0010
0001
0010
0001
,
1000
0010
1000
0010
,
0100
0001
0010
0100
,
0010
0001
0100
0010
,
1000
0001
1000
0001
,
1000
0001
1000
0002
,
0003
0000
0000
1000
,
0000
0000
0001
0000
,
0000
1000
0000
0000
,
0020
0000
0030
0200
,
0000
0000
0300
0000
,
0001
0001
0001
0000
,
1000
1000
2000
0000
,
3002
0000
1003
0001
,
1001
0000
1000
0100
,
1000
0001
0100
0010
,
1000
0001
0100
0001
,
1000
0100
0010
0001
,
1000
0100
1000
0010
,
0100
0001
0020
0032
,
2003
3000
0001
0100
,
0010
1000
0100
0010
,
0220
0330
1001
0000
,
0001
1000
0100
0010
,
0001
1000
0100
1000
,
0001
0100
0010
1000
,
0001
0100
0001
0010
,
0100
1000
0020
2030
,
3002
0003
1000
0010
,
0100
0001
1000
0100
,
0010
0001
1000
0010
,
0100
0000
0110
0000
,
0010
0000
0000
0100
0000
0000
0000
0000
,
0000
0000
0000
0000
;
#NOTES:
     dance-single:
     :
     Medium:
     10:
     :
0000
0000
0000
0000
,
0000
0000
0000
0000
,
0000
0000
0000
0000
,
0000
0000
0000
0000
,
0001
0000
0100
0000
1000
0000
0100
0000
0001
0000
0000
0001
0000
0000
0000
0000
,
1000
0000
0100
0000
0001
0000
0100
0000
1000
0000
0000
1000
0000
0000
0000
0000
,
0010
0000
0100
0000
0001
0000
0100
0000
0010
0000
0000
0010
0000
0000
0000
0000
,
0100
0000
0010
0000
0001
0000
0010
0000
0100
0000
0000
0100
0000
0000
0000
0000
,
0110
0000
0000
0000
1000
0000
0000
0000
1010
0000
0000
0001
0000
0000
0000
0000
,
0000
1000
0000
0000
0001
0000
0001
0000
0010
0000
0000
0100
0000
0000
0000
0000
,
0110
0000
0000
0000
0001
0000
0000
0000
0011
0000
0000
1000
0000
0000
0000
0000
,
0000
0001
0000
0000
1000
0000
1000
0000
0010
0000
0000
0100
0000
0000
0000
0000
,
1001
0000
0000
0000
0000
0002
0000
0000
,
1003
0000
0000
0000
0000
2000
0000
0000
,
3100
0000
0000
0000
0000
0200
0000
0000
,
0310
0000
0000
0000
0000
0000
0010
0000
0000
0000
0000
1001
0000
0000
0000
0000
,
1000
0100
0001
0100
,
1000
0010
0001
0010
,
2000
0000
0000
0000
0000
0000
0000
0000
3001
0000
0000
0001
0000
0000
0001
0000
,
1000
0000
0000
0001
0000
0000
1000
0000
0000
0000
0020
0000
0000
0000
0000
0000
,
0130
0001
0100
0001
1000
0100
1000
0100
,
0010
0001
0010
0001
1000
0010
1000
0010
,
0100
0010
0100
0010
1000
0001
1000
0001
,
0010
0100
0010
0100
1000
0001
1000
0001
,
0010
0001
0010
0001
0100
0001
0100
0001
,
1000
0010
1000
0010
1000
0100
1000
0100
,
2000
3002
0023
0230
,
2300
3020
0230
0302
,
2003
0000
0000
3001
0000
0001
0002
0000
,
0000
1003
0000
1000
2000
0000
0000
3100
,
0000
0100
0200
0000
0000
0310
0000
0010
,
0020
0000
0001
0031
0000
0001
0002
0000
,
1000
2003
0000
0000
3000
0000
0000
0000
,
1000
1000
1000
0000
,
0001
0001
0002
0023
,
0230
0000
0000
0000
2300
0000
0000
0000
3001
0000
0000
1000
0000
0001
0000
1000
,
0000
0000
0001
1000
0000
1001
0000
1000
,
0100
1000
0001
0100
0010
1000
0001
0010
,
0100
1000
0001
0100
0010
1000
0001
0100
,
0001
1000
0100
1000
0010
0100
0010
1000
,
0001
0010
0100
0010
0001
1001
0000
1000
,
0100
0010
0001
0100
0020
0000
2030
0000
,
3002
0000
0003
1000
0100
0010
0001
1000
,
0010
0000
0100
0010
0000
0000
1000
0000
0001
0000
0000
0000
1100
0000
0000
0000
,
0011
0000
1010
0000
0000
1001
0000
0001
,
0100
0001
1000
0100
0010
0001
1000
0010
,
0100
0001
1000
0100
0010
0001
1000
0100
,
1000
0001
0100
0001
0010
0100
0010
0001
,
1000
0010
0100
0010
1000
1001
0000
0001
,
0100
0010
1000
0100
0020
0000
0032
0000
,
2003
0000
3000
0001
0010
0100
1000
0010
,
0100
0001
0010
0100
1000
0001
0100
1000
,
0100
0001
1000
0100
0010
0001
1000
0010
,
0001
0010
1000
0001
1000
0000
1001
0000
,
0001
0000
0000
1000
0000
0000
2002
0000
0000
0000
0000
0000
0000
0000
3003
0000
,
0000
0000
0000
0000
;
#NOTES:
     dance-single:
     :
     Hard:
     14:
     :
0000
0000
0000
0000
,
0000
0000
0000
0000
,
0000
0000
0000
0000
,
0000
0000
0000
0000
,
0001
0000
0100
0000
1000
0000
0100
0000
0001
0000
0000
1001
0000
0000
0000
0000
,
1000
0000
0100
0000
0001
0000
0100
0000
1000
0000
0000
1001
0000
0000
0000
0000
,
1000
0000
0000
0000
0000
0000
0010
0000
0000
0000
0000
0000
0001
0000
0000
0000
0000
0000
0010
0000
0000
0000
0000
0000
1000
0000
0000
0000
0000
0000
0000
0000
0000
1001
0000
0000
0000
0000
0000
0000
0000
0000
0000
0000
0000
0000
0001
0000
,
0010
0000
0000
0000
0010
0000
0100
0000
0000
0000
0000
0000
0010
0000
0000
0000
0000
0000
0001
0000
0000
0000
0000
0000
1000
0000
0000
0000
0000
0000
0000
0000
0000
0010
0000
0000
0000
0000
0000
0000
0100
0000
0001
0000
0000
0000
0000
0000
,
1000
0000
0000
0000
0011
0000
0000
0000
0110
0000
0000
1100
0000
0000
0000
0000
,
0000
2000
0000
0000
3010
0000
0010
0000
0200
0000
0000
0301
0000
0000
0000
0000
,
0001
0000
0000
0000
1100
0000
0000
0000
0110
0000
0000
0011
0000
0000
0000
0000
,
0000
0002
0000
0000
0103
0000
0100
0000
0020
0000
0000
1030
0000
0000
0000
0000
,
1001
0000
0000
0000
0000
0020
0000
0030
,
1001
0000
0000
0000
0000
0200
0000
0300
,
1001
0000
0000
0000
0000
1010
0000
0010
,
0100
0000
0000
0000
0000
0000
0100
0000
0000
0010
0000
0000
0000
0000
0000
0000
0000
0000
1000
0000
0000
0000
0100
0000
0010
0000
0000
0000
0100
0000
0000
0000
0000
1000
0000
0000
0000
0000
0000
0010
0000
0000
0000
0000
0000
0000
0100
0000
,
0001
0000
0000
0000
0000
0001
0010
0000
0000
0010
0000
0100
1000
0000
0000
0000
0000
1000
0010
0000
0000
0010
0000
0100
,
0001
0000
0000
0000
0000
0001
0100
0000
0000
0100
0000
0010
1000
0000
0000
0000
0000
1000
0100
0000
0000
0100
0000
0010
,
0100
0000
0000
0000
0010
0000
0100
0000
0000
0000
0010
0000
0100
0000
0000
0000
0010
0000
0100
0000
0000
0000
0010
0000
0100
0000
0000
0000
0000
0000
0000
0000
0000
0100
0000
0000
0000
0000
0000
0000
0000
0000
0100
0000
0000
0000
0000
0000
,
1100
0000
0000
0000
0000
0000
0000
0000
0000
0101
0000
0000
0000
0000
0000
0000
0000
0000
1001
0000
0000
0000
0000
0000
0000
0000
0000
0000
0000
0000
0011
0000
0000
0000
0000
0000
0010
0000
0000
0000
0100
0000
0010
0000
0000
0000
0100
0000
,
0010
0000
0000
0001
0000
0000
1000
0000
1000
0001
0000
0000
0010
0000
0000
0001
0000
1000
0000
0000
1000
0001
0000
0000
,
1000
0000
0000
0010
0000
0000
1000
0000
1000
0001
0000
0000
1000
0000
0000
0010
0000
1000
0000
0000
1000
0001
0000
0000
,
0001
0000
0000
0010
0000
0000
0001
0000
0001
1000
0000
0000
0001
0000
0000
0010
0000
0001
0000
0000
0001
1000
0000
0000
,
0010
0000
0000
1000
0000
0000
0001
0000
0001
1000
0000
0000
0010
0000
0000
1000
0000
0001
0000
0000
0001
1000
0000
0000
,
1000
0000
0000
0010
0000
0000
0100
0000
0100
0001
0000
0000
0010
0000
0000
0100
0000
1000
0000
0000
1000
0001
0000
0000
,
0001
0000
0000
0010
0000
0000
0100
0000
0100
1000
0000
0000
0010
0000
0000
0100
0000
0001
0000
0000
0001
1000
0000
0000
,
0002
0023
0230
2300
,
3020
0230
0302
0023
,
0130
0000
0000
0010
0000
0100
0010
0000
0100
1000
0000
0000
0010
0000
0000
0100
0000
0000
0001
0000
0000
0010
0000
0100
,
0010
0000
0100
1000
0000
0000
0010
0000
0000
0100
0000
0000
0001
0000
0000
0010
0000
0100
0010
0000
0001
1000
0000
0000
,
0010
0000
0000
0100
0000
0000
0001
0000
0000
0010
0000
1000
0000
0000
0010
0001
0000
0000
0000
0000
0000
1000
0000
0000
,
0010
0000
0000
0000
0000
0000
0100
0000
0000
0001
0000
0000
0000
0000
0000
0010
0000
1000
0010
0000
0000
0001
0000
0000
,
1000
0000
0000
0002
0000
0000
0000
0000
0000
0000
0000
0000
0003
0000
1000
0000
0000
0000
1000
0000
1000
0010
0000
0000
,
0001
0000
0000
0000
0000
0000
0010
0000
0000
0000
0000
0000
1000
0000
0000
0100
0000
0000
0000
0000
0000
0110
0000
0000
0000
0000
0000
0000
0001
0000
0000
0000
0000
0000
0000
0000
0001
0000
0000
0000
0001
0000
0100
0000
0000
0000
0000
0000
,
1000
0000
0100
0000
0001
0010
0000
0000
0200
0000
0000
0000
0302
0000
0000
0000
,
2003
0000
0000
0000
3020
0000
0000
0000
0031
1000
0000
0010
0000
0100
0000
0110
,
0000
0000
0000
0001
0000
0000
0010
0000
0100
1000
0000
0000
0010
0000
0000
0110
0000
0000
0001
0000
0001
1000
0000
0000
,
1000
0000
1000
0001
0000
0000
0001
0000
0001
0010
0000
0000
0110
0000
0000
0100
0000
0000
0110
0000
0000
0010
0000
0000
,
1001
0000
0000
1000
0000
0000
1001
0000
0000
0001
0000
0000
0110
0000
0000
0020
0000
0130
0000
0000
0000
0001
0000
0000
,
1000
0000
1000
0100
0000
0000
0100
0000
0100
0010
0000
0000
0010
0000
0100
0010
0000
0100
0010
0000
0100
0010
0000
0100
,
0010
0000
0000
0000
0011
0000
0000
0000
0000
1010
0000
0000
0001
0000
0000
1001
0000
0000
1000
0000
1000
0010
0000
0000
,
0010
0000
0010
0100
0000
0000
0100
0000
0100
0001
0000
0000
0020
0000
0000
0000
0000
0000
0230
0000
0000
0000
0000
0000
,
0320
0000
0030
0001
0100
1000
0100
0001
,
0010
0000
1000
0010
0000
0000
0001
0000
0101
0000
0100
0000
1100
0000
0100
0000
,
0011
0000
0000
0010
0000
0000
1010
0000
0000
0020
0000
0000
0030
0000
0000
1001
0000
0000
1000
0000
1000
0001
0000
0000
,
0001
0000
0001
1000
0000
0000
1000
0000
1000
0010
0000
0000
0110
0000
0000
0100
0000
0000
0110
0000
0000
0010
0000
0000
,
1001
0000
0000
0001
0000
0000
1001
0000
0000
1000
0000
0000
0110
0000
0000
0020
0000
0130
0000
0000
0000
1000
0000
0000
,
0001
0000
0001
0100
0000
0000
0100
0000
0100
0010
0000
0000
0010
0000
0100
0010
0000
0100
0010
0000
0100
0010
0000
0100
,
0010
0000
0000
0000
1010
0000
0000
0000
0000
0011
0000
0000
1000
0000
0000
1001
0000
0000
0001
0000
0001
0010
0000
0000
,
0010
0000
0010
0100
0000
0000
0100
0000
0100
1000
0000
0000
0020
0000
0000
0000
0000
0000
0230
0000
0000
0000
0000
0000
,
0320
0000
0030
1000
0001
0100
0010
1000
,
0001
0000
0000
0000
0100
0000
0010
0000
0000
1000
0000
0000
0000
0000
0000
0000
0000
0000
0001
0000
0000
0000
0000
0000
1000
0000
0000
0000
0000
0000
0100
0000
0000
0000
0000
0000
0010
0000
0000
0000
0000
0000
0001
0000
0000
0000
0000
0000
,
1000
0000
0000
0000
0100
0000
0010
0000
0000
0001
0000
0000
0000
0000
0000
0000
0000
0000
1000
0000
0000
0000
0000
0000
0010
0000
0000
0000
0000
0000
0001
0000
0000
0000
0000
0000
0010
0000
0000
0000
0000
0000
1000
0000
0000
0000
0000
0000
,
0100
0000
0000
0001
0000
0100
0000
0000
0000
1000
0000
0000
0001
0000
0000
0000
0000
0000
1001
0000
0000
0000
0000
0000
,
0001
0000
0000
1000
0000
0000
2002
0000
0000
0000
0000
0000
0000
0000
3003
0000
,
0000
0000
0000
0000
;
#NOTES:
     dance-double:
     :
     Easy:
     5:
     :
00000000
00000000
00000000
00000000
,
00000000
00000000
00000000
00000000
,
00000000
00000000
00000000
00000000
,
00000000
00000000
00000000
00000000
,
00001000
00010000
00001000
00000000
,
00010000
00001000
00010000
00000000
,
00000100
00001000
00000100
00000000
,
00001000
00000001
00001000
00000000
,
00000001
00000100
00000001
00000000
,
00000100
00000010
00000100
00000000
,
00000010
00001000
00000010
00000000
,
00010000
00001000
00010000
00000000
,
00011000
00000000
00000000
00000000
,
01001000
00000000
00000000
00000000
,
01010000
00000000
00000000
00000000
,
10000000
00000000
00010000
00000000
,
10000000
01000000
00100000
00001000
,
00010000
00000100
00001000
00000001
,
00000200
00000000
00000320
00000000
,
00001030
00000000
00000001
00000000
,
00000100
00000001
00000100
00000001
,
00001000
00000100
00001000
00000100
,
00010000
00001000
00010000
00001000
,
01000000
00010000
01000000
00010000
,
10000000
00010000
10000000
00010000
,
00100000
00001000
00100000
00001000
,
00010000
00001000
00010000
00001000
,
00010000
00001000
00010000
00002000
,
00003000
00000000
00000000
00010000
,
00000000
00000000
00001000
00000000
,
00000000
00010000
00000000
00000000
,
00002000
00000000
00003000
00020000
,
00000000
00000000
00030000
00000000
,
00001000
00001000
00001000
00000000
,
00010000
00010000
00020000
00000000
,
00030200
00000000
00001300
00000001
,
00001001
00000000
00001000
00000100
,
00001000
00000001
00000100
00000010
,
00001000
00000010
00010000
00001000
,
01000000
00010000
10000000
01000000
,
00100000
00001000
00010000
00000000
,
00001000
00010000
00000020
00002030
,
00003002
00000003
00000010
00000001
,
00001000
00000100
00010000
00001000
,
02000000
03000000
10010000
00000000
,
00010000
10000000
01000000
00100000
,
00010000
00100000
00001000
00010000
,
00000100
00001000
00000001
00000100
,
00000010
00010000
00001000
00000000
,
00010000
00001000
00200000
00320000
,
20030000
30000000
00100000
10000000
,
00010000
01000000
00001000
00010000
,
00000010
00001000
00000001
00000010
,
00000100
00010000
00001000
00000000
,
00010000
00000000
00000000
00001000
00000000
00000000
00000000
00000000
,
00000000
00000000
00000000
00000000
;
#NOTES:
     dance-double:
     :
     Medium:
     10:
     :
00000000
00000000
00000000
00000000
,
00000000
00000000
00000000
00000000
,
00000000
00000000
00000000
00000000
,
00000000
00000000
00000000
00000000
,
00010000
00000000
00001000
00000000
00010000
00000000
01000000
00000000
20000000
00000000
00000000
30010000
00000000
00000000
00000000
00000000
,
10000000
00000000
00010000
00000000
10000000
00000000
01000000
00000000
00020000
00000000
00000000
00031000
00000000
00000000
00000000
00000000
,
00001000
00000000
00010000
00000000
00001000
00000000
00000100
00000000
00000002
00000000
00000000
00001003
00000000
00000000
00000000
00000000
,
00000001
00000000
00001000
00000000
00000001
00000000
00000100
00000000
00002000
00000000
00000000
00013000
00000000
00000000
00000000
00000000
,
00011000
00000000
00000000
00000000
00100000
00000000
00000000
00000000
01100000
00000000
00000000
10000000
00000000
00000000
00000000
00000000
,
00000000
00010000
00000000
00000000
00100000
00000000
00100000
00000000
00001000
00000000
00000000
00010000
00000000
00000000
00000000
00000000
,
00011000
00000000
00000000
00000000
00000010
00000000
00000000
00000000
00000110
00000000
00000000
00000001
00000000
00000000
00000000
00000000
,
00000000
00001000
00000000
00000000
00000010
00000000
00000010
00000000
00010000
00000000
00000000
00001000
00000000
00000000
00000000
00000000
,
00011000
00000000
00000000
00000000
00000000
00020000
00000000
00000000
,
00030100
00000000
00000000
00000000
00000000
00000200
00000000
00000000
,
00001300
00000000
00000000
00000000
00000000
00002000
00000000
00000000
,
00003001
00000000
00000000
00000000
00000000
00000000
00000001
00000000
00000000
00000000
00000000
00001001
00000000
00000000
00000000
00000000
,
00001000
00000100
00010000
00001000
,
01000000
00010000
10000000
01000000
,
00200000
00000000
00000000
00000000
00000000
00000000
00000000
00000000
00310000
00000000
00000000
00010000
00000000
00000000
00010000
00000000
,
01000000
00000000
00000000
00001000
00000000
00000000
00010000
00000000
00000000
00000000
00002000
00000000
00000000
00000000
00000000
00000000
,
00013000
00000010
00010000
00000010
00001000
00000001
00001000
00000001
,
00001000
00000100
00001000
00000100
00010000
00001000
00010000
00001000
,
01000000
00010000
01000000
00010000
10000000
01000000
10000000
01000000
,
00100000
00010000
00100000
00010000
00100000
00001000
00100000
00001000
,
00010000
00000100
00010000
00000100
00001000
00000001
00001000
00000001
,
00001000
00000010
00001000
00000010
00010000
00001000
00010000
00001000
,
00020000
00032000
00203000
02300000
,
23000000
30200000
02300000
03020000
,
20030000
00000000
00000000
30010000
00000000
00000000
00020000
00000000
,
00000000
01030000
00000000
00000000
02000000
00000000
00000000
03001000
,
00000000
00000000
00002000
00000000
00000000
00013000
00000000
00000000
,
00020000
00000000
00000000
00030100
00000000
00000000
00000200
00000000
,
00000000
00002300
00000000
00000000
00003000
00000000
00000000
00000000
,
00000001
00000001
00000001
00000000
,
00001000
00001000
00002000
00003020
,
00000230
00000000
00000000
00000000
00002300
00000000
00000000
00000000
00013000
00000000
00000000
00001000
00000000
00010000
00000000
00001000
,
00000000
00000000
01000000
00010000
00000000
10010000
00000000
10000000
,
01000000
10000000
00010000
01000000
00001000
00010000
00000010
00001000
,
00000001
00000010
00000001
00001000
00000100
00010000
00001000
00100000
,
01000000
10000000
00010000
01000000
00100000
10000000
00010000
00100000
,
00001000
00000000
00000000
00001000
00000000
00000000
00001000
00000000
00000000
00000000
00011000
00000000
00000000
00000000
00010000
00000000
,
00001000
00010000
00000100
00001000
00000020
00000000
00020030
00000000
,
00032000
00000000
00003000
00100000
00010000
10000000
01000000
00100000
,
00001000
00000000
00010000
00001000
00000000
00000000
00010000
00000000
00000010
00000000
00000000
00000000
00001010
00000000
00000000
00000000
,
00000110
00000000
00000101
00000000
00000000
00001001
00000000
00000001
,
00000100
00000001
00001000
00000100
00010000
00001000
00100000
00010000
,
10000000
00100000
10000000
00010000
01000000
00001000
00010000
00000010
,
00000100
00000001
00001000
00000100
00000010
00000001
00001000
00000010
,
00010000
00000000
00000000
00010000
00000000
00000000
00010000
00000000
00000000
00000000
00011000
00000000
00000000
00000000
00001000
00000000
,
00010000
00001000
01000000
00010000
00200000
00000000
00302000
00000000
,
00023000
00000000
00030000
00001000
00010000
00001000
00000100
00000001
,
00001000
00001000
00001000
00000000
00000001
00000100
00001000
00010000
,
00001000
00001000
00001000
00000000
00010000
00001000
00010000
01000000
,
10000000
00000000
00000000
10000000
00000000
00000000
10000000
00000000
00010000
00000000
00000000
00000000
10010000
00000000
00000000
00000000
,
10000000
00000000
00000000
00010000
00000000
00000000
20020000
00000000
00000000
00000000
00000000
00000000
00000000
00000000
30030000
00000000
,
00000000
00000000
00000000
00000000
;
#NOTES:
     dance-double:
     :
     Hard:
     14:
     :
00000000
00000000
00000000
00000000
,
00000000
00000000
00000000
00000000
,
00000000
00000000
00000000
00000000
,
00000000
00000000
00000000
00000000
,
00010000
00000000
00001000
00000000
00010000
00000000
01000000
00000000
10000000
00000000
00000000
10010000
00000000
00000000
00000000
00000000
,
10000000
00000000
00010000
00000000
10000000
00000000
01000000
00000000
00010000
00000000
00000000
00011000
00000000
00000000
00000000
00000000
,
00001000
00000000
00000000
00000000
00000000
00000000
00010000
00000000
00000000
00000000
00000000
00000000
00001000
00000000
00000000
00000000
00000000
00000000
00000100
00000000
00000000
00000000
00000000
00000000
00000001
00000000
00000000
00000000
00000000
00000000
00000000
00000000
00000000
00001001
00000000
00000000
00000000
00000000
00000000
00000000
00000000
00000000
00000000
00000000
00000000
00000000
00000001
00000000
,
00000010
00000000
00000000
00000000
00000010
00000000
00000100
00000000
00000000
00000000
00000000
00000000
00000010
00000000
00000000
00000000
00000000
00000000
00001000
00000000
00000000
00000000
00000000
00000000
00010000
00000000
00000000
00000000
00000000
00000000
00000000
00000000
00000000
00001000
00000000
00000000
00000000
00000000
00000000
00000000
01000000
00000000
00010000
00000000
00000000
00000000
00000000
00000000
,
10000000
00000000
00000000
00000000
11000000
00000000
00000000
00000000
00210000
00000000
00000000
00301000
00000000
00000000
00000000
00000000
,
00000000
00020000
00000000
00000000
00030010
00000000
00000010
00000000
00000200
00000000
00000000
00000301
00000000
00000000
00000000
00000000
,
00000001
00000000
00000000
00000000
00000011
00000000
00000000
00000000
00001200
00000000
00000000
00010300
00000000
00000000
00000000
00000000
,
00000000
00002000
00000000
00000000
01003000
00000000
01000000
00000000
00200000
00000000
00000000
10300000
00000000
00000000
00000000
00000000
,
10010000
00000000
00000000
00000000
00000000
00010000
00000000
00000000
,
00101000
00000000
00000000
00000000
00000000
00001000
00000000
00000000
,
00010010
00000000
00000000
00000000
00000000
00001001
00000000
00000001
,
00000010
00000000
00000000
00000000
00000000
00000000
00000100
00000000
00000000
00001000
00000000
00000000
00000000
00000000
00000000
00000000
00000000
00000000
00000010
00000000
00000000
00000000
00010000
00000000
00001000
00000000
00000000
00000000
00010000
00000000
00000000
00000000
00000000
00000100
00000000
00000000
00000000
00000000
00000000
00000010
00000000
00000000
00000000
00000000
00000000
00000000
00000001
00000000
,
00001000
00000000
00000000
00000000
00000000
00001000
00000010
00000000
00000000
00000000
00000000
00000010
00010000
00000000
00000000
00000000
00000000
00010000
00001000
00000000
00000000
00000000
00000000
00001000
,
00100000
00000000
00000000
00000000
00000000
00100000
00010000
00000000
00000000
00000000
00000000
00010000
10000000
00000000
00000000
00000000
00000000
10000000
01000000
00000000
00000000
00000000
00000000
01000000
,
00100000
00000000
00000000
00000000
01000000
00000000
00100000
00000000
00000000
00000000
01000000
00000000
00100000
00000000
00000000
00000000
01000000
00000000
00100000
00000000
00000000
00000000
01000000
00000000
00100000
00000000
00000000
00000000
00000000
00000000
00000000
00000000
00000000
00100000
00000000
00000000
00000000
00000000
00000000
00000000
00000000
00000000
00100000
00000000
00000000
00000000
00000000
00000000
,
00110000
00000000
00000000
00101000
00000000
00000000
00011000
00000000
00000000
00000000
00010020
00000000
00000000
00000000
00000000
00000000
,
00001030
00000000
00000000
00000001
00000000
00000000
00000010
00000000
00000000
00000100
00000000
00000000
00010000
00000000
00000000
00001000
00000000
00010000
00000000
00000000
00010000
00001000
00000000
00000000
,
00010000
00000000
00000000
01000000
00000000
00000000
10000000
00000000
00000000
00100000
00000000
00000000
00010000
00000000
00000000
00001000
00000000
00010000
00000000
00000000
00010000
00001000
00000000
00000000
,
00000100
00000000
00000000
00000001
00000000
00000000
00000010
00000000
00000000
00001000
00000000
00000000
00010000
00000000
00000000
00001000
00000000
01000000
00000000
00000000
01000000
00010000
00000000
00000000
,
10000000
00000000
00000000
01000000
00000000
00000000
00010000
00000000
00000000
00001000
00000000
00000000
00000010
00000000
00000000
00000100
00000000
00001000
00000000
00000000
00001000
00000001
00000000
00000000
,
00000100
00000000
00000000
00000010
00000000
00000000
00001000
00000000
00000000
00010000
00000000
00000000
01000000
00000000
00000000
00100000
00000000
10000000
00000000
00000000
10000000
00010000
00000000
00000000
,
00100000
00000000
00000000
01000000
00000000
00000000
00010000
00000000
00000000
00001000
00000000
00000000
00000010
00000000
00000000
00000100
00000000
00001000
00000000
00000000
00001000
00000001
00000000
00000000
,
00000200
00002300
00023000
02030000
,
03200000
00302000
00023000
00030020
,
00000130
00000000
00000000
00000010
00000000
00000100
00000010
00000000
00000100
00000001
00000000
00000000
00000010
00000000
00000000
00001000
00000000
00000000
00010000
00000000
00000000
00001000
00000000
00010000
,
00001000
00000000
00010000
00001000
00000000
00000000
00010000
00000000
00000000
01000000
00000000
00000000
10000000
00000000
00000000
00100000
00000000
10000000
00100000
00000000
01000000
00010000
00000000
00000000
,
00100000
00000000
00000000
00001000
00000000
00000000
00010000
00000000
00000000
00001000
00000000
00000100
00000000
00000000
00000100
00000001
00000000
00000000
00000000
00000000
00000000
00000001
00000000
00000000
,
00000010
00000000
00000000
00000000
00000000
00000000
00001000
00000000
00000000
00010000
00000000
00000000
00000000
00000000
00000000
01000000
00000000
00100000
01000000
00000000
00000000
10000000
00000000
00000000
,
00010000
00000000
00000000
20000000
00000000
00000000
00000000
00000000
00000000
00000000
00000000
00000000
30000000
00000000
00010000
00000000
00000000
00000000
00010000
00000000
00100000
01000000
00000000
00000000
,
00010000
00000000
00000000
00000000
00000000
00000000
00001000
00000000
00000000
00000000
00000000
00000000
00000010
00000000
00000000
00000100
00000000
00000000
00000000
00000000
00000000
00001001
00000000
00000000
00000000
00000000
00000000
00000000
00001000
00000000
00000000
00000000
00000000
00000000
00000000
00000000
00001000
00000000
00000000
00000000
00000010
00000000
00000100
00000000
00000000
00000000
00000000
00000000
,
00001000
00000000
00010000
00000000
00100000
01000000
00000000
00000000
00200000
00000000
00000000
00000000
00320000
00000000
00000000
00000000
,
00032000
00000000
00000000
00000000
00003200
00000000
00000000
00000000
00000301
00001000
00000000
00000100
00000000
00010000
00000000
00011000
,
00000000
00000000
00000000
00001000
00000000
00000000
00010000
00000000
01000000
00100000
00000000
00000000
00010000
00000000
00000000
10010000
00000000
00000000
00000000
00000000
00000000
10000000
00000000
00000000
,
00100000
00000000
00010000
00001000
00000000
00000100
00000000
00000000
00001001
00000000
00000000
00000000
00000110
00000000
00000000
00000000
,
00011000
00000000
00000000
00000000
00000000
00000000
01100000
00000000
00000000
00000000
00000000
00000000
10010000
00000000
00000000
20000000
00000000
30010000
00000000
00000000
00000000
00100000
00000000
00000000
,
01000000
00000000
00000000
20000000
00000000
30010000
00000000
00000000
00000000
01000000
00000000
00000000
00100000
00000000
01000000
00100000
00000000
01000000
00100000
00000000
01000000
00100000
00000000
01000000
,
00100000
00000000
00000000
00000000
10100000
00000000
00000000
00000000
00000000
01010000
00000000
00000000
00000000
00000000
00000000
10010000
00000000
00000000
00000000
00000000
00000000
10000000
00000000
00000000
,
00020000
00032000
00003002
00000203
,
00000320
00000000
00000030
00001000
00000001
00000010
00001000
00010000
,
00001000
00000000
00000100
00000001
00000000
00000000
00000010
00000000
00000110
00000000
00000010
00000000
00001010
00000000
00001000
00000000
,
00011000
00000000
00000000
00010000
00000000
00000000
01010000
00000000
00000000
02000000
00000000
00000000
03000000
00000000
00000000
10010000
00000000
00000000
10000000
00000000
10000000
00010000
00000000
00000000
,
00010000
00000000
00010000
01000000
00000000
00000000
01000000
00000000
01000000
00001000
00000000
00000000
00011000
00000000
00000000
00001000
00000000
00000000
00001010
00000000
00000000
00000010
00000000
00000000
,
00000011
00000000
00000000
00000001
00000000
00000000
00000101
00000000
00000000
00000100
00000000
00000000
00001100
00000000
00000000
00002000
00000000
00013000
00000000
00000000
00000000
00001000
00000000
00000000
,
00010000
00000000
00000000
02000000
00000000
03100000
00000000
00000000
00000000
00010000
00000000
00000000
01000000
00000000
00100000
01000000
00000000
00100000
01000000
00000000
00100000
01000000
00000000
00100000
,
01000000
00000000
00000000
00000000
01010000
00000000
00000000
00000000
00000000
10100000
00000000
00000000
00000000
00000000
00000000
10010000
00000000
00000000
00010000
00000000
00010000
01000000
00000000
00000000
,
01000000
00000000
01000000
00100000
00000000
00000000
00100000
00000000
00100000
00010000
00000000
00000000
00002000
00000000
00000000
00000000
00000000
00000000
00003200
00000000
00000000
00000000
00000000
00000000
,
00000320
00000000
00000030
00001000
00000100
00000010
00001000
00010000
,
00001000
00000000
00000000
00000000
00010000
00000000
00001000
00000000
00000000
00010000
00000000
00000000
00000000
00000000
00000000
00000000
00000000
00000000
01000000
00000000
00000000
00000000
00000000
00000000
10000000
00000000
00000000
00000000
00000000
00000000
00100000
00000000
00000000
00000000
00000000
00000000
00010000
00000000
00000000
00000000
00000000
00000000
00001000
00000000
00000000
00000000
00000000
00000000
,
00010000
00000000
00000000
00000000
00001000
00000000
00010000
00000000
00000000
00001000
00000000
00000000
00000000
00000000
00000000
00000000
00000000
00000000
00000100
00000000
00000000
00000000
00000000
00000000
00000001
00000000
00000000
00000000
00000000
00000000
00000010
00000000
00000000
00000000
00000000
00000000
00001000
00000000
00000000
00000000
00000000
00000000
00010000
00000000
00000000
00000000
00000000
00000000
,
01000000
00000000
00000000
10000000
00000000
00100000
00000000
00000000
00000000
00010000
00000000
00000000
00001000
00000000
00000000
00000000
00000000
00000000
00011000
00000000
00000000
00000000
00000000
00000000
,
00010000
00000000
00000000
00001000
00000000
00000000
00022000
00000000
00000000
00000000
00000000
00000000
00000000
00000000
00033000
00000000
,
00000000
00000000
00000000
00000000
;
