
//----- song ID: kksy -----//
#TITLE:覚悟せよ!エンタンメ~ン ~より身の切り売り自暴自棄版~;
#ARTIST:マキシウキョウ;
#TITLETRANSLIT:Kakugoseyo! Enternmeen ~yori mi no kiriuri jiboujiki ban~;
#ARTISTTRANSLIT:Maxi Ukyo;
#BANNER:Kakugoseyo! Enternmeen ~yori mi no kiriuri jiboujiki ban~.png;
#BACKGROUND:Kakugoseyo! Enternmeen ~yori mi no kiriuri jiboujiki ban~-bg.png;
#CDTITLE:./CDTitles/DDR WORLD.png;
#MUSIC:Kakugoseyo! Enternmeen ~yori mi no kiriuri jiboujiki ban~.ogg;
#SAMPLESTART:42.944;
#SAMPLELENGTH:15;
#DISPLAYBPM:141:176;
#BPMS:0=176,176=173.913,177=169.492,178=164.835,179=160.858,180=156.25,181=151.899,182=147.42,183=143.198,184=140.997,208=155.996,216=172.002;
#NOTES:
     dance-single:
     :
     Beginner:
     4:
     :
0000
0000
0000
0000
,
0000
0000
0000
0000
,
0000
0000
0000
0000
,
0000
0000
0000
0000
,
1000
0000
0000
0000
,
0000
0000
0000
0000
,
0001
0000
0000
0000
,
0010
0000
0100
0000
,
0100
0000
0000
0000
,
1000
0000
0001
0000
,
0001
0000
0000
0000
,
1000
0000
0010
0000
,
0010
0000
0000
0000
,
0100
0000
0100
0000
,
0001
0000
0001
0000
,
0001
0000
0001
0000
,
1000
0000
0000
0000
,
0010
0000
0010
0000
,
1000
0000
0000
0000
,
0001
0000
0100
0000
,
0001
0000
0000
0000
,
0100
0000
0100
0000
,
0010
0000
1000
0000
,
0100
0000
0000
0000
,
0000
0000
0000
0000
,
1000
0000
0000
0000
,
0000
0000
0000
0000
,
1000
0000
1000
0000
,
0010
0000
0000
0000
,
0100
0000
0100
0000
,
0001
0000
0001
0000
,
0010
0000
0000
0000
,
0001
0000
0100
0000
,
0001
0000
0000
0000
,
1000
0000
0010
0000
,
1000
0000
0000
0000
,
0001
0000
0010
0000
,
0100
0000
1000
0000
,
0001
0000
0000
0000
,
0001
0000
0000
0000
,
1000
0000
1000
0000
,
0100
0000
0000
0000
,
0010
0000
0010
0000
,
0001
0000
0000
0000
,
1001
0000
0000
0000
,
0000
0000
0000
0000
,
0001
0000
0000
0000
,
1000
0000
0000
0000
,
0001
0000
0000
0000
,
1000
0000
0000
0000
,
0100
0000
0000
0000
,
0010
0000
0000
0000
,
0001
0000
0000
0000
,
0100
0000
0000
0000
,
0010
0000
0001
0000
,
0010
0000
0000
0000
,
1000
0000
0100
0000
,
1000
0000
0000
0000
,
0110
0000
0000
0000
,
0110
0000
0000
0000
,
1000
0000
0001
0000
,
0010
0000
0000
0000
,
0000
0000
0110
0000
,
0000
0000
0000
0000
,
0000
0000
0000
0000
,
0000
0000
0000
0000
,
0000
0000
0000
0000
,
0001
0000
0001
0000
,
0010
0000
0000
0000
,
1000
0000
0100
0000
,
1000
0000
0010
0000
,
0100
0000
0100
0000
,
0001
0000
0000
0000
,
1000
0000
0100
0000
,
1000
0000
0000
0000
,
1000
0000
1000
0000
,
0100
0000
0000
0000
,
0010
0000
0010
0000
,
0001
0000
0000
0000
,
1000
0000
0010
0000
,
1000
0000
0000
0000
,
0100
0000
0010
0000
,
0001
0000
0000
0000
,
0010
0000
0100
0000
,
1000
0000
0000
0000
,
1001
0000
0000
0000
,
0000
0000
0000
0000
,
1001
0000
0000
0000
,
0000
0000
0000
0000
;
#NOTES:
     dance-single:
     :
     Easy:
     7:
     :
0000
0000
0000
0000
,
0000
0000
0000
0000
,
0000
0000
0000
0000
,
0000
0000
0000
0000
,
0001
0001
0000
1000
,
1000
0000
0001
1000
,
0002
0000
0000
0003
,
0010
0000
0010
0000
,
0100
1000
0100
0000
,
1000
0000
1000
0000
,
0001
0100
0001
0000
,
1000
0000
1000
0000
,
0010
0100
0010
0000
,
0100
0001
0100
0001
,
1000
0001
1001
0000
,
1000
0100
1000
0000
,
0001
0010
0100
0000
,
0010
0000
0010
0000
,
0001
1000
0100
0000
,
1000
0010
0100
0001
,
1000
0100
0010
0000
,
0100
1000
0100
0000
,
0010
0001
1000
0001
,
0200
0000
0000
0000
,
0320
0000
0000
0000
,
2030
0000
0000
0000
,
3002
0000
0003
0000
,
1000
0100
1000
0100
,
0010
0001
0010
0000
,
0001
0100
0001
0100
,
0010
1000
0010
1000
,
0001
0000
0000
0000
,
1000
0010
0100
0010
,
1000
0001
0010
0000
,
0001
0100
0010
1000
,
0001
1000
0100
0000
,
1000
0001
0010
0001
,
0100
0010
1000
0000
,
0001
0000
1000
0000
,
0001
0010
0100
0000
,
1000
0010
1000
0010
,
0100
0001
0100
0000
,
0001
0010
0001
0010
,
0100
1000
0100
0000
,
2002
0000
0000
0000
,
3003
0000
0000
0000
,
0001
0100
0001
0000
,
1000
0010
1000
0000
,
0001
0010
0001
0000
,
1000
0100
1000
0000
,
0100
0010
0100
0000
,
0010
0001
0010
0000
,
0001
0100
0001
0000
,
0100
0010
0100
0000
,
0010
1000
0001
0100
,
0001
0100
0001
0010
,
0001
1000
0100
0010
,
0001
1000
0001
0100
,
0110
0000
1001
0000
,
0110
0000
0000
0000
,
1000
0000
0001
0000
,
0020
0000
0000
0000
,
0030
0000
0110
0000
,
0000
0000
0000
0000
,
0000
0000
0000
0000
,
0000
0000
0000
0000
,
0000
0000
0000
0000
,
0001
0100
0001
0100
,
0010
1000
0010
0000
,
1000
0001
0100
0001
,
1000
0100
0010
0000
,
0100
1000
0100
1000
,
0001
0010
0001
0000
,
1000
0010
0100
0001
,
1000
0100
0010
0100
,
1000
0010
1000
0001
,
0100
0001
1000
0100
,
0010
0001
0010
0001
,
1000
0001
0100
0010
,
1000
0001
0010
0100
,
1000
0001
0100
0010
,
0100
0001
0010
0100
,
0010
0001
1000
0001
,
0100
0010
0100
0010
,
1000
0001
0100
0010
,
1000
0100
0000
1000
,
0010
0000
1000
0001
,
1001
0000
0000
0000
,
0000
0000
0000
0000
;
#NOTES:
     dance-single:
     :
     Medium:
     11:
     :
0000
0000
0000
0000
,
0000
0000
0000
0000
,
0000
0000
0000
0000
,
0000
0000
0000
0000
,
1000
0100
1000
0200
0000
1300
0001
0010
,
0001
0020
0000
0031
1000
0000
0010
0000
,
0200
0000
0000
0300
,
0010
1000
0001
1000
,
0100
0000
0010
0100
0020
0000
0130
0000
,
1000
0100
1000
0000
0001
0100
0001
0000
,
0010
0100
0010
0000
0002
0000
1003
0000
,
0001
0010
0100
1000
,
0001
0000
0100
0010
0100
0000
0001
0000
,
1000
0100
1000
0100
0010
0001
0010
0001
,
1000
0010
0100
0110
,
0001
1000
0001
0100
,
0010
0000
0100
0000
0010
1000
0010
0000
,
1000
0001
1000
0000
0001
0010
0001
0000
,
1000
0010
1000
0000
0100
0010
0100
0000
,
0010
0001
0010
0001
1000
0010
1000
0010
,
0100
0001
1000
1001
,
1000
0100
1000
0001
,
0100
0010
0100
0010
1000
0000
0001
0000
,
0010
0010
0010
0010
,
0100
0100
0100
0100
,
1000
0001
0100
0010
,
1000
0000
0000
0000
0000
0000
0100
0010
,
0000
0100
1000
0000
0001
0000
0100
0000
,
0010
0100
0010
0000
1000
0000
0001
0100
,
0000
0000
0010
0000
0100
0000
0000
0000
0001
0000
0000
1000
0000
0000
0001
0000
,
0010
0100
0010
0100
1000
0001
1000
0001
,
1000
0000
0010
0100
,
1001
0000
0001
0000
0100
0001
0100
0000
,
0010
0000
1000
0000
0010
0000
0000
0000
1000
0000
0000
0001
0000
0000
0100
0000
,
0000
0000
0001
0000
0010
0000
0000
0000
0100
0000
0000
0010
0000
0000
0100
0000
,
1000
0001
1000
0020
0000
0000
0130
0000
,
1001
0000
1000
0000
0100
1000
0100
0000
,
0010
0000
0001
0000
0010
0000
0000
0000
0001
0000
0000
1000
0000
0000
0100
0000
,
0000
0000
1000
0000
0100
0000
1000
0000
0100
0000
0000
1000
0000
0000
0001
0000
,
0000
0100
0010
0100
0010
0000
1000
0000
,
0001
0010
0001
0000
0010
0100
0010
0000
,
0100
1000
0100
0000
1000
0001
0100
0000
,
0010
1000
0010
0000
1000
0001
1000
0000
,
0001
0100
0001
0000
0010
0100
1000
0000
,
0001
0000
0000
1000
0000
0000
0001
0000
0100
0000
0010
0000
,
2000
0000
0000
0000
,
3001
0000
0000
0010
0000
0000
0100
0000
0010
0000
0100
0000
,
1000
0000
0000
0010
0000
0000
0100
0000
0010
0000
0100
0000
,
0001
0000
0000
1000
0000
0000
0100
0000
1000
0000
0100
0000
,
0010
0000
0000
0001
0000
0000
1000
0000
0010
0000
0100
0000
,
0001
0000
0000
1000
0000
0000
0100
0000
0010
0000
0100
0000
,
1000
0000
0000
0001
0000
0000
0100
0000
0010
0000
0100
0000
,
0001
0000
0000
1000
0000
0000
0100
0000
0010
0000
0001
0000
,
1000
0000
0000
0010
0000
0000
0100
0000
0001
0000
1000
0000
,
1001
0000
0001
0100
0001
0100
0010
0100
,
0001
0100
0010
0100
0001
0100
0001
1000
,
1001
0000
1000
0100
0010
0100
0001
0100
,
0010
0100
1000
0100
0010
0001
0100
0010
,
1000
0011
1000
0101
,
1100
0000
0001
0100
0010
0000
1000
0100
,
0000
0000
0010
0000
0100
0000
0000
0000
1000
0000
0000
0001
0000
0000
2000
0000
,
0000
0000
0000
0000
,
3000
0000
0000
0000
0000
0000
0000
0000
0001
0000
0000
1000
0000
0000
0001
0000
,
0000
0000
0000
0000
,
0000
0000
0000
0000
,
0000
0000
0000
0000
,
0000
0000
0000
0000
,
1000
0000
0100
0000
0010
0100
0010
0000
,
0001
0000
1000
0000
0001
0000
0000
0000
0100
0000
0000
0010
0000
0000
1000
0000
,
0000
0000
0001
0000
0010
0000
0000
0000
0001
0000
0000
0100
0000
0000
0010
0000
,
1000
0100
1000
0000
0001
0100
0001
0000
,
1000
0000
0010
0000
0100
0010
0100
0000
,
0001
0000
1000
0000
0001
0000
0000
0000
0010
0000
0000
0100
0000
0000
1000
0000
,
0000
0001
0100
0001
0100
0001
0100
0010
,
0000
1000
0001
0000
0011
0000
1001
0000
,
1000
0100
1000
0001
0010
0001
1000
0010
,
1000
0001
0100
0001
1000
0100
1000
0000
,
0001
0010
0001
1000
0100
1000
0001
0100
,
0001
1000
0010
1000
0001
0010
0001
0000
,
1000
0100
0010
0100
0010
0001
0010
0001
,
1000
0010
0100
0001
0100
0001
1000
0100
,
0000
0010
0100
0010
0100
0010
0100
1000
,
0000
0001
0100
0000
1010
0000
1001
0000
,
0001
0100
0010
0100
0010
1000
0010
1000
,
0100
1000
0100
0010
0100
0010
0001
0000
,
1000
0010
0100
0001
0000
1000
0001
0100
,
0010
1000
0000
0001
1000
0000
0010
0000
,
1001
0000
0000
0000
,
0000
0000
0000
0000
;
#NOTES:
     dance-single:
     :
     Hard:
     14:
     :
0000
0000
0000
0000
,
0000
0000
0000
0000
,
0000
0000
0000
0000
,
0000
0000
0000
0000
,
0001
0100
0010
2000
0000
3001
1000
0100
,
0010
0002
0000
1003
0001
0000
0100
0000
,
0220
0000
0000
0330
,
1000
0000
0001
0010
0001
1000
0010
0100
,
0001
1000
0100
0010
0002
0000
0013
0000
,
0001
0000
1000
0100
1000
0000
0100
0000
0010
0000
0001
0000
0010
0000
0001
0000
,
1000
0010
1000
0010
0200
0000
0301
0000
,
1000
0000
0001
0010
0001
0000
1000
0000
0010
0000
0100
0000
0001
0000
0010
0000
,
0100
0010
0001
1000
0100
0000
1000
0001
,
0100
0001
0100
0000
0001
1000
0001
0000
1000
0010
1000
0000
0010
0100
0010
0000
,
0100
0001
1000
0001
1000
0000
1001
0000
,
1000
0000
0010
1000
0100
1000
0001
0010
,
0001
0100
0010
1000
0100
0010
0001
1000
,
0010
0000
0100
0010
0100
0000
0001
0000
1000
0000
0100
0000
1000
0000
0100
0000
,
0010
0100
0010
0001
1000
0001
0100
0010
,
1000
0000
0010
1000
0010
0000
0100
0001
0100
0000
0001
0000
0010
0100
0000
0100
,
0010
0001
0000
0001
0000
1000
0001
0000
1000
0000
0100
0000
0010
0000
0001
0000
,
0100
0001
0100
0001
1000
0000
1000
0001
,
0010
0000
0100
0010
0100
0000
0010
0000
0001
0000
0001
0000
1000
0100
1000
0100
,
1000
1000
1000
1000
,
0001
0001
0001
0001
,
0010
0100
1000
0010
,
0100
0000
0000
0000
0000
0000
0001
0010
,
0000
0100
0010
0100
1000
0001
0100
0010
,
1000
0010
1000
0010
1000
0000
0001
1000
,
0010
0100
0010
0100
0001
1000
0001
1000
,
0001
0000
0010
0000
0100
0000
1000
0000
0010
0100
0010
0100
0010
0100
0010
0100
,
0010
0000
1000
0001
,
1001
0000
0001
0100
0010
1000
0100
0010
,
0100
0000
1000
0000
0010
0000
0100
0000
0001
0000
0000
0010
0000
0000
0110
0000
,
0000
0000
0001
0000
1000
0000
0010
0000
1000
0000
0001
0010
0000
0100
0010
0000
,
0001
1000
0100
0020
0000
0130
1000
0001
,
1001
0000
1000
0010
0100
0001
0010
0100
,
0010
0000
0001
0000
0100
0000
0010
0000
1000
0000
0000
0100
0000
0000
0110
0000
,
0000
0000
0100
0000
0010
0000
0100
0000
0010
0000
0000
0100
0000
0000
0010
0000
,
0000
0001
0100
0010
1000
0000
0001
0000
,
0010
0100
0010
0001
1000
0001
0100
0010
,
0100
0000
0001
0000
1000
0000
0001
0000
0100
0000
0010
0100
0010
0000
1000
0000
,
0001
0010
0001
1000
0010
1000
0001
0100
,
0001
0000
1000
0000
0100
0000
1000
0000
0001
0000
0010
0100
0010
0000
0100
0000
,
1000
0000
1000
0001
0100
0001
1000
0000
0100
0000
0010
0000
,
0002
0000
0000
0000
,
1003
0000
0000
0001
0100
0010
0100
0000
0010
0000
1000
0000
,
0001
0000
0000
0010
0100
0010
0001
0000
1000
0000
0010
0000
,
0100
0000
0000
0001
1000
0001
0010
0000
0100
0000
1000
0000
,
0001
0000
0000
1000
0100
1000
0001
0000
0100
0000
0010
0000
,
1000
0000
0000
0001
0100
0010
1000
0000
0100
0000
0010
0000
,
0001
0000
0000
1000
0010
0100
0001
0000
0010
0000
0100
0000
,
1000
0000
0000
0001
0100
0010
1000
0000
0100
0000
0010
0000
,
0001
1000
0010
1000
0010
0100
0010
0100
0001
1000
0100
0010
,
0001
0000
0000
0000
1000
0100
1000
0000
0100
1000
0100
0000
1000
0001
1000
0000
,
0001
0100
0001
0000
1000
0001
1000
0000
0001
0100
0001
0000
0010
0100
0010
0000
,
0001
0000
0000
0000
1000
0100
1000
0000
0001
0100
0001
0000
0100
0010
0100
0000
,
0010
1000
0010
0000
1000
0001
1000
0000
0001
0000
0010
0100
1000
0000
0100
0000
,
0020
0000
0031
0100
0000
0000
0020
0000
1030
0100
0000
0000
,
1000
0010
0000
0100
0001
0000
1000
0000
0001
0000
0000
0000
0010
0000
0100
0000
,
0000
0000
1000
0000
0001
0000
1000
0000
0010
0000
0000
0100
0000
0000
0020
0000
,
0000
0000
0000
0000
,
0030
0000
0000
0000
0000
0000
0000
0000
1010
0000
0000
0101
0000
0000
1001
0000
,
0000
0000
0000
0000
,
0000
0000
0000
0000
,
0000
0000
0000
0000
,
0000
0000
0000
0000
,
1100
0000
0001
0010
0100
0010
0100
1000
,
0001
0000
0100
0000
0010
0000
1000
0000
0010
0000
0100
0001
0000
1000
0001
0000
,
0000
0000
1000
0000
0001
0000
0100
0000
0010
0000
1000
0100
0000
0001
0100
0000
,
1000
0010
1000
0100
0010
0001
0100
0000
,
0101
0000
1000
0010
0100
0010
0100
0001
,
1000
0000
0100
0000
0010
0000
0001
0000
1000
0000
0001
0100
0000
1000
0100
0000
,
0000
0010
0100
0010
0100
0010
1000
0001
,
0000
0010
0100
1000
1100
0000
0011
0000
,
1001
0000
1000
0010
1000
0000
0001
0000
1000
0001
1000
0000
0100
0000
0010
0100
,
0010
0000
0001
0000
1000
0001
1000
0000
0010
0000
0100
0010
0100
0000
0000
0000
,
0001
0000
1000
0001
1000
0000
0100
0000
0010
0100
0010
0000
0001
0000
1000
0001
,
1000
0000
0010
0000
0100
0010
0100
0000
0001
0000
1000
0001
1000
0000
0000
0000
,
1001
0100
0010
1001
0010
0100
1001
0100
,
0010
1001
0010
0100
1001
0010
0100
0010
,
0000
0100
0010
0100
0010
0100
0010
0100
,
0000
1000
0010
0100
0110
0000
1001
0000
,
0001
0100
0010
0000
0100
0000
0001
1000
0100
0000
1000
0000
0001
0010
0100
0000
,
0010
0000
0001
1000
0010
0000
1000
0000
0001
0100
0010
0000
1000
0000
0001
0000
,
1000
0100
0010
0011
0000
1001
0001
0010
,
0100
1100
0000
1001
0100
0000
0010
0000
,
1001
0000
0000
0000
,
0000
0000
0000
0000
;
#NOTES:
     dance-double:
     :
     Easy:
     7:
     :
00000000
00000000
00000000
00000000
,
00000000
00000000
00000000
00000000
,
00000000
00000000
00000000
00000000
,
00000000
00000000
00000000
00000000
,
10000000
10000000
00000000
00010000
,
00010000
00000000
01000000
00001000
,
00020000
00000000
00000000
00030000
,
00001000
00000000
00010000
00000000
,
00000100
00001000
00000100
00000000
,
00001000
00000000
00000001
00000000
,
00000100
00000010
00000100
00000000
,
00000010
00000000
00001000
00000000
,
00000100
00010000
00000100
00000000
,
00010000
00001000
01000000
00010000
,
10000000
00010000
10010000
00000000
,
10000000
00000000
01000000
00000000
,
00010000
00001000
00000010
00000000
,
00000001
00000000
00001000
00000000
,
00000001
00000010
00000100
00000000
,
00001000
00000010
00010000
00001000
,
00100000
00010000
10000000
00000000
,
00010000
01000000
00001000
00000000
,
00010000
00000100
00001000
00000001
,
00002000
00000000
00000000
00000000
,
00003200
00000000
00000000
00000000
,
00020300
00000000
00000000
00000000
,
00032000
00000000
00003000
00000000
,
01000000
00010000
01000000
00010000
,
10000000
00100000
10000000
00000000
,
00010000
01000000
00001000
00010000
,
00000100
00001000
00000001
00000010
,
00000100
00000000
00000000
00000000
,
00000010
00000001
00001000
00000001
,
00001000
00000100
00010000
00000000
,
00001000
00010000
00001000
00100000
,
00010000
10000000
00010000
00000000
,
01000000
00100000
01000000
00010000
,
01000000
00001000
00010000
00000000
,
00000100
00000000
00001000
00000000
,
00000001
00000100
00000010
00000000
,
00001000
00000100
00010000
00001000
,
01000000
00010000
10000000
00000000
,
01000000
00100000
00010000
00100000
,
00001000
00010000
00000010
00000000
,
00002002
00000000
00000000
00000000
,
00003003
00000000
00000000
00000000
,
00000001
00000100
00001000
00000000
,
00010000
00100000
10000000
00000000
,
10000000
01000000
00010000
00000000
,
00001000
00000010
00000001
00000000
,
00000001
00000100
00001000
00000000
,
00010000
01000000
10000000
00000000
,
00100000
00010000
00001000
00000000
,
00000010
00000001
00001000
00000000
,
00000001
00000100
00000010
00001000
,
00000100
00010000
00001000
00100000
,
00010000
01000000
00100000
10000000
,
01000000
00100000
00010000
01000000
,
01010000
00000000
00011000
00000000
,
00001100
00000000
00000000
00000000
,
00000001
00000000
00000100
00000000
,
00002000
00000000
00000000
00000000
,
00003000
00000000
00011000
00000000
,
00000000
00000000
00000000
00000000
,
00000000
00000000
00000000
00000000
,
00000000
00000000
00000000
00000000
,
00000000
00000000
00000000
00000000
,
00010000
00001000
01000000
00010000
,
01000000
00010000
10000000
00000000
,
00100000
10000000
01000000
00010000
,
00001000
00000010
00000001
00000000
,
00000100
00000010
00001000
00000001
,
00001000
00000100
00010000
00000000
,
00001000
00010000
00100000
01000000
,
00010000
10000000
01000000
00100000
,
00010000
00100000
00001000
00010000
,
00000100
00001000
00000010
00000100
,
00000001
00000100
00001000
00010000
,
00001000
00010000
01000000
10000000
,
00100000
00010000
00001000
00000100
,
00000001
00000010
00001000
00010000
,
00001000
00010000
00001000
00010000
,
00001000
00100000
00010000
10000000
,
01000000
00100000
01000000
00100000
,
00010000
00100000
00001000
00010000
,
00001000
00000100
00000000
00000001
,
00000100
00000000
00001000
00010000
,
00011000
00000000
00000000
00000000
,
00000000
00000000
00000000
00000000
;
#NOTES:
     dance-double:
     :
     Medium:
     11:
     :
00000000
00000000
00000000
00000000
,
00000000
00000000
00000000
00000000
,
00000000
00000000
00000000
00000000
,
00000000
00000000
00000000
00000000
,
00000001
00000100
00000001
00000200
00000000
00000310
00001000
00000100
,
00001000
00000200
00000000
00010300
00001000
00000000
00010000
00000000
,
00002000
00000000
00000000
00003000
,
01000000
00010000
10000000
00010000
,
00100000
00000000
00001000
00010000
00002000
00000000
00013000
00000000
,
00000010
00001000
00000010
00000000
00000100
00000001
00000100
00000000
,
00000001
00001000
00000001
00000000
00002000
00000000
00003100
00000000
,
00010000
00001000
00100000
00010000
,
01000000
00000000
00100000
10000000
00100000
00000000
10000000
00000000
,
00010000
01000000
00010000
00000000
01000000
00001000
01000000
00000000
,
00001000
00010000
00000100
00000110
,
00000001
00000100
00001000
00010000
,
00100000
00000000
10000000
00000000
01000000
00100000
01000000
00000000
,
10000000
00010000
01000000
00000000
00001000
00010000
00000100
00000000
,
00001000
00000001
00000010
00000000
00000001
00001000
00000001
00000000
,
00001000
00000100
00001000
00000100
00010000
00001000
00010000
00001000
,
01000000
00010000
10000000
10010000
,
10000000
00100000
00010000
00001000
,
00000100
00000010
00000100
00000000
00000001
00000000
00001000
00000000
,
00000001
00000001
00000001
00000001
,
00000100
00000100
00000100
00000100
,
00001000
00010000
00100000
10000000
,
00010000
00000000
00000000
00000000
00000000
00000000
10000000
01000000
,
00000000
00010000
00001000
00000000
00010000
00000000
00000010
00000000
,
00001000
00000000
00000100
00000000
00000010
00000000
00000001
00000100
,
00000000
00000000
00001000
00000000
00010000
00000000
00000000
00000000
00001000
00000000
00000000
00100000
00000000
00000000
00010000
00000000
,
10000000
00100000
10000000
00100000
01000000
00010000
01000000
00010000
,
01000000
00000000
00001000
00010000
,
00011000
00000000
00010000
00000000
00000010
00001000
00000010
00000000
,
00001000
00000000
00000001
00000000
00001000
00000000
00000000
00000000
00000001
00000000
00000000
00000010
00000000
00000000
00001000
00000000
,
00000000
00000000
00010000
00000000
00100000
00000000
00000000
00000000
10000000
00000000
00000000
01000000
00000000
00000000
10000000
00000000
,
00010000
00100000
01000000
20000000
00000000
00000000
30010000
00000000
,
01010000
00000000
01000000
00000000
00001000
00010000
00001000
00000000
,
00010000
00000000
00000010
00000000
00010000
00000000
00000000
00000000
00000010
00000000
00000000
00001000
00000000
00000000
00000100
00000000
,
00000000
00000000
00000010
00000000
00000100
00000000
00000010
00000000
00000100
00000000
00000000
00000010
00000000
00000000
00000001
00000000
,
00000000
00001000
00000010
00010000
00001000
00000000
01000000
00000000
,
00010000
10000000
00010000
00000000
10000000
01000000
10000000
00000000
,
01000000
00100000
01000000
00000000
00100000
00001000
00010000
00000000
,
00000100
00010000
00000100
00000000
00001000
00000010
00001000
00000000
,
00000001
00000010
00000001
00000000
00001000
00000100
00000010
00000000
,
00000001
00000000
00000000
00000100
00000000
00000000
00000010
00000000
00001000
00000000
00000100
00000000
,
00020000
00000000
00000000
00000000
,
00031000
00000000
00000000
00010000
00000000
00000000
00001000
00000000
01000000
00000000
00010000
00000000
,
10000000
00000000
00000000
01000000
00000000
00000000
00100000
00000000
00010000
00000000
00100000
00000000
,
00001000
00000000
00000000
00010000
00000000
00000000
00000010
00000000
00001000
00000000
00000001
00000000
,
00000010
00000000
00000000
00000100
00000000
00000000
00001000
00000000
00000010
00000000
00010000
00000000
,
00001000
00000000
00000000
00010000
00000000
00000000
00100000
00000000
01000000
00000000
00100000
00000000
,
10000000
00000000
00000000
00010000
00000000
00000000
00100000
00000000
00001000
00000000
00010000
00000000
,
00001000
00000000
00000000
00000100
00000000
00000000
00000010
00000000
00000100
00000000
00000010
00000000
,
00001000
00000000
00000000
00000001
00000000
00000000
00000010
00000000
00000100
00000000
00001000
00000000
,
00001001
00000000
00001000
00000100
00001000
00000100
00010000
00001000
,
01000000
00010000
10000000
00010000
01000000
00010000
00100000
00001000
,
00010000
00000000
00000100
00001000
00000010
00001000
00000100
00010000
,
00001000
00100000
00010000
01000000
00100000
10000000
01000000
00010000
,
00001000
00000110
00000001
00001001
,
00001000
00000000
00000001
00000100
00000001
00000000
00000010
00001000
,
00000000
00000000
00010000
00000000
01000000
00000000
00000000
00000000
10000000
00000000
00000000
00010000
00000000
00000000
02000000
00000000
,
00000000
00000000
00000000
00000000
,
03000000
00000000
00000000
00000000
00000000
00000000
00000000
00000000
00001000
00000000
00000000
00010000
00000000
00000000
00001000
00000000
,
00000000
00000000
00000000
00000000
,
00000000
00000000
00000000
00000000
,
00000000
00000000
00000000
00000000
,
00000000
00000000
00000000
00000000
,
00010000
00000000
00000100
00000000
00001000
00000100
00001000
00000000
,
00000100
00000000
00000010
00000000
00000100
00000000
00000000
00000000
00000010
00000000
00000000
00000001
00000000
00000000
00001000
00000000
,
00000000
00000000
00000001
00000000
00000100
00000000
00000000
00000000
00000010
00000000
00000000
00000100
00000000
00000000
00001000
00000000
,
00010000
00001000
00010000
00000000
00001000
00100000
00010000
00000000
,
10000000
00000000
01000000
00000000
00100000
01000000
00100000
00000000
,
01000000
00000000
10000000
00000000
01000000
00000000
00000000
00000000
00100000
00000000
00000000
00010000
00000000
00000000
01000000
00000000
,
00000000
00001000
00010000
00001000
00010000
00001000
00010000
00000010
,
00000000
00001000
00000100
00000000
00000110
00000000
00001001
00000000
,
00000001
00000010
00000001
00000000
00000010
00001000
00000010
00000000
,
00001000
00010000
00001000
00000000
00010000
01000000
10000000
00000000
,
10000000
00100000
10000000
00000000
00100000
00010000
00100000
00000000
,
00010000
00001000
00010000
00000000
00001000
00000100
00000001
00000000
,
00000001
00000010
00000100
00000010
00000100
00001000
00000100
00010000
,
00001000
00010000
00001000
00100000
00010000
00100000
01000000
10000000
,
00000000
00010000
00100000
00010000
00100000
00010000
00100000
00001000
,
00000000
00010000
00001000
00000000
00010010
00000000
00001010
00000000
,
00001000
00000001
00000100
00000000
00000010
00001000
00000100
00000000
,
00010000
00001000
00100000
00000000
00010000
01000000
00100000
00000000
,
10000000
01000000
00100000
00010000
00000000
01000000
00001000
00010000
,
00000010
00001000
00000000
00000100
00000010
00000000
00000001
00000000
,
00001001
00000000
00000000
00000000
,
00000000
00000000
00000000
00000000
;
#NOTES:
     dance-double:
     :
     Hard:
     14:
     :
00000000
00000000
00000000
00000000
,
00000000
00000000
00000000
00000000
,
00000000
00000000
00000000
00000000
,
00000000
00000000
00000000
00000000
,
10000000
01000000
00100000
00020000
00000000
01030000
00001000
00010000
,
00000100
00002000
00000000
00003010
00000100
00000000
00000001
00000000
,
00002002
00000000
00000000
00003003
,
00001000
00000000
00000100
00010000
00001000
00010000
00001000
00100000
,
00010000
10000000
00100000
01000000
00020000
00000000
10030000
00000000
,
00010000
00000000
00100000
00001000
00100000
00000000
00001000
00000000
00010000
00000000
00000010
00000000
00001000
00000000
00000010
00000000
,
00000100
00000001
00001000
00000010
00002000
00000000
00003001
00000000
,
00001000
00000000
00000100
00010000
00000100
00000000
00010000
00000000
00001000
00000000
01000000
00000000
00010000
00000000
01000000
00000000
,
00100000
10000000
00100000
10000000
00010000
00000000
00100000
00001000
,
00010000
00001000
00010000
00000000
00000100
00001000
00000100
00000000
00000010
00000001
00000010
00000000
00000001
00001000
00000001
00000000
,
00001000
00000010
00010000
00001000
00010000
00000000
00011000
00000000
,
00001000
00000000
00100000
00010000
01000000
00000000
00100000
10000000
,
00100000
10000000
01000000
00010000
00001000
00000010
00000001
00000010
,
00000100
00000000
00001000
00000100
00001000
00000000
00000100
00000000
00010000
00000000
00001000
00000000
00100000
00000000
00010000
00000000
,
10000000
00010000
01000000
00001000
00010000
00001000
00010000
00000100
,
00001000
00000000
00000100
00001000
00000100
00000000
00001000
00000100
00001000
00000000
00000001
00000000
00000100
00000000
00000010
00000000
,
00000100
00000000
00000000
00001000
00000000
00010000
00001000
00000000
00010000
00000000
00001000
00000000
00100000
00000000
00010000
00000000
,
01000000
00100000
10000000
01000000
00100000
00001000
00010000
00000010
,
00001000
00000000
00000001
00000000
00001000
00000000
00000100
00000000
00010000
00000000
00010000
00000000
00001000
00010000
00001000
00000000
,
01000000
01000000
01000000
01000000
,
00010000
00010000
00010000
00010000
,
10000000
00100000
00010000
00001000
,
00000100
00000000
00000000
00000000
00000000
00000000
00000001
00001000
,
00000000
00000001
00000010
00000100
00001000
00000010
00010000
00001000
,
00010000
00001000
01000000
00010000
01000000
00000000
00010000
00100000
,
01000000
10000000
01000000
10000000
00010000
01000000
00001000
00010000
,
00000010
00000000
00001000
00000000
00000100
00000000
00000010
00000000
00000001
00001000
00000001
00001000
00000001
00001000
00000001
00001000
,
00000001
00000000
00000100
00001000
,
00011000
00000000
00010000
00001000
00100000
00001000
00100000
00010000
,
00100000
00000000
00010000
00000000
10000000
00000000
00100000
00000000
10000000
00000000
00000000
01000000
00000000
00000000
00010000
00000000
,
00000000
00000000
00001000
00000000
00010000
00000000
00000010
00000000
00001000
00000000
00000100
00000001
00000000
00000100
00001000
00000000
,
00000001
00000100
00001000
00020000
00000000
00031000
00010000
00100000
,
01100000
00000000
01000000
00010000
10000000
00010000
10000000
01000000
,
10000000
00000000
01000000
00000000
00100000
00000000
00010000
00000000
00001000
00000000
00000000
00000100
00000000
00000000
00000010
00000000
,
00000000
00000000
00000001
00000000
00000010
00000000
00000001
00000000
00000010
00000000
00000000
00000001
00000000
00000000
00001000
00000000
,
00000000
00000001
00000010
00001000
00010000
00000000
00001000
00000000
,
01000000
00010000
00100000
00010000
00100000
01000000
10000000
00100000
,
01000000
00000000
00100000
00000000
01000000
00000000
00010000
00000000
00100000
00000000
00001000
00010000
00001000
00000000
00010000
00000000
,
00000010
00001000
00000100
00001000
00000100
00000010
00000001
00000100
,
00000010
00000000
00000100
00000000
00000010
00000000
00001000
00000000
00000100
00000000
00010000
00001000
00010000
00000000
00001000
00000000
,
01000000
00000000
01000000
00010000
01000000
00010000
10000000
00000000
00100000
00000000
00010000
00000000
,
00002000
00000000
00000000
00000000
,
00013000
00000000
00000000
00001000
00000100
00000010
00000100
00000000
00000001
00000000
00000010
00000000
,
00000001
00000000
00000000
00000100
00000010
00000100
00001000
00000000
00010000
00000000
00001000
00000000
,
00010000
00000000
00000000
01000000
00100000
01000000
10000000
00000000
00010000
00000000
01000000
00000000
,
00100000
00000000
00000000
10000000
01000000
10000000
00010000
00000000
00100000
00000000
00001000
00000000
,
00010000
00000000
00000000
00001000
00000010
00000001
00000010
00000000
00000100
00000000
00000010
00000000
,
00000001
00000000
00000000
00000100
00001000
00010000
00001000
00000000
01000000
00000000
00010000
00000000
,
10000000
00000000
00000000
00100000
00010000
00001000
00010000
00000000
00000010
00000000
00001000
00000000
,
00000001
00000010
00000100
00001000
00000100
00010000
00001000
00010000
00001000
01000000
00010000
10000000
,
00010000
00000000
00000000
00000000
10000000
01000000
10000000
00000000
00010000
00100000
00010000
00000000
00100000
00001000
00100000
00000000
,
00001000
00010000
00001000
00000000
00010000
00000010
00010000
00000000
00000010
00001000
00000010
00000000
00001000
00000001
00001000
00000000
,
00000001
00000000
00000000
00000000
00000010
00000100
00000010
00000000
00000100
00001000
00000100
00000000
00010000
00001000
00010000
00000000
,
00001000
01000000
00001000
00000000
01000000
00010000
01000000
00000000
00010000
00000000
10000000
01000000
10000000
00000000
00010000
00000000
,
00200000
00000000
00301000
00010000
00000000
00000000
00000020
00000000
00010030
00001000
00000000
00000000
,
00010000
00000100
00000000
00001000
00000100
00000000
00000010
00000000
00000001
00000000
00000000
00000000
00000100
00000000
00001000
00000000
,
00000000
00000000
00010000
00000000
00100000
00000000
01000000
00000000
00100000
00000000
00000000
10000000
00000000
00000000
00020000
00000000
,
00000000
00000000
00000000
00000000
,
00030000
00000000
00000000
00000000
00000000
00000000
00000000
00000000
00110000
00000000
00000000
00101000
00000000
00000000
00011000
00000000
,
00000000
00000000
00000000
00000000
,
00000000
00000000
00000000
00000000
,
00000000
00000000
00000000
00000000
,
00000000
00000000
00000000
00000000
,
00010000
00000000
00000100
00001000
00000001
00001000
00000001
00000010
,
00000001
00000000
00000010
00000000
00000100
00000000
00001000
00000000
00000001
00000000
00000010
00001000
00000000
00010000
01000000
00000000
,
00000000
00000000
10000000
00000000
00010000
00000000
00100000
00000000
01000000
00000000
10000000
01000000
00000000
00010000
01000000
00000000
,
10000000
00100000
00010000
00001000
00000100
00001000
00010000
00000000
,
00001000
00000000
00100000
00010000
10000000
00010000
10000000
01000000
,
10000000
00000000
01000000
00000000
00100000
00000000
00010000
00000000
10000000
00000000
01000000
00010000
00000000
00001000
00000010
00000000
,
00000000
00000001
00000100
00000001
00000100
00000001
00000100
00000010
,
00000000
00001000
00010000
01000000
01100000
00000000
10010000
00000000
,
11000000
00000000
01000000
00100000
01000000
00000000
00100000
00000000
00010000
00100000
00010000
00000000
00100000
00000000
00001000
00010000
,
00001000
00000000
00010000
00000000
00000100
00010000
00000100
00000000
00010000
00000000
00000010
00001000
00000010
00000000
00000000
00000000
,
00000100
00000000
00000001
00000100
00000001
00000000
00001000
00000000
00000001
00001000
00000001
00000000
00001000
00000000
00000100
00001000
,
00000100
00000000
00010000
00000000
00000100
00010000
00000100
00000000
00010000
00000000
00001000
00010000
00001000
00000000
00000000
00000000
,
00010000
00100000
01000000
00010000
00100000
01000000
00010000
00001000
,
00000100
00000010
00001000
00000100
00000010
00001000
00010000
00001000
,
00000000
01000000
00010000
01000000
00010000
10000000
00010000
10000000
,
00000000
01000000
00010000
00001000
00011000
00000000
00010010
00000000
,
00000010
00001000
00000001
00000000
00000100
00000000
00000001
00001000
00000100
00000000
00010000
00000000
00001000
01000000
00010000
00000000
,
10000000
00000000
01000000
00100000
00010000
00000000
10000000
00000000
00100000
01000000
00010000
00000000
00100000
00000000
00001000
00000000
,
00010000
00001000
00000100
00000001
00000000
00001001
00000001
00000010
,
00001000
00010000
00000000
00011000
00100000
00000000
01000000
00000000
,
10010000
00000000
00000000
00000000
,
00000000
00000000
00000000
00000000
;
