
//----- song ID: kaga -----//
#TITLE:蛇神;
#ARTIST:Zektbach;
#TITLETRANSLIT:Kagachi;
#BANNER:Kagachi.png;
#BACKGROUND:Kagachi-bg.png;
#CDTITLE:./CDTitles/pnm 18 せんごく列伝.png;
#MUSIC:Kagachi.ogg;
#SAMPLESTART:87.529;
#SAMPLELENGTH:15;
#DISPLAYBPM:170;
#BPMS:0=169.5,4=170;
#NOTES:
     dance-single:
     :
     Beginner:
     4:
     :
0000
0000
0000
0000
,
0000
0000
0000
0000
,
0000
0000
0000
0000
,
0000
0000
0000
0000
,
0000
0000
0000
0000
,
1000
0000
1000
0000
,
0001
0000
1000
0000
,
0001
0000
0001
0000
,
1000
0000
0001
0000
,
0100
0000
0100
0000
,
0010
0000
0100
0000
,
0010
0000
0010
0000
,
0100
0000
0010
0000
,
0110
0000
0000
0000
,
1001
0000
0000
0000
,
0110
0000
0000
0000
,
1001
0000
0000
0000
,
0110
0000
0000
0000
,
1001
0000
0000
0000
,
0110
0000
0000
0000
,
1001
0000
0000
0000
,
0000
0000
0000
0000
,
0002
0000
0000
0000
,
0000
0000
0000
0000
,
0003
0000
2000
0000
,
0000
0000
3000
0000
,
0200
0000
0000
0000
,
0000
0000
0000
0000
,
0300
0000
0020
0000
,
0000
0000
0030
0000
,
0001
0001
0001
0000
,
0100
0100
0100
0000
,
0010
0010
0010
0000
,
1000
1000
1000
0000
,
0001
0001
0001
0000
,
1000
1000
1000
0000
,
0100
0100
0100
0000
,
0010
0010
0010
0000
,
0001
0000
1000
0000
,
0002
0000
0000
0000
,
0003
0000
0010
0000
,
0100
0000
1000
0000
,
0100
0000
0010
0000
,
0200
0000
0000
0000
,
0300
0000
1000
0000
,
0010
0000
0100
0000
,
0010
0010
0010
0000
,
1000
1000
1000
0000
,
0001
0001
0001
0000
,
0100
0100
0100
0000
,
0010
0010
0010
0000
,
1000
1000
1000
0000
,
0100
0100
0100
0000
,
0010
0010
0010
0000
,
0001
0000
0100
0000
,
0002
0000
0000
0003
,
1000
0000
0010
0000
,
2000
0000
0000
3000
,
0010
0000
0100
0000
,
0020
0000
0000
0030
,
1000
0000
0001
0000
,
2000
0000
0000
3000
,
0001
0000
0001
0000
,
0010
0000
0100
0000
,
1000
0000
1000
0000
,
0001
0000
0000
0000
,
1000
0000
0010
0000
,
1000
0000
0010
0000
,
0100
0000
0001
0000
,
0010
0010
0010
0000
,
0001
0000
0100
0000
,
0001
0000
0100
0000
,
0010
0000
1000
0000
,
0010
0000
1000
0000
,
0001
0000
0010
0000
,
0001
0000
0010
0000
,
0100
0000
1000
0000
,
0100
0000
1000
0000
,
0001
0000
0100
0000
,
0020
0000
0000
0030
,
1000
0000
0100
0000
,
0020
0000
0000
0030
,
0001
0000
1000
0000
,
0020
0000
0000
0030
,
1000
0000
0001
0000
,
0200
0000
0000
0300
,
0000
0000
0000
0000
;
#NOTES:
     dance-single:
     :
     Easy:
     9:
     :
0000
0000
0000
0000
,
0000
0000
0000
0000
,
0000
0000
0000
0000
,
0000
0000
0000
0000
,
0000
0000
0000
0000
,
0001
1000
0001
1000
,
0010
0000
0100
0000
0010
1000
0010
0000
,
1000
0001
1000
0001
,
0010
0000
0100
0000
0010
0001
0010
0000
,
0100
1000
0100
1000
,
0001
0000
0010
0000
0100
0010
0100
0000
,
1000
0010
1000
0010
,
0100
0000
0001
0000
1000
0001
1000
0000
,
1001
0000
0000
0110
0000
0000
0010
0000
,
1001
0000
0000
0110
0000
0000
1001
0000
,
0110
0000
0000
1001
0000
0000
1000
0000
,
0110
0000
0000
1001
0000
0000
0110
0000
,
1100
0000
0000
1001
0000
0000
0001
0000
,
0011
0000
0000
1010
0000
0000
1100
0000
,
0101
0000
0000
1010
0000
0000
0010
0000
,
1001
0000
0000
0110
0000
0000
1001
0000
,
0000
0000
0000
0000
,
2000
0000
0000
3200
,
0320
0000
0000
0030
,
0000
0000
0002
0000
,
0203
0000
0320
0000
,
0230
0000
0000
0302
,
2003
0000
0000
3000
,
0000
0000
0002
0000
,
0023
0000
0230
0000
,
1300
0000
0010
1000
0010
0000
0100
0000
,
0001
0000
0010
0001
0010
0000
0100
0000
,
1000
0000
0100
0010
0100
0000
1000
0000
,
0001
0000
0100
0010
0100
0000
0001
0000
,
1000
0000
0001
0010
0001
0000
0100
0000
,
0001
0000
1000
0010
1000
0000
0100
0000
,
0010
0000
0001
1000
0001
0000
0100
0000
,
0010
0000
1000
0010
0100
0010
0100
0000
,
0001
0010
0001
0000
1000
0010
1000
0000
,
0002
0010
0010
1000
,
0103
0001
0200
0310
,
2000
3001
0020
0130
,
1000
0010
1000
0000
0001
0010
0001
0000
,
2000
0100
0100
0001
,
3010
1000
0020
0130
,
0002
1003
0200
0310
,
0001
0000
1000
0001
1000
0000
1001
0000
,
0100
0000
0010
0100
0010
0000
0110
0000
,
1000
0000
0001
1000
0001
0000
1001
0000
,
0010
0000
0100
0010
0100
0000
0110
0000
,
1000
0000
0010
0100
0010
0000
1001
0000
,
0001
0000
0010
0100
0010
0000
1001
0000
,
0100
0000
0001
1000
0001
0000
0110
0000
,
1000
0000
0001
0100
0010
0100
0010
0000
,
2000
3200
0320
0000
,
0032
0203
2300
0000
,
3200
0320
2030
0000
,
3200
0320
0032
0000
,
2003
3020
0230
0000
,
0302
0023
2030
0000
,
3020
0230
2300
0000
,
3020
0230
0302
0000
,
1003
0010
1000
0100
,
0010
0001
1000
0010
,
1000
0100
0010
0001
,
1000
0000
0010
0000
1000
0100
1000
0000
,
0001
0010
0100
0010
,
0001
1000
0010
1000
,
0001
0100
0001
0000
1000
0100
1000
0000
,
0010
0100
0010
0100
0010
0100
0010
0000
,
1000
0000
0100
0010
0000
0001
0100
0000
,
0010
0000
1000
0001
0000
0010
0100
0000
,
1000
0000
0010
0100
0000
0001
0010
0000
,
0001
0000
1000
0010
0000
0100
0001
0000
,
1000
0000
0010
0001
0000
0010
1000
0000
,
0001
0000
0010
1000
0000
0010
0001
0000
,
0100
0000
0010
1000
0000
0100
0010
0000
,
0001
0000
0100
0010
0000
1000
0100
0000
,
0020
0032
2003
0000
,
3200
2300
3020
0000
,
2030
3002
0203
0000
,
0320
2030
3002
0000
,
2003
3200
0320
0000
,
0032
0203
0320
0000
,
0230
0302
2003
0000
,
3200
0320
0032
1003
,
0000
0000
0000
0000
;
#NOTES:
     dance-single:
     :
     Medium:
     13:
     :
0000
0000
0000
0000
,
0000
0000
0000
0000
,
0000
0000
0000
0000
,
0000
0000
0000
0000
,
0000
0000
0000
0000
,
1000
0100
1000
0000
0010
0100
0010
0000
,
1000
0100
1000
0000
0001
0010
0100
1000
,
0001
0100
0001
0000
0010
0100
0010
0000
,
0001
0100
0001
0000
1000
0100
0010
0001
,
1000
0010
1000
0000
0100
0010
0100
0000
,
1000
0010
1000
0000
0001
0100
0010
1000
,
0001
0010
0001
0000
0100
0010
0100
0000
,
0001
0010
0001
0000
1000
0010
0100
0001
,
1001
0000
1000
1010
0000
0001
0100
0010
,
0110
0000
1000
1100
0000
0001
0101
0000
,
1001
0000
1000
1100
0000
0001
0010
0100
,
0110
0000
1000
1010
0000
0001
0011
0000
,
0110
0000
0001
0101
0000
1000
0100
0010
,
0110
0000
0001
0011
0000
1000
1010
0000
,
0110
0000
1000
1100
0000
0001
0010
0100
,
0110
0000
1000
1010
0000
0001
0011
0000
,
0000
0000
0000
0000
,
0002
0000
0000
0203
,
0320
0000
0000
0030
,
1010
0000
0002
0000
,
0023
0000
0230
0000
,
2300
0000
0000
3200
,
0320
0000
0000
0030
,
0011
0000
2000
0000
,
3020
0000
0230
0000
,
0310
0000
0000
1000
0000
0000
0001
0000
0100
0000
0010
0000
0100
0000
0000
0000
,
0001
0000
0000
0010
0000
0000
0100
0000
1000
0000
0001
0000
1000
0000
0000
0000
,
0010
0000
0000
0100
0000
0000
0001
0000
1000
0000
0010
0000
1000
0000
0000
0000
,
0001
0000
0000
0010
0000
0000
0100
0000
1000
0000
0010
0000
1000
0000
0000
0000
,
0001
0000
0000
0100
0000
0000
1000
0000
0100
0000
0010
0000
0100
0000
0000
0000
,
0001
0000
0000
0010
0000
0000
1000
0000
0010
0000
0100
0000
0010
0000
0000
0000
,
0100
0000
0000
1000
0000
0000
0010
0000
0100
0000
0001
0000
0100
0000
0000
0000
,
0010
0000
0000
1000
0000
0000
0100
0000
0010
0000
0001
0000
0010
0000
0001
0000
,
1000
0010
1000
0010
0100
0001
0100
0000
,
0001
0010
0001
0010
0100
1000
0100
0000
,
1000
0010
0102
1003
,
2100
3001
0021
0130
,
0001
0100
0001
0100
0010
1000
0010
0000
,
1000
0100
1000
0100
0010
0001
0010
0000
,
0001
0100
1020
0130
,
0012
0103
2010
3100
,
1001
0000
0001
0010
0100
1000
0001
0000
,
1001
0000
1000
0100
0010
0001
1000
0000
,
1001
0000
0001
0010
0100
1000
0100
0000
,
1001
0000
1000
0100
0010
0001
0010
0000
,
1001
0000
0001
0010
0100
1000
0010
0000
,
1001
0000
1000
0100
0010
0001
0100
0000
,
1001
0000
0001
0100
0010
1000
0100
0000
,
1001
0000
1000
0010
0100
0001
0010
0100
,
2000
0000
3002
0000
0203
0000
0000
0310
,
2000
3002
0023
0000
,
0032
0000
2003
0000
3200
0000
0000
0310
,
0002
2003
3200
0000
,
2300
0000
3020
0000
0230
0000
0000
0301
,
2000
3200
0320
0000
,
0230
0000
2300
0000
3020
0000
0000
0130
,
0002
0023
0230
0300
,
0010
0001
1000
0100
1000
0100
0010
0000
,
0001
0100
0010
1000
0010
1000
0010
0000
,
1000
0001
0100
0010
1000
0001
0100
0010
,
1000
0100
0010
0001
1000
0100
0010
0000
,
0001
0100
0001
1000
0010
1000
0100
0010
,
0100
0010
0001
1000
0001
0100
0010
1000
,
0001
0001
0100
0010
1000
1000
0001
0010
,
0001
0001
1000
1000
0010
0010
0010
0000
,
1000
0010
1000
0000
0010
0000
0100
0001
0100
0000
0001
0000
0100
0000
0000
0000
,
0010
1000
0010
0000
1000
0000
0001
0100
0001
0000
0100
0000
0001
0000
0000
0000
,
1000
0100
1000
0000
0100
0000
0010
0001
0010
0000
0001
0000
0010
0000
0000
0000
,
0001
0100
0001
0000
0100
0000
0010
1000
0010
0000
1000
0000
0010
0000
0000
0000
,
0100
0001
0100
0000
0010
0000
1000
0100
1000
0000
0001
0000
0010
0000
0000
0000
,
0001
0100
0001
0000
1000
0000
0100
0010
0100
0000
1000
0000
0001
0000
0000
0000
,
1000
0010
1000
0000
0001
0000
0010
0100
0010
0000
0001
0000
1000
0000
0000
0000
,
0001
0010
0001
0000
0100
0000
0010
1000
0010
0000
0100
0000
0001
0000
0000
0000
,
0020
0000
0032
0000
2003
0000
0000
3010
,
0200
0302
2003
0000
,
3020
0000
0230
0000
0302
0000
0000
0013
,
0200
0000
2300
0000
3002
0000
0000
0003
,
2000
0000
3200
0000
0320
0000
0000
0130
,
2000
3002
0203
0000
,
0320
0000
2030
0000
3200
0000
0000
0310
,
0002
0203
0320
1030
,
0000
0000
0000
0000
;
#NOTES:
     dance-single:
     :
     Hard:
     16:
     :
0000
0000
0000
0000
,
0000
0000
0000
0000
,
0000
0000
0000
0000
,
0000
0000
0000
0000
,
0000
0000
0000
0000
,
0001
0000
1000
0100
0010
0100
0000
0000
1000
0000
0001
0100
0010
0100
0000
0000
,
0001
0000
1000
0100
0010
0100
0000
1000
0001
0010
0001
0010
0100
1000
0100
0000
,
1000
0000
0001
0100
0010
0100
0000
0000
0001
0000
1000
0100
0010
0100
0000
0000
,
1000
0000
0001
0010
0100
0010
0000
0001
1000
0100
1000
0100
0010
0001
0010
0000
,
0001
0000
1000
0100
0010
0001
0000
0000
1000
0000
0001
0100
0010
1000
0000
0000
,
0001
0000
1000
0100
0010
0001
0000
1000
0010
0100
0010
0100
0001
0010
0100
0000
,
1000
0000
0001
0010
0100
1000
0000
0000
0001
0000
1000
0010
0100
0001
0000
0000
,
1000
0000
0001
0010
0100
1000
0000
0001
0100
0010
0100
0010
1000
0100
0010
0000
,
1001
0000
0001
0100
0001
0000
1000
0000
0100
0010
0100
0000
1000
0000
0001
0000
,
1001
0000
1000
0010
1000
0000
0001
0000
0010
0100
0010
0000
0001
0000
1000
0000
,
1001
0000
0001
0010
0001
0000
1000
0000
0010
0100
0010
0000
1000
0000
0001
0000
,
1001
0000
1000
0100
1000
0000
0001
0000
0100
0010
0100
0000
0001
0000
1000
0000
,
1100
0000
0001
0100
0001
0000
1000
0000
0100
0010
0100
0000
1000
0000
0001
0000
,
0101
0000
1000
0010
1000
0000
0001
0000
0010
0100
0010
0000
0001
0000
1000
0000
,
1010
0000
0001
0010
0001
0000
0100
0000
0010
1000
0010
0000
0100
0000
0001
0000
,
0011
0000
1000
0010
1000
0000
0100
0000
0010
0001
0010
0000
0110
0000
0000
0000
,
0000
0000
0000
0000
,
1001
0000
0000
0001
0010
0100
1000
0000
0000
0001
0000
0000
,
0011
0000
0000
1000
0100
0010
0001
0000
0000
1000
0000
0000
,
1010
0000
2002
3003
,
2200
3300
0202
0303
,
1001
0000
0000
1000
0100
0010
0001
0000
0000
1000
0000
0000
,
1100
0000
0000
0001
0010
0100
1000
0000
0000
0001
0000
0000
,
0101
0000
2002
3003
,
0022
0033
2020
3030
,
0110
0000
0000
1000
0100
0000
1100
0000
0000
0000
0010
0100
1000
0000
0000
0000
,
0110
0000
0000
0001
0100
0000
0101
0000
0000
0000
0010
0100
0001
0000
0000
0000
,
1001
0000
0000
1000
0010
0000
1010
0000
0000
0000
0001
0100
0010
0000
0000
0000
,
1001
0000
0000
0001
0010
0000
0011
0000
0000
0000
1000
0100
0010
0000
0000
0000
,
0101
0000
0000
1000
0010
0000
0011
0000
0000
0000
0001
0010
0100
0000
0000
0000
,
1010
0000
0000
0001
0100
0000
1100
0000
0000
0000
1000
0100
0010
0000
0000
0000
,
0101
0000
0000
1000
0010
0000
1001
0000
0000
0000
0001
0100
1000
0000
0000
0000
,
1010
0000
0000
0001
0100
0000
1001
0000
1000
0000
0001
0000
1000
0010
1000
0010
,
0100
0001
0100
0000
0010
0000
0010
0000
1000
0100
1000
0000
0001
0000
0001
0000
,
0100
0010
0100
0000
0001
0000
1000
0000
0001
0000
0010
0000
0100
0000
1000
0000
,
0001
0100
0010
0100
0002
0013
1000
0010
,
0002
0103
1000
0100
0020
1030
0100
1000
,
0001
0010
0001
0000
0100
0000
0100
0000
0010
1000
0010
0000
0100
0000
0100
0000
,
0001
1000
0001
0000
0010
0000
0100
0000
1000
0000
0010
0000
0100
0000
0001
0000
,
1000
0100
0010
0100
2000
3010
0001
0010
,
2000
3100
0001
0100
0020
0031
0100
0001
,
1001
0000
0010
0100
0010
0000
0100
0000
0010
0100
0010
0000
0110
0000
0000
0000
,
1001
0000
0100
0010
0100
0000
0010
0000
0100
0010
0100
0000
0110
0000
0000
0000
,
1001
0000
0001
1000
0001
0000
1000
0000
0001
1000
0001
0000
1001
0000
0000
0000
,
1001
0000
1000
0001
1000
0000
0001
0000
1000
0001
1000
0000
1001
0000
0000
0000
,
0110
0000
0001
0100
1000
0000
0100
0000
0001
0100
1000
0000
0110
0000
0000
0000
,
0110
0000
0001
0010
1000
0000
0010
0000
0001
0010
1000
0000
0110
0000
0000
0000
,
1001
0000
1000
0100
0001
0000
0100
0000
1000
0100
0001
0000
1001
0000
0000
0000
,
1001
0000
1000
0010
0001
0000
0010
0000
1000
0010
0001
0000
0010
0100
0010
0100
,
0002
0000
0023
0000
0230
0000
0000
1300
,
0020
0000
0000
0000
1030
0000
0001
0010
0200
0000
0000
0000
0000
0000
1300
0010
,
2000
0000
3200
0000
0320
0000
0000
0031
,
2000
0000
0000
0000
3200
0000
0000
0000
0320
0000
0000
0000
0000
0000
0031
0100
,
0002
0000
0203
0000
0320
0000
0000
1030
,
0200
0000
0000
0000
1300
0000
0001
0100
0020
0000
0000
0000
0000
0000
1030
0100
,
2000
0000
3200
0000
0320
0000
0000
0031
,
2000
3020
0230
0300
,
0001
0000
0010
0100
1000
0000
0100
0000
1000
0000
1000
0000
0010
0000
0100
0000
,
0010
0000
1000
0100
0010
0000
0100
0000
0010
0000
0010
0000
0001
0000
1000
0000
,
0100
0000
0010
0001
0100
0000
0010
0000
0100
0000
0100
0000
0001
0000
1000
0000
,
0010
0000
0100
0001
0010
0000
0100
0000
0010
0000
0010
0001
1000
0100
1000
0100
,
0010
0000
0001
0100
0010
0000
1000
0100
0010
0000
0100
0000
1000
0000
0001
0000
,
0010
0000
0100
0010
0001
0000
0100
0010
1000
0000
0010
0000
0100
0000
0010
0000
,
0100
0001
1000
0100
0010
0000
0001
0000
1000
0010
0100
0001
1000
0000
0100
0000
,
1000
0010
1000
0010
0100
0001
1000
0100
0010
0001
1000
0001
0100
0000
0100
0000
,
0001
0100
0001
0100
0001
0000
1000
0010
1000
0010
1000
0000
0100
0000
0100
0000
,
0010
0001
0010
0001
0010
0000
0100
1000
0100
1000
0100
0000
0010
0000
0010
0000
,
0001
1000
0001
1000
0001
0000
0100
0010
0100
0010
0100
0000
0001
0000
0001
0000
,
1000
0010
1000
0010
1000
0000
0001
0100
0001
0100
0001
0000
0010
0000
0010
0000
,
0001
0010
0100
1000
0001
0000
1000
0010
0100
0001
1000
0000
0010
0100
0010
0000
,
1000
0010
0100
0001
1000
0000
0001
0010
0100
1000
0001
0000
0100
0010
0100
0000
,
0001
0100
0001
0100
1000
0000
0001
0010
0001
0010
1000
0000
0010
0100
0010
0000
,
1000
0010
1000
0010
0001
0000
1000
0100
1000
0100
0001
0000
0100
0010
0100
0000
,
0020
0000
2030
0000
3200
0000
0000
0310
,
0200
2300
3020
0001
,
2030
0000
3002
0000
0203
0000
0000
0310
,
2000
0000
3020
0000
0230
0000
1000
0300
,
0002
0000
2003
0000
3020
0000
0000
0130
,
0020
2030
3200
0001
,
0320
0000
0032
0000
0203
0000
0000
0310
,
2000
3200
0302
1003
,
0000
0000
0000
0000
;
#NOTES:
     dance-double:
     :
     Easy:
     9:
     :
00000000
00000000
00000000
00000000
,
00000000
00000000
00000000
00000000
,
00000000
00000000
00000000
00000000
,
00000000
00000000
00000000
00000000
,
00000000
00000000
00000000
00000000
,
00000001
00001000
00000001
00001000
,
00000100
00010000
00001000
00100000
,
00010000
10000000
00010000
10000000
,
01000000
00100000
00010000
00100000
,
00001000
00010000
00001000
00010000
,
00000010
00001000
00000001
00000010
,
00000100
00001000
00000100
00001000
,
00010000
00100000
01000000
10000000
,
10010000
00000000
00000000
01010000
00000000
00000000
00001000
00000000
,
00011000
00000000
00000000
00010100
00000000
00000000
00001100
00000000
,
00000101
00000000
00000000
00000110
00000000
00000000
00001000
00000000
,
00001100
00000000
00000000
00010100
00000000
00000000
00011000
00000000
,
01001000
00000000
00000000
01010000
00000000
00000000
10000000
00000000
,
10100000
00000000
00000000
00110000
00000000
00000000
00101000
00000000
,
00011000
00000000
00000000
00010010
00000000
00000000
00001000
00000000
,
00001001
00000000
00000000
00000110
00000000
00000000
00001001
00000000
,
00000000
00000000
00000000
00000000
,
00000002
00000000
00000000
00000023
,
00000230
00000000
00000000
00000300
,
00000000
00000000
00020000
00000000
,
00032000
00000000
00203000
00000000
,
00320000
00000000
00000000
02030000
,
03200000
00000000
00000000
00300000
,
00000000
00000000
20000000
00000000
,
32000000
00000000
03200000
00000000
,
00310000
00000000
00100000
00001000
00100000
00000000
00001000
00000000
,
00010000
00000000
00000010
00001000
00000010
00000000
00001000
00000000
,
00000001
00000000
00000100
00000010
00000100
00000000
00000001
00000000
,
00001000
00000000
00000100
00000010
00000100
00000000
00001000
00000000
,
00000010
00000000
00010000
00001000
00010000
00000000
00001000
00000000
,
00100000
00000000
00001000
00010000
00001000
00000000
00010000
00000000
,
00000100
00000000
00010000
00001000
00010000
00000000
00001000
00000000
,
01000000
00000000
00001000
00010000
00001000
00000000
00010000
00000000
,
00001000
00010000
00100000
10000000
,
00020000
00100000
00100000
10000000
,
00130000
10000000
00200000
00310000
,
00002000
00003100
00000002
00001003
,
00000001
00000010
00001000
00010000
,
02000000
10000000
10000000
00100000
,
13000000
00010000
20000000
31000000
,
00200000
00310000
00002000
00003100
,
00000010
00000001
00001000
00001100
,
00000100
00010000
00001000
01001000
,
01000000
00010000
10000000
10100000
,
00100000
01000000
00001000
00011000
,
00010000
00000010
00001000
00001001
,
00000001
00000010
00000100
00001100
,
00001000
00000010
00010000
00011000
,
00001000
00000000
00100000
00000000
00010000
10000000
00010000
00000000
,
20000000
32000000
03200000
00000000
,
00320000
00032000
00003200
00000000
,
00000320
00000032
00002003
00000000
,
00003020
00000230
00000302
00000000
,
00000023
00000230
00002300
00000000
,
00023000
00230000
02300000
00000000
,
23000000
30200000
00320000
00000000
,
00032000
00003200
00000302
00000000
,
00001003
00000010
00001000
00000100
,
00010000
00001000
01000000
00010000
,
00100000
01000000
10000000
00100000
,
01000000
00000000
00010000
00000000
10000000
00100000
10000000
00000000
,
00010000
00100000
00001000
00010000
,
00000010
00001000
00000100
00000010
,
00000001
00000100
00000001
00000000
00001000
00000100
00001000
00000000
,
00000100
00010000
00000100
00010000
00001000
00010000
00001000
00000000
,
00010000
00000000
01000000
10000000
00000000
01000000
00010000
00000000
,
00001000
00000000
00000010
00000001
00000000
00000010
00001000
00000000
,
00010000
00000000
00001000
00000100
00000000
00001000
00010000
00000000
,
00001000
00000000
00010000
01000000
00000000
00010000
00001000
00000000
,
00000010
00000000
00000001
00000100
00000000
00001000
00000100
00000000
,
00000001
00000000
00000010
00001000
00000000
00010000
01000000
00000000
,
10000000
00000000
00100000
00010000
00000000
00100000
10000000
00000000
,
01000000
00000000
00010000
00001000
00000000
00000010
00000001
00000000
,
00002000
00003200
00020300
00000000
,
00032000
00203000
00320000
00000000
,
20030000
32000000
03200000
00000000
,
00302000
00023000
00030200
00000000
,
00002300
00003020
00020030
00000000
,
00032000
02003000
03020000
00000000
,
20030000
30200000
02300000
00000000
,
03002000
00023000
00030200
00001300
,
00000000
00000000
00000000
00000000
;
#NOTES:
     dance-double:
     :
     Medium:
     13:
     :
00000000
00000000
00000000
00000000
,
00000000
00000000
00000000
00000000
,
00000000
00000000
00000000
00000000
,
00000000
00000000
00000000
00000000
,
00000000
00000000
00000000
00000000
,
00001000
00010000
00001000
00000000
00100000
00010000
00100000
00000000
,
01000000
10000000
01000000
00000000
10010000
00000000
00110000
00000000
,
00100000
00001000
00100000
00000000
00001000
00010000
00001000
00000000
,
00010000
00000010
00010000
00000000
00001010
00000000
00001001
00000000
,
00000001
00000100
00000001
00000000
00001000
00000100
00001000
00000000
,
00000100
00010000
00000100
00000000
00011000
00000000
01001000
00000000
,
01000000
00010000
01000000
00000000
00100000
10000000
00100000
00000000
,
10000000
01000000
10000000
00000000
01100000
00000000
11000000
00000000
,
10010000
00000000
00010000
00110000
00000000
00100000
00001000
00010000
,
00011000
00000000
00000010
00001010
00000000
00000100
00000101
00000000
,
00001001
00000000
00001000
00001100
00000000
00000100
00010000
00001000
,
00011000
00000000
01000000
01010000
00000000
00100000
10100000
00000000
,
10010000
00000000
10000000
11000000
00000000
01000000
00010000
00001000
,
00011000
00000000
00010000
00010010
00000000
00000010
00001010
00000000
,
00000110
00000000
00000001
00000101
00000000
00000100
00001000
00010000
,
00011000
00000000
00001000
00101000
00000000
00100000
00110000
00000000
,
00000000
00000000
00000000
00000000
,
20000000
00000000
00000000
30200000
,
00320000
00000000
00000000
00030000
,
00011000
00000000
00020000
00000000
,
00032000
00000000
00003200
00000000
,
00000302
00000000
00000000
00000023
,
00002030
00000000
00000000
00003000
,
00011000
00000000
00002000
00000000
,
00023000
00000000
00230000
00000000
,
10300000
00000000
00000000
00010000
00000000
00000000
01000000
00000000
00001000
00000000
00010000
00000000
00001000
00000000
00000000
00000000
,
00010000
00000000
00000000
00000010
00000000
00000000
00001000
00000000
00000001
00000000
00000100
00000000
00000001
00000000
00000000
00000000
,
00001000
00000000
00000000
00000100
00000000
00000000
00010000
00000000
00001000
00000000
00100000
00000000
00001000
00000000
00000000
00000000
,
00100000
00000000
00000000
00010000
00000000
00000000
10000000
00000000
00100000
00000000
01000000
00000000
00100000
00000000
00000000
00000000
,
10000000
00000000
00000000
01000000
00000000
00000000
00010000
00000000
00001000
00000000
00010000
00000000
00001000
00000000
00000000
00000000
,
00010000
00000000
00000000
00001000
00000000
00000000
00000010
00000000
00000100
00000000
00000010
00000000
00000001
00000000
00000000
00000000
,
00000100
00000000
00000000
00000001
00000000
00000000
00000100
00000000
00001000
00000000
00010000
00000000
00001000
00000000
00000000
00000000
,
00010000
00000000
00000000
00100000
00000000
00000000
10000000
00000000
00100000
00000000
01000000
00000000
00100000
00000000
00000000
00000000
,
01000000
00010000
01000000
00001000
00010000
00001000
00010000
00000000
,
00000100
00001000
00000100
00000010
00000001
00000010
00000001
00000000
,
00001000
00000100
00012000
00103000
,
00210000
01300000
21000000
30010000
,
00010000
00100000
00010000
00100000
00001000
00010000
00001000
00000000
,
00010000
00000100
00010000
00000100
00001000
00000001
00001000
00000000
,
00000010
00010000
00001020
00010030
,
00020100
00031000
01002000
00013000
,
00011000
00000000
00001000
00100000
00010000
00000000
10000000
00000000
,
10010000
00000000
00010000
01000000
00001000
00000000
00010000
00000000
,
00011000
00000000
00010000
00000010
00001000
00000000
00000001
00000000
,
00001001
00000000
00001000
00000100
00010000
00000000
00001000
00000000
,
00011000
00000000
00010000
01000000
10000000
00000000
00010000
00000000
,
11000000
00000000
01000000
00010000
00001000
00000000
00010000
00000000
,
00011000
00000000
00001000
00000010
00000001
00000000
00001000
00000000
,
00000101
00000000
00000100
00001000
00010000
00001000
00010000
00000000
,
00002000
00000000
00203000
00000000
00320000
00000000
00000000
10030000
,
02000000
03200000
00320000
00000000
,
02030000
00000000
03002000
00000000
00023000
00000000
00000000
00030010
,
00002000
00003200
00000320
00000000
,
00000032
00000000
00002003
00000000
00003200
00000000
00000000
00010300
,
00002000
02003000
03020000
00000000
,
20030000
00000000
30200000
00000000
02300000
00000000
00000000
03010000
,
00200000
00302000
00023000
00030000
,
00000100
00001000
00000100
00000010
00000001
00000010
00000001
00000000
,
00001000
00000010
00001000
00000100
00010000
00000100
00010000
00000000
,
00001000
00100000
00010000
10000000
01000000
00100000
00010000
00000000
,
00100000
00001000
00010000
00000100
00001000
00000010
00000100
00000000
,
00000001
00000010
00000001
00000000
00000010
00001000
00000010
00000000
,
00001000
00010000
00001000
00000000
00010000
01000000
00010000
00000000
,
01000000
10000000
00010000
10000000
00100000
00010000
00001000
00010000
,
00000010
00001000
00000100
00000010
00000001
00000001
00000001
00000000
,
00001000
00000100
00001000
00000010
00010000
00001000
00010000
00010000
,
00001000
00100000
00001000
01000000
00010000
10000000
00100000
00100000
,
10000000
01000000
10000000
00100000
01000000
00010000
00100000
00100000
,
00001000
00010000
00000100
00001000
00000100
00010000
00001000
00000000
,
00010000
00001000
00010000
00000000
00000100
00000000
00001000
00000100
00001000
00000000
00000001
00000000
00000010
00000000
00000000
00000000
,
00000001
00000100
00000001
00000000
00001000
00000000
00000100
00001000
00000100
00000000
00010000
00000000
00001000
00000000
00000000
00000000
,
00100000
00010000
00100000
00000000
00010000
00000000
01000000
00100000
01000000
00000000
00100000
00000000
01000000
00000000
00000000
00000000
,
00001000
00010000
00001000
00000000
00010000
00000000
00000010
00000100
00000010
00000000
00000100
00000000
00000001
00000000
00000000
00000000
,
00002000
00000000
00003200
00000000
00020300
00000000
00000000
00031000
,
00020000
02030000
23000000
00000000
,
30020000
00000000
00230000
00000000
00302000
00000000
00000000
00013000
,
00002000
00000000
00003200
00000000
00000302
00000000
00000000
00000003
,
00002000
00000000
00003020
00000000
00020030
00000000
00000000
00031000
,
00020000
00230000
20300000
00000000
,
30020000
00000000
02030000
00000000
03002000
00000000
00000000
00013000
,
00002000
00003020
00000032
00001003
,
00000000
00000000
00000000
00000000
;
#NOTES:
     dance-double:
     :
     Hard:
     16:
     :
00000000
00000000
00000000
00000000
,
00000000
00000000
00000000
00000000
,
00000000
00000000
00000000
00000000
,
00000000
00000000
00000000
00000000
,
00000000
00000000
00000000
00000000
,
10000000
00000000
00010000
00000000
01000000
00010000
00000000
00000000
01000000
00000000
00001000
00000000
00010000
00001000
00000000
00000000
,
00010000
00000000
00000100
00000000
00001000
00000100
00000000
00000010
00000001
00000100
00000001
00000000
00001000
00000100
00001000
00000000
,
00000001
00000000
00001000
00000000
00000010
00001000
00000000
00000000
00000010
00000000
00010000
00000000
00001000
00010000
00000000
00000000
,
00001000
00000000
00100000
00000000
00010000
00100000
00000000
01000000
10000000
00100000
10000000
00000000
00010000
00100000
00010000
00000000
,
10000000
00000000
01000000
00000000
00100000
00010000
00000000
00000000
01000000
00000000
00001000
00000000
00010000
00001000
00000000
00000000
,
00100000
00000000
00001000
00000000
00010000
00000010
00000000
00001000
00000100
00000010
00000001
00000000
00001000
00000010
00000100
00000000
,
00000001
00000000
00000010
00000000
00000100
00001000
00000000
00000000
00000010
00000000
00010000
00000000
00001000
00010000
00000000
00000000
,
00000100
00000000
00010000
00000000
00001000
01000000
00000000
00010000
00100000
01000000
10000000
00000000
00010000
01000000
00100000
00000000
,
01100000
00000000
10000000
00100000
10000000
00000000
00010000
00000000
01000000
00001000
01000000
00000000
00001000
00000000
00010000
00000000
,
00010100
00000000
00000100
00001000
00000100
00000000
00000010
00000000
00000001
00001000
00000001
00000000
00001000
00000000
00000010
00000000
,
00010010
00000000
00010000
00001000
00010000
00000000
01000000
00000000
00100000
00010000
00100000
00000000
01000000
00000000
10000000
00000000
,
10100000
00000000
00100000
01000000
00100000
00000000
00010000
00000000
00001000
00010000
00001000
00000000
00000100
00000000
00000010
00000000
,
00001010
00000000
00000001
00000100
00000001
00000000
00001000
00000000
00000010
00000100
00000010
00000000
00010000
00000000
00001000
00000000
,
01001000
00000000
01000000
00010000
01000000
00000000
00100000
00000000
10000000
01000000
10000000
00000000
00010000
00000000
00100000
00000000
,
01100000
00000000
10000000
00100000
10000000
00000000
00010000
00000000
01000000
00100000
01000000
00000000
00001000
00000000
00010000
00000000
,
00010010
00000000
00000010
00001000
00000010
00000000
00000100
00000000
00000001
00000010
00000001
00000000
00001001
00000000
00000000
00000000
,
00000000
00000000
00000000
00000000
,
00001001
00000000
00000000
00000001
00000010
00000100
00001000
00000000
00000000
00010000
00000000
00000000
,
00100000
00000000
00000000
00010000
01000000
00100000
10000000
00000000
00000000
01000000
00000000
00000000
,
00010000
00000000
00022000
00033000
,
02020000
03030000
22000000
33000000
,
10010000
00000000
00000000
10000000
01000000
00100000
00010000
00000000
00000000
00001000
00000000
00000000
,
00000100
00000000
00000000
00001000
00000010
00000100
00000001
00000000
00000000
00000010
00000000
00000000
,
00001000
00000000
00022000
00033000
,
00002020
00003030
00000022
00000033
,
00000110
00000000
00000000
00000001
00001000
00000000
00001001
00000000
00000000
00000000
00000001
00000100
00001000
00000000
00000000
00000000
,
00011000
00000000
00000000
00001000
00100000
00000000
00101000
00000000
00000000
00000000
00100000
00010000
01000000
00000000
00000000
00000000
,
01100000
00000000
00000000
10000000
00010000
00000000
10010000
00000000
00000000
00000000
10000000
01000000
00010000
00000000
00000000
00000000
,
00011000
00000000
00000000
00010000
00000010
00000000
00010010
00000000
00000000
00000000
00000010
00001000
00000100
00000000
00000000
00000000
,
00001100
00000000
00000000
00000001
00000100
00000000
00000110
00000000
00000000
00000000
00000001
00000010
00001000
00000000
00000000
00000000
,
00011000
00000000
00000000
00001000
01000000
00000000
01010000
00000000
00000000
00000000
10000000
01000000
00010000
00000000
00000000
00000000
,
01100000
00000000
00000000
10000000
00100000
00000000
10010000
00000000
00000000
00000000
10000000
01000000
00010000
00000000
00000000
00000000
,
00011000
00000000
00000000
00010000
00000100
00000000
00001100
00000000
00001000
00000000
00001000
00000000
00000010
00000100
00000010
00000100
,
00000001
00001000
00000001
00000000
00000010
00000000
00000010
00000000
00000100
00001000
00000100
00000000
00010000
00000000
00010000
00000000
,
00001000
00100000
00001000
00000000
00100000
00000000
00010000
00000000
10000000
00000000
01000000
00000000
00100000
00000000
00010000
00000000
,
00001000
00000100
00000010
00000100
00002000
00003010
00000001
00000010
,
00000200
00000301
00000100
00001000
00020000
00031000
00010000
00100000
,
10000000
00100000
10000000
00000000
01000000
00000000
01000000
00000000
00100000
00010000
00100000
00000000
00001000
00000000
00001000
00000000
,
00010000
00000100
00010000
00000000
00000100
00000000
00001000
00000000
00000001
00000000
00000010
00000000
00000100
00000000
00001000
00000000
,
00010000
00100000
01000000
00100000
00020000
01030000
10000000
01000000
,
00200000
10300000
00100000
00010000
00002000
00013000
00001000
00000100
,
00000110
00000000
00001000
00000010
00001000
00000000
00000010
00000000
00001000
00000010
00001000
00000000
00001010
00000000
00000000
00000000
,
00010010
00000000
00010000
00001000
00010000
00000000
00001000
00000000
00010000
00001000
00010000
00000000
00011000
00000000
00000000
00000000
,
00101000
00000000
00100000
00010000
00100000
00000000
00010000
00000000
00100000
00010000
00100000
00000000
00110000
00000000
00000000
00000000
,
10010000
00000000
10000000
00100000
10000000
00000000
00100000
00000000
10000000
00100000
10000000
00000000
10100000
00000000
00000000
00000000
,
11000000
00000000
01000000
00010000
00001000
00000000
00010000
00000000
00001000
00000100
00000010
00000000
00000110
00000000
00000000
00000000
,
00000101
00000000
00000100
00001000
00010000
00000000
00001000
00000000
00010000
00100000
01000000
00000000
01100000
00000000
00000000
00000000
,
10100000
00000000
10000000
01000000
00010000
00000000
01000000
00000000
00010000
00001000
00000010
00000000
00000011
00000000
00000000
00000000
,
00001001
00000000
00000001
00000100
00001000
00000000
00010000
00000000
00001000
00000100
00000010
00000000
00000100
00001000
00010000
00001000
,
00020000
00000000
00032000
00000000
00003020
00000000
00000000
00000130
,
00002000
00000000
00000000
00000000
00003010
00000000
00000001
00000010
00002000
00000000
00000000
00000000
00000000
00000000
00003001
00000010
,
00000002
00000000
00000203
00000000
00002300
00000000
00000000
00013000
,
00002000
00000000
00000000
00000000
00003020
00000000
00000000
00000000
00000032
00000000
00000000
00000000
00000000
00000000
00000013
00000100
,
00000020
00000000
00002030
00000000
00023000
00000000
00000000
01030000
,
20000000
00000000
00000000
00000000
30100000
00000000
00010000
00100000
20000000
00000000
00000000
00000000
00000000
00000000
31000000
00100000
,
02000000
00000000
03020000
00000000
00032000
00000000
00000000
00003100
,
00000020
00002030
00003200
00000300
,
00010000
00000000
00000100
00001000
00000001
00000000
00000010
00000000
00000100
00000000
00000100
00000000
00001000
00000000
00000010
00000000
,
00010000
00000000
00001000
00100000
00010000
00000000
01000000
00000000
00100000
00000000
00100000
00000000
10000000
00000000
01000000
00000000
,
00100000
00000000
00010000
10000000
00100000
00000000
01000000
00000000
00010000
00000000
00010000
00000000
00100000
00000000
00001000
00000000
,
00010000
00000000
00000010
00001000
00000001
00000000
00000010
00000000
00000100
00000000
00000100
00000000
00001000
00000001
00001000
00000000
,
00000100
00000000
00001000
00000010
00010000
00000000
00001000
00100000
00010000
00000000
01000000
00000000
00010000
00000000
10000000
00000000
,
01000000
00000000
00100000
00010000
01000000
00000000
00001000
00010000
00000100
00000000
00001000
00000000
00000010
00000000
00000100
00000000
,
00000001
00000010
00001000
00010000
00001000
00000000
00010000
00000000
00001000
00010000
01000000
10000000
01000000
00000000
10000000
00000000
,
00010000
00100000
00010000
00100000
01000000
10000000
00010000
00000000
01000000
00000000
01000000
00000000
00001000
00000000
00001000
00000000
,
00010000
00000100
00010000
00000100
00010000
00000000
00000100
00001000
00000100
00001000
00000100
00000000
00000010
00000000
00000010
00000000
,
00000001
00000100
00000001
00000100
00000001
00000000
00001000
00000010
00001000
00000010
00001000
00000000
00000100
00000000
00000100
00000000
,
00010000
00001000
00010000
00001000
00010000
00000000
00001000
00100000
00001000
00100000
00001000
00000000
00010000
00000000
00010000
00000000
,
01000000
00100000
01000000
00100000
01000000
00000000
10000000
00010000
10000000
00010000
10000000
00000000
00100000
00000000
00100000
00000000
,
01000000
00001000
01000000
00001000
00010000
00000000
00000100
00001000
00000100
00001000
00000001
00000000
00000010
00000000
00000010
00000000
,
00000001
00001000
00000001
00001000
00000010
00000000
00010000
00001000
00010000
00001000
00100000
00000000
00010000
00000000
00010000
00000000
,
10000000
01000000
00100000
00010000
00100000
00000000
00001000
00010000
00000100
00001000
00000100
00000000
00000010
00000000
00000010
00000000
,
00000001
00000100
00000010
00001000
00000010
00000000
00010000
00001000
00100000
00010000
00100000
00000000
01000000
00000000
01000000
00000000
,
20000000
00000000
30200000
00000000
00320000
00000000
00000000
00031000
,
00020000
00032000
00003020
00000001
,
00002030
00000000
00003002
00000000
00000203
00000000
00000000
00001300
,
00000002
00000000
00000203
00000000
00000320
00000000
00000001
00000030
,
00002000
00000000
00023000
00000000
00230000
00000000
00000000
10300000
,
00020000
00000000
02030000
00000000
23000000
00000000
00100000
30000000
,
02000000
00000000
03020000
00000000
20030000
00000000
00000000
30100000
,
00020000
00032000
00003200
00000310
,
00000000
00000000
00000000
00000000
;
